  0
SECTION
  2
HEADER
  9
$ACADVER
  1
AC1014
  9
$ACADMAINTVER
 70
             0
  9
$DWGCODEPAGE
  3
ANSI_1252
  9
$INSBASE
 10
0.0
 20
0.0
 30
0.0
  9
$EXTMIN
 10
1.00000000000000E+20
 20
1.00000000000000E+20
 30
1.00000000000000E+20
  9
$EXTMAX
 10
-1.00000000000000E+20
 20
-1.00000000000000E+20
 30
-1.00000000000000E+20
  9
$LIMMIN
 10
0.0
 20
0.0
  9
$LIMMAX
 10
0.0
 20
0.0
  9
$ORTHOMODE
 70
             0
  9
$REGENMODE
 70
             1
  9
$FILLMODE
 70
             1
  9
$QTEXTMODE
 70
             0
  9
$MIRRTEXT
 70
             1
  9
$DRAGMODE
 70
             2
  9
$LTSCALE
 40
1.0
  9
$OSMODE
 70
             0
  9
$ATTMODE
 70
             1
  9
$TEXTSIZE
 40
0.2
  9
$TRACEWID
 40
0.05
  9
$TEXTSTYLE
  7
STANDARD
  9
$CLAYER
  8
0
  9
$CELTYPE
  6
CONTINUOUS
  9
$CECOLOR
 62
           256
  9
$CELTSCALE
 40
1.0
  9
$DELOBJ
 70
             1
  9
$DISPSILH
 70
             0
  9
$DIMSCALE
 40
1.0
  9
$DIMASZ
 40
0.18
  9
$DIMEXO
 40
0.0625
  9
$DIMDLI
 40
0.38
  9
$DIMRND
 40
0.0
  9
$DIMDLE
 40
0.0
  9
$DIMEXE
 40
0.18
  9
$DIMTP
 40
0.0
  9
$DIMTM
 40
0.0
  9
$DIMTXT
 40
0.18
  9
$DIMCEN
 40
0.09
  9
$DIMTSZ
 40
0.0
  9
$DIMTOL
 70
             0
  9
$DIMLIM
 70
             0
  9
$DIMTIH
 70
             1
  9
$DIMTOH
 70
             1
  9
$DIMSE1
 70
             0
  9
$DIMSE2
 70
             0
  9
$DIMTAD
 70
             0
  9
$DIMZIN
 70
             0
  9
$DIMBLK
  1

  9
$DIMASO
 70
             1
  9
$DIMSHO
 70
             1
  9
$DIMPOST
  1

  9
$DIMAPOST
  1

  9
$DIMALT
 70
             0
  9
$DIMALTD
 70
             2
  9
$DIMALTF
 40
25.4
  9
$DIMLFAC
 40
1.0
  9
$DIMTOFL
 70
             0
  9
$DIMTVP
 40
0.0
  9
$DIMTIX
 70
             0
  9
$DIMSOXD
 70
             0
  9
$DIMSAH
 70
             0
  9
$DIMBLK1
  1

  9
$DIMBLK2
  1

  9
$DIMSTYLE
  2
STANDARD
  9
$DIMCLRD
 70
             0
  9
$DIMCLRE
 70
             0
  9
$DIMCLRT
 70
             0
  9
$DIMTFAC
 40
1.0
  9
$DIMGAP
 40
0.09
  9
$DIMJUST
 70
             0
  9
$DIMSD1
 70
             0
  9
$DIMSD2
 70
             0
  9
$DIMTOLJ
 70
             1
  9
$DIMTZIN
 70
             0
  9
$DIMALTZ
 70
             0
  9
$DIMALTTZ
 70
             0
  9
$DIMFIT
 70
             3
  9
$DIMUPT
 70
             0
  9
$DIMUNIT
 70
             2
  9
$DIMDEC
 70
             4
  9
$DIMTDEC
 70
             4
  9
$DIMALTU
 70
             2
  9
$DIMALTTD
 70
             2
  9
$DIMTXSTY
  7
STANDARD
  9
$DIMAUNIT
 70
             0
  9
$LUNITS
 70
             2
  9
$LUPREC
 70
             4
  9
$SKETCHINC
 40
0.1
  9
$FILLETRAD
 40
0.0
  9
$AUNITS
 70
             0
  9
$AUPREC
 70
             0
  9
$MENU
  1
acad
  9
$ELEVATION
 40
0.0
  9
$PELEVATION
 40
0.0
  9
$THICKNESS
 40
0.0
  9
$LIMCHECK
 70
             0
  9
$BLIPMODE
 70
             1
  9
$CHAMFERA
 40
0.0
  9
$CHAMFERB
 40
0.0
  9
$CHAMFERC
 40
0.0
  9
$CHAMFERD
 40
0.0
  9
$SKPOLY
 70
             0
  9
$TDCREATE
 40
0.000000000
  9
$TDUPDATE
 40
0.000000000
  9
$TDINDWG
 40
0.0000000000
  9
$TDUSRTIMER
 40
0.0000000000
  9
$USRTIMER
 70
             1
  9
$ANGBASE
 50
0.0
  9
$ANGDIR
 70
             0
  9
$PDMODE
 70
             0
  9
$PDSIZE
 40
0.0
  9
$PLINEWID
 40
0.0
  9
$COORDS
 70
             0
  9
$SPLFRAME
 70
             0
  9
$SPLINETYPE
 70
             6
  9
$SPLINESEGS
 70
             8
  9
$ATTDIA
 70
             0
  9
$ATTREQ
 70
             1
  9
$HANDLING
 70
             1
  9
$HANDSEED
  5
EE
  9
$SURFTAB1
 70
             6
  9
$SURFTAB2
 70
             6
  9
$SURFTYPE
 70
             6
  9
$SURFU
 70
             6
  9
$SURFV
 70
             6
  9
$UCSNAME
  2

  9
$UCSORG
 10
0.0
 20
0.0
 30
0.0
  9
$UCSXDIR
 10
1.0
 20
0.0
 30
0.0
  9
$UCSYDIR
 10
0.0
 20
1.0
 30
0.0
  9
$PUCSNAME
  2

  9
$PUCSORG
 10
0.0
 20
0.0
 30
0.0
  9
$PUCSXDIR
 10
1.0
 20
0.0
 30
0.0
  9
$PUCSYDIR
 10
0.0
 20
1.0
 30
0.0
  9
$USERI1
 70
             0
  9
$USERI2
 70
             0
  9
$USERI3
 70
             0
  9
$USERI4
 70
             0
  9
$USERI5
 70
             0
  9
$USERR1
 40
11.6
  9
$USERR2
 40
0.0
  9
$USERR3
 40
0.0
  9
$USERR4
 40
0.0
  9
$USERR5
 40
0.0
  9
$WORLDVIEW
 70
             1
  9
$SHADEDGE
 70
             3
  9
$SHADEDIF
 70
            70
  9
$TILEMODE
 70
             1
  9
$MAXACTVP
 70
            16
  9
$PINSBASE
 10
0.0
 20
0.0
 30
0.0
  9
$PLIMCHECK
 70
             0
  9
$PEXTMIN
 10
1.00000000000000E+20
 20
1.00000000000000E+20
 30
1.00000000000000E+20
  9
$PEXTMAX
 10
-1.00000000000000E+20
 20
-1.00000000000000E+20
 30
-1.00000000000000E+20
  9
$PLIMMIN
 10
0.0
 20
0.0
  9
$PLIMMAX
 10
12.0
 20
9.0
  9
$UNITMODE
 70
             0
  9
$VISRETAIN
 70
             0
  9
$PLINEGEN
 70
             1
  9
$PSLTSCALE
 70
             0
  9
$TREEDEPTH
 70
          3020
  9
$PICKSTYLE
 70
             1
  9
$CMLSTYLE
  2
STANDARD
  9
$CMLJUST
 70
             0
  9
$CMLSCALE
 40
1.0
  9
$PROXYGRAPHICS
 70
             0
  9
$MEASUREMENT
 70
             1
  0
ENDSEC
  0
SECTION
  2
CLASSES
  0
CLASS
  1
LWPOLYLINE
  2
AcDbPolyline
  3
"AutoCAD"
 90
        0
280
             0
281
             1
  0
CLASS
  1
IMAGE
  2
AcDbRasterImage
  3
ISM
 90
      127
280
             0
281
             1
  0
CLASS
  1
OLE2FRAME
  2
AcDbOle2Frame
  3
""
 90
        0
280
             0
281
             1
  0
CLASS
  1
HATCH
  2
AcDbHatch
  3
"ACAD_SEDONA"
 90
        0
280
             0
281
             1
  0
CLASS
  1
DICTIONARYVAR
  2
AcDbDictionaryVar
  3
"AutoCAD"
 90
        0
280
             0
281
             0
  0
CLASS
  1
RASTERVARIABLES
  2
AcDbRasterVariables
  3
ISM
 90
        0
280
             0
281
             0
  0
CLASS
  1
IMAGEDEF
  2
AcDbRasterImageDef
  3
ISM
 90
        0
280
             0
281
             0
  0
CLASS
  1
IMAGEDEF_REACTOR
  2
AcDbRasterImageDefReactor
  3
ISM
 90
        1
280
             0
281
             0
  0
CLASS
  1
IDBUFFER
  2
AcDbIdBuffer
  3
"Acad"
 90
        0
280
             0
281
             0
  0
CLASS
  1
SPATIAL_FILTER
  2
AcDbSpatialFilter
  3
"Acad"
 90
        0
280
             0
281
             0
  0
CLASS
  1
XRECORD
  2
AcDbXrecord
  3
"<Built In>"
 90
        0
280
             0
281
             0
  0
CLASS
  1
SORTENTSTABLE
  2
AcDbSortentsTable
  3
"AutoCAD"
 90
        0
280
             0
281
             0
  0
CLASS
  1
LAYER_INDEX
  2
AcDbLayerIndex
  3
"Acad"
 90
        0
280
             0
281
             0
  0
CLASS
  1
SPATIAL_INDEX
  2
AcDbSpatialIndex
  3
"Acad"
 90
        0
280
             0
281
             0
  0
CLASS
  1
OBJECT_PTR
  2
CAseDLPNTableRecord
  3
"ASE-LPNTableRecord"
 90
        1
280
             0
281
             0
  0
CLASS
  1
LAYOUT
  2
AcDbLayout
  3
"AutoCAD 2000"
 90
        1
280
             0
281
             0
  0
CLASS
  1
PLOTSETTINGS
  2
AcDbPlotSettings
  3
"AutoCAD 2000"
 90
        1
280
             0
281
             0
  0
CLASS
  1
ACDBDICTIONARYWDFLT
  2
AcDbDictionaryWithDefault
  3
"AutoCAD 2000"
 90
        1
280
             0
281
             0
  0
CLASS
  1
ACDBPLACEHOLDER
  2
AcDbPlaceHolder
  3
"AutoCAD 2000"
 90
        1
280
             0
281
             0
  0
ENDSEC
  0
SECTION
  2
TABLES
  0
TABLE
  2
VPORT
  5
7
100
AcDbSymbolTable
 70
             1
  0
VPORT
  5
15
100
AcDbSymbolTableRecord
100
AcDbViewportTableRecord
  2
*ACTIVE
 70
             0
 10
0.0
 20
0.0
 11
1.0
 21
1.0
 12
43.5
 22
18.0
 13
0.0
 23
0.0
 14
1.0
 24
1.0
 15
0.0
 25
0.0
 16
0.0
 26
0.0
 36
1.0
 17
0.0
 27
0.0
 37
0.0
 40
143.0
 41
1.60267857142857
 42
50.0
 43
0.0
 44
0.0
 50
0.0
 51
0.0
 71
             0
 72
           100
 73
             1
 74
             1
 75
             0
 76
             0
 77
             0
 78
             0
  0
ENDTAB
  0
TABLE
  2
LTYPE
  5
4
100
AcDbSymbolTable
 70
            10
  0
LTYPE
  5
11
100
AcDbSymbolTableRecord
100
AcDbLinetypeTableRecord
  2
BYBLOCK
 70
            64
  3

 72
            65
 73
             0
 40
0.0
  0
LTYPE
  5
12
100
AcDbSymbolTableRecord
100
AcDbLinetypeTableRecord
  2
BYLAYER
 70
            64
  3

 72
            65
 73
             0
 40
0.0
  0
LTYPE
  5
13
100
AcDbSymbolTableRecord
100
AcDbLinetypeTableRecord
  2
CONTINUOUS
 70
            64
  3
Solid line
 72
            65
 73
             0
 40
0.0
  0
LTYPE
  5
1D
100
AcDbSymbolTableRecord
100
AcDbLinetypeTableRecord
  2
DASHED
 70
            64
  3
Dashed
 72
            65
 73
             2
 40
15.0
 49
12.0
 74
             0
 49
-3.0
 74
             0
  0
LTYPE
  5
1E
100
AcDbSymbolTableRecord
100
AcDbLinetypeTableRecord
  2
DOTTED
 70
            64
  3
Dotted
 72
            65
 73
             2
 40
3.5
 49
0.5
 74
             0
 49
-3.0
 74
             0
  0
LTYPE
  5
1F
100
AcDbSymbolTableRecord
100
AcDbLinetypeTableRecord
  2
DOT_CENTER
 70
            64
  3
Dot_Center
 72
            65
 73
             4
 40
2.0
 49
1.25
 74
             0
 49
-0.25
 74
             0
 49
0.25
 74
             0
 49
-0.25
 74
             0
  0
LTYPE
  5
20
100
AcDbSymbolTableRecord
100
AcDbLinetypeTableRecord
  2
LONG_DASHED
 70
            64
  3
Long_Dashed
 72
            65
 73
             2
 40
2.0
 49
1.5
 74
             0
 49
-0.5
 74
             0
  0
LTYPE
  5
21
100
AcDbSymbolTableRecord
100
AcDbLinetypeTableRecord
  2
DASH_CENTER
 70
            64
  3
Dash_Center
 72
            65
 73
             4
 40
36.0
 49
24.0
 74
             0
 49
-3.0
 74
             0
 49
6.0
 74
             0
 49
-3.0
 74
             0
  0
LTYPE
  5
22
100
AcDbSymbolTableRecord
100
AcDbLinetypeTableRecord
  2
PHANTOM
 70
            64
  3
Phantom
 72
            65
 73
             6
 40
2.5
 49
1.25
 74
             0
 49
-0.25
 74
             0
 49
0.25
 74
             0
 49
-0.25
 74
             0
 49
0.25
 74
             0
 49
-0.25
 74
             0
  0
LTYPE
  5
23
100
AcDbSymbolTableRecord
100
AcDbLinetypeTableRecord
  2
CENTER_DASH_DASH
 70
            64
  3
Center_Dash_Dash
 72
            65
 73
             6
 40
22.0
 49
12.0
 74
             0
 49
-3.0
 74
             0
 49
0.5
 74
             0
 49
-3.0
 74
             0
 49
0.5
 74
             0
 49
-3.0
 74
             0
  0
ENDTAB
  0
TABLE
  2
LAYER
  5
2
100
AcDbSymbolTable
 70
             2
  0
LAYER
  5
14
100
AcDbSymbolTableRecord
100
AcDbLayerTableRecord
  2
0
 70
             0
 62
             7
  6
CONTINUOUS
  0
LAYER
  5
24
100
AcDbSymbolTableRecord
100
AcDbLayerTableRecord
  2
1
 70
             0
 62
             7
  6
CONTINUOUS
  0
ENDTAB
  0
TABLE
  2
STYLE
  5
3
100
AcDbSymbolTable
 70
             3
  0
STYLE
  5
17
100
AcDbSymbolTableRecord
100
AcDbTextStyleTableRecord
  2
STANDARD
 70
             0
 40
0.0
 41
1.0
 50
0.0
 71
             0
 42
0.0
  3
txt
  4

  0
STYLE
  5
6E
100
AcDbSymbolTableRecord
100
AcDbTextStyleTableRecord
  2
CONVERTER_1
 70
             0
 40
0.0
 41
0.9
 50
0.0
 71
             0
 42
0.0
  3
txt.shx
  4

  0
STYLE
  5
79
100
AcDbSymbolTableRecord
100
AcDbTextStyleTableRecord
  2
CONVERTER_2
 70
             0
 40
0.0
 41
0.9
 50
15.0
 71
             0
 42
0.0
  3
txt.shx
  4

  0
ENDTAB
  0
TABLE
  2
VIEW
  5
5
100
AcDbSymbolTable
 70
             0
  0
ENDTAB
  0
TABLE
  2
UCS
  5
6
100
AcDbSymbolTable
 70
             0
  0
ENDTAB
  0
TABLE
  2
APPID
  5
8
100
AcDbSymbolTable
 70
             1
  0
APPID
  5
16
100
AcDbSymbolTableRecord
100
AcDbRegAppTableRecord
  2
ACAD
 70
             0
  0
ENDTAB
  0
TABLE
  2
DIMSTYLE
  5
9
100
AcDbSymbolTable
 70
             9
  0
DIMSTYLE
105
18
100
AcDbSymbolTableRecord
100
AcDbDimStyleTableRecord
  2
STANDARD
 70
             0
  3

  4

  5

  6

  7

 40
1.0
 41
0.18
 42
0.0625
 43
0.38
 44
0.18
 45
0.0
 46
0.0
 47
0.0
 48
0.0
 71
             0
 72
             0
 73
             1
 74
             1
 75
             0
 76
             0
 77
             0
 78
             0
140
0.18
141
0.09
142
0.0
143
25.4
144
1.0
145
0.0
146
1.0
147
0.09
170
             0
171
             2
172
             0
173
             0
174
             0
175
             0
176
             0
177
             0
178
             0
270
             2
271
             4
272
             4
273
             2
274
             2
275
             0
280
             0
281
             0
282
             0
283
             1
284
             0
285
             0
286
             0
287
             0
288
             0
340
17
  0
DIMSTYLE
105
82
100
AcDbSymbolTableRecord
100
AcDbDimStyleTableRecord
  2
ME10_DIM_0
 70
             0
  3

  4

  5

  6
_OPEN30
  7
_OPEN30
 40
1.0
 41
2.5
 42
0.5
 43
0.38
 44
1.0
 45
0.0
 46
0.0
 47
0.0
 48
0.0
 71
             0
 72
             0
 73
             0
 74
             0
 75
             0
 76
             0
 77
             1
 78
             8
140
2.5
141
0.09
142
0.0
143
25.4
144
1.0
145
0.0
146
1.0
147
0.625
170
             0
171
             2
172
             0
173
             1
174
             0
175
             0
176
             2
177
             2
178
             2
270
             2
271
             2
272
             4
273
             2
274
             2
275
             0
280
             0
281
             0
282
             0
283
             1
284
             0
285
             0
286
             0
287
             0
288
             0
340
17
  0
DIMSTYLE
105
8F
100
AcDbSymbolTableRecord
100
AcDbDimStyleTableRecord
  2
ME10_DIM_1
 70
             0
  3

  4

  5

  6
_OPEN30
  7
_OPEN30
 40
1.0
 41
2.5
 42
0.5
 43
0.38
 44
1.0
 45
0.0
 46
0.0
 47
0.0
 48
0.0
 71
             0
 72
             0
 73
             0
 74
             0
 75
             0
 76
             0
 77
             1
 78
             8
140
2.5
141
0.09
142
0.0
143
25.4
144
1.0
145
0.0
146
1.0
147
0.625
170
             0
171
             2
172
             0
173
             1
174
             0
175
             0
176
             2
177
             2
178
             2
270
             2
271
             2
272
             4
273
             2
274
             2
275
             0
280
             0
281
             0
282
             0
283
             1
284
             0
285
             0
286
             0
287
             0
288
             0
340
17
  0
DIMSTYLE
105
9C
100
AcDbSymbolTableRecord
100
AcDbDimStyleTableRecord
  2
ME10_DIM_2
 70
             0
  3

  4

  5

  6
_OPEN30
  7
_OPEN30
 40
1.0
 41
2.5
 42
0.5
 43
0.38
 44
1.0
 45
0.0
 46
0.0
 47
0.0
 48
0.0
 71
             0
 72
             0
 73
             0
 74
             0
 75
             0
 76
             0
 77
             1
 78
             8
140
2.5
141
0.09
142
0.0
143
25.4
144
1.0
145
0.0
146
1.0
147
0.625
170
             0
171
             2
172
             0
173
             1
174
             0
175
             0
176
             2
177
             2
178
             2
270
             2
271
             2
272
             4
273
             2
274
             2
275
             0
280
             0
281
             0
282
             0
283
             1
284
             0
285
             0
286
             0
287
             0
288
             0
340
17
  0
DIMSTYLE
105
A9
100
AcDbSymbolTableRecord
100
AcDbDimStyleTableRecord
  2
ME10_DIM_3
 70
             0
  3

  4

  5

  6
_OPEN30
  7
_OPEN30
 40
1.0
 41
2.5
 42
0.5
 43
0.38
 44
1.0
 45
0.0
 46
0.0
 47
0.0
 48
0.0
 71
             0
 72
             0
 73
             0
 74
             0
 75
             0
 76
             0
 77
             1
 78
             8
140
2.5
141
0.09
142
0.0
143
25.4
144
1.0
145
0.0
146
1.0
147
0.625
170
             0
171
             2
172
             0
173
             1
174
             0
175
             0
176
             2
177
             2
178
             2
270
             2
271
             2
272
             4
273
             2
274
             2
275
             0
280
             0
281
             0
282
             0
283
             1
284
             0
285
             0
286
             0
287
             0
288
             0
340
17
  0
DIMSTYLE
105
B6
100
AcDbSymbolTableRecord
100
AcDbDimStyleTableRecord
  2
ME10_DIM_4
 70
             0
  3

  4

  5

  6
_OPEN30
  7
_OPEN30
 40
1.0
 41
2.5
 42
0.5
 43
0.38
 44
1.0
 45
0.0
 46
0.0
 47
0.0
 48
0.0
 71
             0
 72
             0
 73
             0
 74
             0
 75
             0
 76
             0
 77
             1
 78
             8
140
2.5
141
0.09
142
0.0
143
25.4
144
1.0
145
0.0
146
1.0
147
0.625
170
             0
171
             2
172
             0
173
             1
174
             0
175
             0
176
             2
177
             2
178
             2
270
             2
271
             2
272
             4
273
             2
274
             2
275
             0
280
             0
281
             0
282
             0
283
             1
284
             0
285
             0
286
             0
287
             0
288
             0
340
17
  0
DIMSTYLE
105
C3
100
AcDbSymbolTableRecord
100
AcDbDimStyleTableRecord
  2
ME10_DIM_5
 70
             0
  3

  4

  5

  6
_OPEN30
  7
_OPEN30
 40
1.0
 41
2.5
 42
0.5
 43
0.38
 44
1.0
 45
0.0
 46
0.0
 47
0.0
 48
0.0
 71
             0
 72
             0
 73
             0
 74
             0
 75
             0
 76
             0
 77
             1
 78
             8
140
2.5
141
0.09
142
0.0
143
25.4
144
1.0
145
0.0
146
1.0
147
0.625
170
             0
171
             2
172
             0
173
             1
174
             0
175
             0
176
             2
177
             2
178
             2
270
             2
271
             2
272
             4
273
             2
274
             2
275
             0
280
             0
281
             0
282
             0
283
             1
284
             0
285
             0
286
             0
287
             0
288
             0
340
17
  0
DIMSTYLE
105
D2
100
AcDbSymbolTableRecord
100
AcDbDimStyleTableRecord
  2
ME10_DIM_6
 70
             0
  3

  4

  5

  6
_OPEN30
  7
_OPEN30
 40
1.0
 41
2.5
 42
0.5
 43
0.38
 44
1.0
 45
0.0
 46
0.0
 47
0.0
 48
0.0
 71
             0
 72
             0
 73
             0
 74
             0
 75
             0
 76
             0
 77
             1
 78
             8
140
2.5
141
0.09
142
0.0
143
25.4
144
1.0
145
0.0
146
1.0
147
0.625
170
             0
171
             2
172
             0
173
             1
174
             0
175
             0
176
             2
177
             2
178
             2
270
             2
271
             2
272
             4
273
             2
274
             2
275
             0
280
             0
281
             0
282
             0
283
             1
284
             0
285
             0
286
             0
287
             0
288
             0
340
17
  0
DIMSTYLE
105
EB
100
AcDbSymbolTableRecord
100
AcDbDimStyleTableRecord
  2
ME10_DIM_7
 70
             0
  3

  4

  5

  6
_OPEN30
  7
_OPEN30
 40
1.0
 41
2.5
 42
0.5
 43
0.38
 44
1.0
 45
0.0
 46
0.0
 47
0.0
 48
0.0
 71
             0
 72
             0
 73
             0
 74
             0
 75
             0
 76
             0
 77
             1
 78
             8
140
2.5
141
0.09
142
0.0
143
25.4
144
1.0
145
0.0
146
1.0
147
0.625
170
             0
171
             2
172
             0
173
             1
174
             0
175
             0
176
             2
177
             2
178
             2
270
             2
271
             2
272
             4
273
             2
274
             2
275
             0
280
             0
281
             0
282
             0
283
             1
284
             0
285
             0
286
             0
287
             0
288
             0
340
17
  0
ENDTAB
  0
TABLE
  2
BLOCK_RECORD
  5
1
100
AcDbSymbolTable
 70
            10
  0
BLOCK_RECORD
  5
A
100
AcDbSymbolTableRecord
100
AcDbBlockTableRecord
  2
*MODEL_SPACE
  0
BLOCK_RECORD
  5
B
100
AcDbSymbolTableRecord
100
AcDbBlockTableRecord
  2
*PAPER_SPACE
  0
BLOCK_RECORD
  5
70
100
AcDbSymbolTableRecord
100
AcDbBlockTableRecord
  2
*D0
  0
BLOCK_RECORD
  5
7C
100
AcDbSymbolTableRecord
100
AcDbBlockTableRecord
  2
_OPEN30
  0
BLOCK_RECORD
  5
84
100
AcDbSymbolTableRecord
100
AcDbBlockTableRecord
  2
*D2
  0
BLOCK_RECORD
  5
91
100
AcDbSymbolTableRecord
100
AcDbBlockTableRecord
  2
*D3
  0
BLOCK_RECORD
  5
9E
100
AcDbSymbolTableRecord
100
AcDbBlockTableRecord
  2
*D4
  0
BLOCK_RECORD
  5
AB
100
AcDbSymbolTableRecord
100
AcDbBlockTableRecord
  2
*D5
  0
BLOCK_RECORD
  5
B8
100
AcDbSymbolTableRecord
100
AcDbBlockTableRecord
  2
*D6
  0
BLOCK_RECORD
  5
C5
100
AcDbSymbolTableRecord
100
AcDbBlockTableRecord
  2
*D7
  0
BLOCK_RECORD
  5
D4
100
AcDbSymbolTableRecord
100
AcDbBlockTableRecord
  2
*D8
  0
BLOCK_RECORD
  5
DE
100
AcDbSymbolTableRecord
100
AcDbBlockTableRecord
  2
*D9
  0
ENDTAB
  0
ENDSEC
  0
SECTION
  2
BLOCKS
  0
BLOCK
  5
D
100
AcDbEntity
  8
0
100
AcDbBlockBegin
  2
*MODEL_SPACE
 70
             0
 10
0.0
 20
0.0
 30
0.0
  3
*MODEL_SPACE
  1

  0
ENDBLK
  5
E
100
AcDbEntity
  8
0
100
AcDbBlockEnd
  0
BLOCK
  5
F
100
AcDbEntity
 67
             1
  8
0
100
AcDbBlockBegin
  2
*PAPER_SPACE
 70
             0
 10
0.0
 20
0.0
 30
0.0
  3
*PAPER_SPACE
  1

  0
ENDBLK
  5
10
100
AcDbEntity
 67
             1
  8
0
100
AcDbBlockEnd
  0
BLOCK
  5
71
100
AcDbEntity
  8
0
100
AcDbBlockBegin
  2
*D0
 70
             1
 10
0.0
 20
0.0
 30
0.0
  3
*D0
  1

  0
LINE
  5
72
100
AcDbEntity
  8
0
  6
CONTINUOUS
 62
             2
100
AcDbLine
 10
21.5
 20
-35.0
 11
21.5
 21
0.0
  0
LINE
  5
73
100
AcDbEntity
  8
0
  6
CONTINUOUS
 62
             2
100
AcDbLine
 10
13.0
 20
-35.0
 11
22.5
 21
-35.0
  0
LINE
  5
74
100
AcDbEntity
  8
0
  6
CONTINUOUS
 62
             2
100
AcDbLine
 10
15.0
 20
0.0
 11
22.5
 21
0.0
  0
LINE
  5
75
100
AcDbEntity
  8
0
 62
             2
100
AcDbLine
 10
21.5
 20
-35.0
 11
20.8301270189222
 21
-32.5
  0
LINE
  5
76
100
AcDbEntity
  8
0
 62
             2
100
AcDbLine
 10
21.5
 20
-35.0
 11
22.16987298107781
 21
-32.5
  0
LINE
  5
77
100
AcDbEntity
  8
0
 62
             2
100
AcDbLine
 10
21.5
 20
0.0
 11
22.16987298107781
 21
-2.5
  0
LINE
  5
78
100
AcDbEntity
  8
0
 62
             2
100
AcDbLine
 10
21.5
 20
0.0
 11
20.8301270189222
 21
-2.5
  0
MTEXT
  5
7A
100
AcDbEntity
  8
0
 62
             2
100
AcDbMText
 10
20.5
 20
-19.70993649053891
 30
0.0
 40
2.5
 41
0.0
 71
             7
 72
             1
  1
35
  7
CONVERTER_2
 11
0.0
 21
1.0
 31
0.0
  0
ENDBLK
  5
7B
100
AcDbEntity
  8
0
100
AcDbBlockEnd
  0
BLOCK
  5
7D
100
AcDbEntity
  8
0
 62
             0
100
AcDbBlockBegin
  2
_OPEN30
 70
             0
 10
0.0
 20
0.0
 30
0.0
  3
_OPEN30
  1

  0
LINE
  5
7E
100
AcDbEntity
  8
0
  6
BYBLOCK
 62
             0
100
AcDbLine
 10
-1.0
 20
0.267949
 11
0.0
 21
0.0
  0
LINE
  5
7F
100
AcDbEntity
  8
0
  6
BYBLOCK
 62
             0
100
AcDbLine
 10
0.0
 20
0.0
 11
-1.0
 21
-0.267949
  0
LINE
  5
80
100
AcDbEntity
  8
0
  6
BYBLOCK
 62
             0
100
AcDbLine
 10
0.0
 20
0.0
 11
-1.0
 21
0.0
  0
ENDBLK
  5
81
100
AcDbEntity
  8
0
 62
             0
100
AcDbBlockEnd
  0
BLOCK
  5
85
100
AcDbEntity
  8
0
100
AcDbBlockBegin
  2
*D2
 70
             1
 10
0.0
 20
0.0
 30
0.0
  3
*D2
  1

  0
LINE
  5
86
100
AcDbEntity
  8
0
  6
CONTINUOUS
 62
             2
100
AcDbLine
 10
33.0
 20
-35.0
 11
33.0
 21
12.0
  0
LINE
  5
87
100
AcDbEntity
  8
0
  6
CONTINUOUS
 62
             2
100
AcDbLine
 10
43.49988830175789
 20
-35.0
 11
32.0
 21
-35.0
  0
LINE
  5
88
100
AcDbEntity
  8
0
  6
CONTINUOUS
 62
             2
100
AcDbLine
 10
39.49988830175789
 20
12.0
 11
32.0
 21
12.0
  0
LINE
  5
89
100
AcDbEntity
  8
0
 62
             2
100
AcDbLine
 10
33.0
 20
-35.0
 11
32.33012701892219
 21
-32.5
  0
LINE
  5
8A
100
AcDbEntity
  8
0
 62
             2
100
AcDbLine
 10
33.0
 20
-35.0
 11
33.66987298107781
 21
-32.5
  0
LINE
  5
8B
100
AcDbEntity
  8
0
 62
             2
100
AcDbLine
 10
33.0
 20
12.0
 11
33.6698729810778
 21
9.5
  0
LINE
  5
8C
100
AcDbEntity
  8
0
 62
             2
100
AcDbLine
 10
33.0
 20
12.0
 11
32.33012701892219
 21
9.5
  0
MTEXT
  5
8D
100
AcDbEntity
  8
0
 62
             2
100
AcDbMText
 10
32.0
 20
-13.70993649053891
 30
0.0
 40
2.5
 41
0.0
 71
             7
 72
             1
  1
47
  7
CONVERTER_2
 11
0.0
 21
1.0
 31
0.0
  0
ENDBLK
  5
8E
100
AcDbEntity
  8
0
100
AcDbBlockEnd
  0
BLOCK
  5
92
100
AcDbEntity
  8
0
100
AcDbBlockBegin
  2
*D3
 70
             1
 10
0.0
 20
0.0
 30
0.0
  3
*D3
  1

  0
LINE
  5
93
100
AcDbEntity
  8
0
  6
CONTINUOUS
 62
             2
100
AcDbLine
 10
-12.5
 20
-46.0
 11
12.5
 21
-46.0
  0
LINE
  5
94
100
AcDbEntity
  8
0
  6
CONTINUOUS
 62
             2
100
AcDbLine
 10
-12.5
 20
-35.5
 11
-12.5
 21
-47.0
  0
LINE
  5
95
100
AcDbEntity
  8
0
  6
CONTINUOUS
 62
             2
100
AcDbLine
 10
12.5
 20
-35.5
 11
12.5
 21
-47.0
  0
LINE
  5
96
100
AcDbEntity
  8
0
 62
             2
100
AcDbLine
 10
-12.5
 20
-46.0
 11
-10.0
 21
-45.33012701892219
  0
LINE
  5
97
100
AcDbEntity
  8
0
 62
             2
100
AcDbLine
 10
-12.5
 20
-46.0
 11
-10.0
 21
-46.66987298107781
  0
LINE
  5
98
100
AcDbEntity
  8
0
 62
             2
100
AcDbLine
 10
12.5
 20
-46.0
 11
10.0
 21
-46.66987298107781
  0
LINE
  5
99
100
AcDbEntity
  8
0
 62
             2
100
AcDbLine
 10
12.5
 20
-46.0
 11
10.0
 21
-45.33012701892219
  0
MTEXT
  5
9A
100
AcDbEntity
  8
0
 62
             2
100
AcDbMText
 10
-2.2099364905389
 20
-45.0
 30
0.0
 40
2.5
 41
0.0
 71
             7
 72
             1
  1
25
  7
CONVERTER_2
 11
0.99999999999706
 21
0.00000242406841
 31
0.0
  0
ENDBLK
  5
9B
100
AcDbEntity
  8
0
100
AcDbBlockEnd
  0
BLOCK
  5
9F
100
AcDbEntity
  8
0
100
AcDbBlockBegin
  2
*D4
 70
             1
 10
0.0
 20
0.0
 30
0.0
  3
*D4
  1

  0
LINE
  5
A0
100
AcDbEntity
  8
0
  6
CONTINUOUS
 62
             2
100
AcDbLine
 10
39.99988830175789
 20
-46.0
 11
92.0
 21
-46.0
  0
LINE
  5
A1
100
AcDbEntity
  8
0
  6
CONTINUOUS
 62
             2
100
AcDbLine
 10
39.99988830175789
 20
-31.5
 11
39.99988830175789
 21
-47.0
  0
LINE
  5
A2
100
AcDbEntity
  8
0
  6
CONTINUOUS
 62
             2
100
AcDbLine
 10
92.0
 20
-35.5
 11
92.0
 21
-47.0
  0
LINE
  5
A3
100
AcDbEntity
  8
0
 62
             2
100
AcDbLine
 10
39.99988830175789
 20
-46.0
 11
42.49988830175789
 21
-45.33012701892219
  0
LINE
  5
A4
100
AcDbEntity
  8
0
 62
             2
100
AcDbLine
 10
39.99988830175789
 20
-46.0
 11
42.49988830175789
 21
-46.66987298107781
  0
LINE
  5
A5
100
AcDbEntity
  8
0
 62
             2
100
AcDbLine
 10
92.0
 20
-46.0
 11
89.5
 21
-46.66987298107781
  0
LINE
  5
A6
100
AcDbEntity
  8
0
 62
             2
100
AcDbLine
 10
92.0
 20
-46.0
 11
89.5
 21
-45.33012701892219
  0
MTEXT
  5
A7
100
AcDbEntity
  8
0
 62
             2
100
AcDbMText
 10
63.79000766034005
 20
-45.0
 30
0.0
 40
2.5
 41
0.0
 71
             7
 72
             1
  1
52
  7
CONVERTER_2
 11
0.99999999999706
 21
0.00000242406841
 31
0.0
  0
ENDBLK
  5
A8
100
AcDbEntity
  8
0
100
AcDbBlockEnd
  0
BLOCK
  5
AC
100
AcDbEntity
  8
0
100
AcDbBlockBegin
  2
*D5
 70
             1
 10
0.0
 20
0.0
 30
0.0
  3
*D5
  1

  0
LINE
  5
AD
100
AcDbEntity
  8
0
  6
CONTINUOUS
 62
             2
100
AcDbLine
 10
68.00000000000154
 20
38.5
 11
83.0
 21
38.5
  0
LINE
  5
AE
100
AcDbEntity
  8
0
  6
CONTINUOUS
 62
             2
100
AcDbLine
 10
68.00000000000154
 20
57.5
 11
68.00000000000154
 21
37.5
  0
LINE
  5
AF
100
AcDbEntity
  8
0
  6
CONTINUOUS
 62
             2
100
AcDbLine
 10
83.0
 20
55.30000000000291
 11
83.0
 21
37.5
  0
LINE
  5
B0
100
AcDbEntity
  8
0
 62
             2
100
AcDbLine
 10
68.00000000000154
 20
38.5
 11
70.50000000000154
 21
39.16987298107781
  0
LINE
  5
B1
100
AcDbEntity
  8
0
 62
             2
100
AcDbLine
 10
68.00000000000154
 20
38.5
 11
70.50000000000154
 21
37.83012701892219
  0
LINE
  5
B2
100
AcDbEntity
  8
0
 62
             2
100
AcDbLine
 10
83.0
 20
38.5
 11
80.5
 21
37.83012701892219
  0
LINE
  5
B3
100
AcDbEntity
  8
0
 62
             2
100
AcDbLine
 10
83.0
 20
38.5
 11
80.5
 21
39.16987298107781
  0
MTEXT
  5
B4
100
AcDbEntity
  8
0
 62
             2
100
AcDbMText
 10
73.66506350946186
 20
39.5
 30
0.0
 40
2.5
 41
0.0
 71
             7
 72
             1
  1
15
  7
CONVERTER_2
 11
0.99999999999706
 21
0.00000242406841
 31
0.0
  0
ENDBLK
  5
B5
100
AcDbEntity
  8
0
100
AcDbBlockEnd
  0
BLOCK
  5
B9
100
AcDbEntity
  8
0
100
AcDbBlockBegin
  2
*D6
 70
             1
 10
0.0
 20
0.0
 30
0.0
  3
*D6
  1

  0
LINE
  5
BA
100
AcDbEntity
  8
0
  6
CONTINUOUS
 62
             2
100
AcDbLine
 10
40.0
 20
38.5
 11
68.00000000000154
 21
38.5
  0
LINE
  5
BB
100
AcDbEntity
  8
0
  6
CONTINUOUS
 62
             2
100
AcDbLine
 10
40.0
 20
47.0
 11
40.0
 21
37.5
  0
LINE
  5
BC
100
AcDbEntity
  8
0
  6
CONTINUOUS
 62
             2
100
AcDbLine
 10
68.00000000000154
 20
57.5
 11
68.00000000000154
 21
37.5
  0
LINE
  5
BD
100
AcDbEntity
  8
0
 62
             2
100
AcDbLine
 10
40.0
 20
38.5
 11
42.5
 21
39.16987298107781
  0
LINE
  5
BE
100
AcDbEntity
  8
0
 62
             2
100
AcDbLine
 10
40.0
 20
38.5
 11
42.5
 21
37.83012701892219
  0
LINE
  5
BF
100
AcDbEntity
  8
0
 62
             2
100
AcDbLine
 10
68.00000000000154
 20
38.5
 11
65.50000000000154
 21
37.83012701892219
  0
LINE
  5
C0
100
AcDbEntity
  8
0
 62
             2
100
AcDbLine
 10
68.00000000000154
 20
38.5
 11
65.50000000000154
 21
39.16987298107781
  0
MTEXT
  5
C1
100
AcDbEntity
  8
0
 62
             2
100
AcDbMText
 10
51.79006350946187
 20
39.5
 30
0.0
 40
2.5
 41
0.0
 71
             7
 72
             1
  1
28
  7
CONVERTER_2
 11
0.99999999999706
 21
0.00000242406841
 31
0.0
  0
ENDBLK
  5
C2
100
AcDbEntity
  8
0
100
AcDbBlockEnd
  0
BLOCK
  5
C6
100
AcDbEntity
  8
0
100
AcDbBlockBegin
  2
*D7
 70
             1
 10
0.0
 20
0.0
 30
0.0
  3
*D7
  1

  0
LINE
  5
C7
100
AcDbEntity
  8
0
  6
CONTINUOUS
 62
             2
100
AcDbLine
 10
34.99988830175789
 20
19.0
 11
39.99988830175789
 21
19.0
  0
LINE
  5
C8
100
AcDbEntity
  8
0
  6
CONTINUOUS
 62
             2
100
AcDbLine
 10
39.99988830175789
 20
19.0
 11
41.99988830175789
 21
19.0
  0
LINE
  5
C9
100
AcDbEntity
  8
0
  6
CONTINUOUS
 62
             2
100
AcDbLine
 10
41.99988830175789
 20
19.0
 11
46.99988830175789
 21
19.0
  0
LINE
  5
CA
100
AcDbEntity
  8
0
  6
CONTINUOUS
 62
             2
100
AcDbLine
 10
39.99988830175789
 20
12.5
 11
39.99988830175789
 21
20.0
  0
LINE
  5
CB
100
AcDbEntity
  8
0
  6
CONTINUOUS
 62
             2
100
AcDbLine
 10
41.99988830175789
 20
12.5
 11
41.99988830175789
 21
20.0
  0
LINE
  5
CC
100
AcDbEntity
  8
0
 62
             2
100
AcDbLine
 10
39.99988830175789
 20
19.0
 11
37.49988830175789
 21
18.3301270189222
  0
LINE
  5
CD
100
AcDbEntity
  8
0
 62
             2
100
AcDbLine
 10
39.99988830175789
 20
19.0
 11
37.49988830175789
 21
19.66987298107781
  0
LINE
  5
CE
100
AcDbEntity
  8
0
 62
             2
100
AcDbLine
 10
41.99988830175789
 20
19.0
 11
44.49988830175789
 21
19.66987298107781
  0
LINE
  5
CF
100
AcDbEntity
  8
0
 62
             2
100
AcDbLine
 10
41.99988830175789
 20
19.0
 11
44.49988830175789
 21
18.3301270189222
  0
MTEXT
  5
D0
100
AcDbEntity
  8
0
 62
             2
100
AcDbMText
 10
39.91495181121899
 20
20.0
 30
0.0
 40
2.5
 41
0.0
 71
             7
 72
             1
  1
2
  7
CONVERTER_2
 11
0.99999999999706
 21
0.00000242406841
 31
0.0
  0
ENDBLK
  5
D1
100
AcDbEntity
  8
0
100
AcDbBlockEnd
  0
BLOCK
  5
D5
100
AcDbEntity
  8
0
100
AcDbBlockBegin
  2
*D8
 70
             1
 10
0.0
 20
0.0
 30
0.0
  3
*D8
  1

  0
LINE
  5
D6
100
AcDbEntity
  8
0
  6
CONTINUOUS
 62
             2
100
AcDbLine
 10
-5.70489149475096
 20
-5.60840556959981
 11
19.83056651865174
 21
19.49517529191522
  0
LINE
  5
D7
100
AcDbEntity
  8
0
 62
             2
100
AcDbLine
 10
5.70489149475095
 20
5.60840556959982
 11
4.39172782239143
 21
3.3780847450606
  0
LINE
  5
D8
100
AcDbEntity
  8
0
 62
             2
100
AcDbLine
 10
5.70489149475095
 20
5.60840556959982
 11
3.45249798289113
 21
4.33347291313916
  0
LINE
  5
D9
100
AcDbEntity
  8
0
 62
             2
100
AcDbLine
 10
-5.70489149475096
 20
-5.60840556959981
 11
-4.39172782239144
 21
-3.37808474506059
  0
LINE
  5
DA
100
AcDbEntity
  8
0
 62
             2
100
AcDbLine
 10
-5.70489149475096
 20
-5.60840556959981
 11
-3.45249798289114
 21
-4.33347291313915
  0
MTEXT
  5
DB
100
AcDbEntity
  8
0
 62
             2
100
AcDbMText
 10
13.58873053682102
 20
14.7612118659891
 30
0.0
 40
2.5
 41
0.0
 71
             7
 72
             1
  1
\C2;{\Fgdt;n}\C2;16
  7
CONVERTER_2
 11
0.71311143684387
 21
0.70105069619998
 31
0.0
  0
ENDBLK
  5
DC
100
AcDbEntity
  8
0
100
AcDbBlockEnd
  0
BLOCK
  5
DF
100
AcDbEntity
  8
0
100
AcDbBlockBegin
  2
*D9
 70
             1
 10
0.0
 20
0.0
 30
0.0
  3
*D9
  1

  0
LINE
  5
E0
100
AcDbEntity
  8
0
  6
CONTINUOUS
 62
             2
100
AcDbLine
 10
98.60049971059142
 20
50.99304729259708
 11
99.46652511437586
 21
50.49304729259707
  0
LINE
  5
E1
100
AcDbEntity
  8
0
  6
CONTINUOUS
 62
             2
100
AcDbLine
 10
98.60049971059142
 20
69.00695270740289
 11
99.46652511437586
 21
69.5069527074029
  0
LINE
  5
E2
100
AcDbEntity
  8
0
  6
CONTINUOUS
 62
             2
100
AcDbLine
 10
83.43301270189221
 20
59.74999999999999
 11
98.60049971059142
 21
50.99304729259708
  0
LINE
  5
E3
100
AcDbEntity
  8
0
  6
CONTINUOUS
 62
             2
100
AcDbLine
 10
83.43301270189221
 20
60.25
 11
98.60049971059142
 21
69.00695270740289
  0
ARC
  5
E4
100
AcDbEntity
  8
0
  6
CONTINUOUS
 62
             2
100
AcDbCircle
 10
83.0
 20
59.99999999999999
 40
18.01390541480541
100
AcDbArc
 50
-30.00000000000077
 51
30.00000000000072
  0
LINE
  5
E5
100
AcDbEntity
  8
0
 62
             2
100
AcDbLine
 10
98.60049971059142
 20
50.99304729259708
 11
99.09542267822032
 21
53.53347660019283
  0
LINE
  5
E6
100
AcDbEntity
  8
0
 62
             2
100
AcDbLine
 10
98.60049971059142
 20
50.99304729259708
 11
100.29933022727231
 21
52.94566212567906
  0
LINE
  5
E7
100
AcDbEntity
  8
0
 62
             2
100
AcDbLine
 10
98.60049971059142
 20
69.00695270740289
 11
100.29933022727231
 21
67.05433787432089
  0
LINE
  5
E8
100
AcDbEntity
  8
0
 62
             2
100
AcDbLine
 10
98.60049971059142
 20
69.00695270740289
 11
99.09542267822032
 21
66.46652339980713
  0
MTEXT
  5
E9
100
AcDbEntity
  8
0
 62
             2
100
AcDbMText
 10
99.87958230392478
 20
56.24906520189532
 30
0.0
 40
2.5
 41
0.0
 71
             7
 72
             1
  1
60{\Fgdt;~}
  7
CONVERTER_2
 11
0.0
 21
1.0
 31
0.0
  0
ENDBLK
  5
EA
100
AcDbEntity
  8
0
100
AcDbBlockEnd
  0
ENDSEC
  0
SECTION
  2
ENTITIES
  0
DIMENSION
  5
EC
100
AcDbEntity
  8
1
100
AcDbDimension
  2
*D9
 10
101.01390541480541
 20
59.99999999999999
 11
98.75173683510553
 21
59.38072574370415
 31
0.0
 70
             5
  1
<>
  3
ME10_DIM_7
100
AcDb3PointAngularDimension
 13
84.56004997105914
 23
59.0993047292597
 14
84.56004997105914
 24
60.90069527074029
 15
83.0
 25
59.99999999999999
  0
DIMENSION
  5
D3
100
AcDbEntity
  8
1
100
AcDbDimension
  2
*D7
 10
39.99988830175789
 20
19.0
 11
40.99988830175789
 21
21.25
 31
0.0
 53
0.00013888888889
  1
<>
  3
ME10_DIM_6
100
AcDbAlignedDimension
 13
41.99988830175789
 23
12.0
 14
39.99988830175789
 24
12.0
100
AcDbRotatedDimension
  0
DIMENSION
  5
C4
100
AcDbEntity
  8
1
100
AcDbDimension
  2
*D6
 10
40.0
 20
38.5
 11
54.00000000000077
 21
40.75
 31
0.0
 53
0.00013888888889
  1
<>
  3
ME10_DIM_5
100
AcDbAlignedDimension
 13
68.00000000000154
 23
58.0
 14
40.0
 24
47.5
100
AcDbRotatedDimension
  0
DIMENSION
  5
B7
100
AcDbEntity
  8
1
100
AcDbDimension
  2
*D5
 10
68.00000000000154
 20
38.5
 11
75.50000000000077
 21
40.75
 31
0.0
 53
0.00013888888889
  1
<>
  3
ME10_DIM_4
100
AcDbAlignedDimension
 13
83.0
 23
55.80000000000291
 14
68.00000000000154
 24
58.0
100
AcDbRotatedDimension
  0
DIMENSION
  5
AA
100
AcDbEntity
  8
1
100
AcDbDimension
  2
*D4
 10
39.99988830175789
 20
-46.0
 11
65.99994415087895
 21
-43.75
 31
0.0
 53
0.00013888888889
  1
<>
  3
ME10_DIM_3
100
AcDbAlignedDimension
 13
92.0
 23
-35.0
 14
39.99988830175789
 24
-31.0
100
AcDbRotatedDimension
  0
DIMENSION
  5
9D
100
AcDbEntity
  8
1
100
AcDbDimension
  2
*D3
 10
-12.5
 20
-46.0
 11
0.0
 21
-43.75
 31
0.0
 53
0.00013888888889
  1
<>
  3
ME10_DIM_2
100
AcDbAlignedDimension
 13
12.5
 23
-35.0
 14
-12.5
 24
-35.0
100
AcDbRotatedDimension
  0
DIMENSION
  5
90
100
AcDbEntity
  8
1
100
AcDbDimension
  2
*D2
 10
33.0
 20
-35.0
 11
30.75
 21
-11.5
 31
0.0
 53
90.0
  1
<>
  3
ME10_DIM_1
100
AcDbAlignedDimension
 13
39.99988830175789
 23
12.0
 14
43.99988830175789
 24
-35.0
 50
90.0
100
AcDbRotatedDimension
  0
DIMENSION
  5
83
100
AcDbEntity
  8
1
100
AcDbDimension
  2
*D0
 10
21.5
 20
-35.0
 11
19.25
 21
-17.5
 31
0.0
 53
90.0
  1
<>
  3
ME10_DIM_0
100
AcDbAlignedDimension
 13
14.5
 23
0.0
 14
12.5
 24
-35.0
 50
90.0
100
AcDbRotatedDimension
  0
MTEXT
  5
6F
100
AcDbEntity
  8
1
 62
             2
100
AcDbMText
 10
70.44263164512564
 20
81.75
 30
0.0
 40
2.5
 41
0.0
 71
             6
 72
             1
  1
M4ƒlƒW%%dpŽÌ‚%%c•t‚£ŒŠ
  7
CONVERTER_1
  0
LEADER
  5
6D
100
AcDbEntity
  8
1
  6
CONTINUOUS
 62
             2
100
AcDbLeader
  3
Standard
 71
             0
 73
             3
 74
             0
 75
             0
 40
0.0
 76
             2
 10
70.3239046575188
 20
69.67743530094167
 30
0.0
 10
71.7416697508023
 20
79.5
 30
0.0
 77
             2
  0
LEADER
  5
6A
100
AcDbEntity
  8
1
  6
CONTINUOUS
 62
             2
100
AcDbLeader
  3
Standard
 71
             0
 73
             3
 74
             0
 75
             0
 40
0.0
 76
             3
 10
81.90000000000146
 20
61.90525588832325
 30
0.0
 10
71.7416697508023
 20
79.5
 30
0.0
 10
43.99988830175789
 20
79.5
 30
0.0
 77
             2
  0
LWPOLYLINE
  5
67
100
AcDbEntity
  8
0
  6
CONTINUOUS
 62
             7
100
AcDbPolyline
 90
       18
 70
             1
 10
-12.5
 20
-35.0
 10
-12.5
 20
9.0
 10
-12.5
 20
9.0
 10
-9.5
 20
12.0
 10
-9.5
 20
12.0
 10
9.5
 20
12.0
 10
9.5
 20
12.0
 10
12.5
 20
9.0
 10
12.5
 20
9.0
 10
12.5
 20
-35.0
 10
12.5
 20
-35.0
 10
-12.5
 20
-35.0
 10
-12.5
 20
-35.0
 10
-12.5
 20
-35.0
 10
-12.5
 20
-35.0
 10
-12.5
 20
-35.0
 10
-12.5
 20
-35.0
 10
-12.5
 20
-35.0
  0
LWPOLYLINE
  5
65
100
AcDbEntity
  8
0
  6
CONTINUOUS
 62
             7
100
AcDbPolyline
 90
       12
 70
             1
 10
92.0
 20
47.5
 10
92.0
 20
72.5
 10
92.0
 20
72.5
 10
40.0
 20
72.5
 10
40.0
 20
72.5
 10
40.0
 20
47.5
 10
40.0
 20
47.5
 10
92.0
 20
47.5
 10
92.0
 20
47.5
 10
92.0
 20
47.5
 10
92.0
 20
47.5
 10
92.0
 20
47.5
  0
LWPOLYLINE
  5
63
100
AcDbEntity
  8
0
  6
CONTINUOUS
 62
             7
100
AcDbPolyline
 90
        9
 70
             0
 10
41.99988830175789
 20
-31.0
 10
41.99988830175789
 20
12.0
 10
41.99988830175789
 20
12.0
 10
39.99988830175789
 20
12.0
 10
39.99988830175789
 20
12.0
 10
39.99988830175789
 20
-31.0
 10
39.99988830175789
 20
-31.0
 10
39.99988830175789
 20
-31.0
 10
39.99988830175789
 20
-31.0
  0
LWPOLYLINE
  5
61
100
AcDbEntity
  8
0
  6
CONTINUOUS
 62
             7
100
AcDbPolyline
 90
        6
 70
             0
 10
92.0
 20
-35.0
 10
91.99988830175789
 20
-33.0
 10
91.99988830175789
 20
-33.0
 10
43.99988830175789
 20
-33.0
 10
43.99988830175789
 20
-33.0
 10
43.99988830175789
 20
-33.0
  0
XLINE
  5
5F
100
AcDbEntity
  8
1
  6
DOTTED
 62
             1
100
AcDbXline
 10
29.0
 20
-47.0
 30
0.0
 11
1.0
 21
0.0
 31
0.0
  0
XLINE
  5
5E
100
AcDbEntity
  8
1
  6
DOTTED
 62
             1
100
AcDbXline
 10
17.0
 20
83.0
 30
0.0
 11
1.0
 21
0.0
 31
0.0
  0
XLINE
  5
5D
100
AcDbEntity
  8
1
  6
DOTTED
 62
             1
100
AcDbXline
 10
-15.0
 20
23.0
 30
0.0
 11
0.0
 21
1.0
 31
0.0
  0
XLINE
  5
5C
100
AcDbEntity
  8
1
  6
DOTTED
 62
             1
100
AcDbXline
 10
102.0
 20
-5.0
 30
0.0
 11
0.0
 21
1.0
 31
0.0
  0
CIRCLE
  5
5B
100
AcDbEntity
  8
0
  6
CONTINUOUS
 62
             7
100
AcDbCircle
 10
0.0
 20
0.0
 40
8.0
  0
CIRCLE
  5
5A
100
AcDbEntity
  8
0
  6
CONTINUOUS
 62
             7
100
AcDbCircle
 10
83.0
 20
60.0
 40
2.19999999999709
  0
ARC
  5
59
100
AcDbEntity
  8
1
  6
DOT_CENTER
 62
             7
100
AcDbCircle
 10
83.0
 20
60.0
 40
14.99999999999846
100
AcDbArc
 50
133.90430750538434
 51
-133.90430750537215
  0
ARC
  5
58
100
AcDbEntity
  8
0
  6
CONTINUOUS
 62
             7
100
AcDbCircle
 10
70.00961894323336
 20
52.5
 40
2.19999999999792
100
AcDbArc
 50
-149.99999999995796
 51
29.99999999999467
  0
ARC
  5
57
100
AcDbEntity
  8
0
  6
CONTINUOUS
 62
             7
100
AcDbCircle
 10
70.00961894323336
 20
67.5
 40
2.20000000000107
100
AcDbArc
 50
-29.99999999999483
 51
149.99999999995779
  0
ARC
  5
56
100
AcDbEntity
  8
0
  6
CONTINUOUS
 62
             7
100
AcDbCircle
 10
83.0
 20
60.0
 40
12.79999999999898
100
AcDbArc
 50
149.99999999999923
 51
-149.99999999999923
  0
ARC
  5
55
100
AcDbEntity
  8
0
  6
CONTINUOUS
 62
             7
100
AcDbCircle
 10
83.0
 20
60.0
 40
17.19999999999797
100
AcDbArc
 50
149.99999999999469
 51
-149.99999999999471
  0
ARC
  5
54
100
AcDbEntity
  8
0
  6
CONTINUOUS
 62
             7
100
AcDbCircle
 10
43.99988830175789
 20
-31.0
 40
4.0
100
AcDbArc
 50
180.0
 51
-90.0
  0
ARC
  5
53
100
AcDbEntity
  8
0
  6
CONTINUOUS
 62
             7
100
AcDbCircle
 10
43.99988830175789
 20
-31.0
 40
2.0
100
AcDbArc
 50
180.0
 51
-90.0
  0
LINE
  5
52
100
AcDbEntity
  8
1
  6
CONTINUOUS
 62
             7
100
AcDbLine
 10
68.00000000000154
 20
58.0
 11
68.00000000000154
 21
57.5
  0
LINE
  5
51
100
AcDbEntity
  8
1
  6
DOT_CENTER
 62
             7
100
AcDbLine
 10
83.0
 20
-37.0
 11
83.0
 21
-31.0
  0
LINE
  5
50
100
AcDbEntity
  8
1
  6
DOT_CENTER
 62
             7
100
AcDbLine
 10
68.09997207543998
 20
-37.0
 11
68.09997207543998
 21
-31.0
  0
LINE
  5
4F
100
AcDbEntity
  8
1
  6
DOT_CENTER
 62
             7
100
AcDbLine
 10
66.37231224734066
 20
69.59999999999921
 11
83.0
 21
60.0
  0
LINE
  5
4E
100
AcDbEntity
  8
1
  6
DOT_CENTER
 62
             7
100
AcDbLine
 10
66.37231224733793
 20
50.39999999999922
 11
83.0
 21
60.0
  0
LINE
  5
4D
100
AcDbEntity
  8
1
  6
DOT_CENTER
 62
             7
100
AcDbLine
 10
83.0
 20
55.80000000000291
 11
83.0
 21
64.19999999999709
  0
LINE
  5
4C
100
AcDbEntity
  8
1
  6
CONTINUOUS
 62
             7
100
AcDbLine
 10
41.99988830175789
 20
50.5
 11
40.0
 21
50.5
  0
LINE
  5
4B
100
AcDbEntity
  8
1
  6
CONTINUOUS
 62
             7
100
AcDbLine
 10
40.0
 20
69.5
 11
41.99988830175789
 21
69.5
  0
LINE
  5
4A
100
AcDbEntity
  8
1
  6
CONTINUOUS
 62
             7
100
AcDbLine
 10
41.99988830175789
 20
47.5
 11
41.99988830175789
 21
72.5
  0
LINE
  5
49
100
AcDbEntity
  8
1
  6
DOT_CENTER
 62
             7
100
AcDbLine
 10
37.99988830175789
 20
60.0
 11
94.0
 21
60.0
  0
LINE
  5
48
100
AcDbEntity
  8
1
  6
DOT_CENTER
 62
             7
100
AcDbLine
 10
37.99988830175789
 20
0.0
 11
43.99988830175789
 21
0.0
  0
LINE
  5
47
100
AcDbEntity
  8
1
  6
DOT_CENTER
 62
             7
100
AcDbLine
 10
0.0
 20
-37.0
 11
0.0
 21
14.0
  0
LINE
  5
46
100
AcDbEntity
  8
1
  6
DOT_CENTER
 62
             7
100
AcDbLine
 10
-14.5
 20
0.0
 11
14.5
 21
0.0
  0
LINE
  5
45
100
AcDbEntity
  8
1
  6
DOTTED
 62
             7
100
AcDbLine
 10
-12.5
 20
-33.0
 11
12.5
 21
-33.0
  0
LINE
  5
44
100
AcDbEntity
  8
0
  6
CONTINUOUS
 62
             7
100
AcDbLine
 10
43.99988830175789
 20
-35.0
 11
92.0
 21
-35.0
  0
LINE
  5
43
100
AcDbEntity
  8
0
  6
CONTINUOUS
 62
             7
100
AcDbLine
 10
40.0
 20
9.0
 11
42.0
 21
9.0
  0
POINT
  5
33
100
AcDbEntity
  8
0
 62
             7
100
AcDbPoint
 10
-12.5
 20
0.0
  0
POINT
  5
32
100
AcDbEntity
  8
0
 62
             7
100
AcDbPoint
 10
-9.5
 20
12.0
  0
POINT
  5
31
100
AcDbEntity
  8
0
 62
             7
100
AcDbPoint
 10
44.5
 20
-33.0
  0
POINT
  5
30
100
AcDbEntity
  8
0
 62
             7
100
AcDbPoint
 10
40.0
 20
12.0
  0
POINT
  5
2F
100
AcDbEntity
  8
0
 62
             7
100
AcDbPoint
 10
92.0
 20
-35.0
  0
POINT
  5
2E
100
AcDbEntity
  8
0
 62
             7
100
AcDbPoint
 10
42.0
 20
-31.0
  0
POINT
  5
2D
100
AcDbEntity
  8
0
 62
             7
100
AcDbPoint
 10
-12.5
 20
-35.0
  0
POINT
  5
2C
100
AcDbEntity
  8
0
 62
             7
100
AcDbPoint
 10
12.5
 20
-35.0
  0
POINT
  5
2B
100
AcDbEntity
  8
0
 62
             7
100
AcDbPoint
 10
83.0
 20
47.5
  0
POINT
  5
2A
100
AcDbEntity
  8
0
 62
             7
100
AcDbPoint
 10
92.0
 20
47.5
  0
POINT
  5
29
100
AcDbEntity
  8
0
 62
             7
100
AcDbPoint
 10
92.0
 20
47.5
  0
POINT
  5
28
100
AcDbEntity
  8
0
 62
             7
100
AcDbPoint
 10
68.0
 20
47.5
  0
LINE
  5
68
100
AcDbEntity
  8
1
 62
             2
100
AcDbLine
 10
81.90000000000146
 20
61.90525588832325
 11
80.06987298107926
 21
63.73538290724545
  0
LINE
  5
69
100
AcDbEntity
  8
1
 62
             2
100
AcDbLine
 10
81.90000000000146
 20
61.90525588832325
 11
81.23012701892365
 21
64.40525588832325
  0
LINE
  5
6B
100
AcDbEntity
  8
1
 62
             2
100
AcDbLine
 10
70.3239046575188
 20
69.67743530094167
 11
70.01804520732203
 21
72.24748973762262
  0
LINE
  5
6C
100
AcDbEntity
  8
1
 62
             2
100
AcDbLine
 10
70.3239046575188
 20
69.67743530094167
 11
71.34404982200132
 21
72.05609745731465
  0
INSERT
  5
DD
100
AcDbEntity
  8
0
100
AcDbBlockReference
  2
*D8
 10
0.0
 20
0.0
  0
ENDSEC
  0
SECTION
  2
OBJECTS
  0
DICTIONARY
  5
19
100
AcDbDictionary
  3
ACAD_GROUP
350
1A
  3
ACAD_MLINESTYLE
350
1B
  0
DICTIONARY
  5
1A
102
{ACAD_REACTORS
330
19
102
}
100
AcDbDictionary
  0
DICTIONARY
  5
1B
102
{ACAD_REACTORS
330
19
102
}
100
AcDbDictionary
  3
STANDARD
350
1C
  0
MLINESTYLE
  5
1C
102
{ACAD_REACTORS
330
1B
102
}
100
AcDbMlineStyle
  2
STANDARD
 70
             0
  3

 62
             0
 51
90.0
 52
90.0
 71
             2
 49
0.5
 62
           256
  6
BYLAYER
 49
-0.5
 62
           256
  6
BYLAYER
  0
ENDSEC
  0
EOF
