  0
SECTION
  2
HEADER
  9
$ACADVER
  1
AC1014
  9
$ACADMAINTVER
 70
     9
  9
$DWGCODEPAGE
  3
ANSI_932
  9
$INSBASE
 10
0.0
 20
0.0
 30
0.0
  9
$EXTMIN
 10
93.4614705074754
 20
114.627652856
 30
0.0
  9
$EXTMAX
 10
268.98610776574
 20
212.7489747488
 30
0.0
  9
$LIMMIN
 10
0.0
 20
0.0
  9
$LIMMAX
 10
12.0
 20
9.0
  9
$ORTHOMODE
 70
     0
  9
$REGENMODE
 70
     1
  9
$FILLMODE
 70
     1
  9
$QTEXTMODE
 70
     0
  9
$MIRRTEXT
 70
     1
  9
$DRAGMODE
 70
     2
  9
$LTSCALE
 40
1.0
  9
$OSMODE
 70
    37
  9
$ATTMODE
 70
     1
  9
$TEXTSIZE
 40
0.2
  9
$TRACEWID
 40
0.05
  9
$TEXTSTYLE
  7
STANDARD
  9
$CLAYER
  8
0
  9
$CELTYPE
  6
BYLAYER
  9
$CECOLOR
 62
   256
  9
$CELTSCALE
 40
1.0
  9
$DELOBJ
 70
     1
  9
$DISPSILH
 70
     0
  9
$DIMSCALE
 40
1.0
  9
$DIMASZ
 40
0.18
  9
$DIMEXO
 40
0.0625
  9
$DIMDLI
 40
0.38
  9
$DIMRND
 40
0.0
  9
$DIMDLE
 40
0.0
  9
$DIMEXE
 40
0.18
  9
$DIMTP
 40
0.0
  9
$DIMTM
 40
0.0
  9
$DIMTXT
 40
0.18
  9
$DIMCEN
 40
0.09
  9
$DIMTSZ
 40
0.0
  9
$DIMTOL
 70
     0
  9
$DIMLIM
 70
     0
  9
$DIMTIH
 70
     1
  9
$DIMTOH
 70
     1
  9
$DIMSE1
 70
     0
  9
$DIMSE2
 70
     0
  9
$DIMTAD
 70
     0
  9
$DIMZIN
 70
     0
  9
$DIMBLK
  1

  9
$DIMASO
 70
     1
  9
$DIMSHO
 70
     1
  9
$DIMPOST
  1

  9
$DIMAPOST
  1

  9
$DIMALT
 70
     0
  9
$DIMALTD
 70
     2
  9
$DIMALTF
 40
25.4
  9
$DIMLFAC
 40
1.0
  9
$DIMTOFL
 70
     0
  9
$DIMTVP
 40
0.0
  9
$DIMTIX
 70
     0
  9
$DIMSOXD
 70
     0
  9
$DIMSAH
 70
     0
  9
$DIMBLK1
  1

  9
$DIMBLK2
  1

  9
$DIMSTYLE
  2
STANDARD
  9
$DIMCLRD
 70
     0
  9
$DIMCLRE
 70
     0
  9
$DIMCLRT
 70
     0
  9
$DIMTFAC
 40
1.0
  9
$DIMGAP
 40
0.09
  9
$DIMJUST
 70
     0
  9
$DIMSD1
 70
     0
  9
$DIMSD2
 70
     0
  9
$DIMTOLJ
 70
     1
  9
$DIMTZIN
 70
     0
  9
$DIMALTZ
 70
     0
  9
$DIMALTTZ
 70
     0
  9
$DIMFIT
 70
     3
  9
$DIMUPT
 70
     0
  9
$DIMUNIT
 70
     2
  9
$DIMDEC
 70
     4
  9
$DIMTDEC
 70
     4
  9
$DIMALTU
 70
     2
  9
$DIMALTTD
 70
     2
  9
$DIMTXSTY
  7
STANDARD
  9
$DIMAUNIT
 70
     0
  9
$LUNITS
 70
     2
  9
$LUPREC
 70
     4
  9
$SKETCHINC
 40
0.1
  9
$FILLETRAD
 40
0.5
  9
$AUNITS
 70
     0
  9
$AUPREC
 70
     0
  9
$MENU
  1
.
  9
$ELEVATION
 40
0.0
  9
$PELEVATION
 40
0.0
  9
$THICKNESS
 40
0.0
  9
$LIMCHECK
 70
     0
  9
$CHAMFERA
 40
0.0
  9
$CHAMFERB
 40
0.0
  9
$CHAMFERC
 40
0.0
  9
$CHAMFERD
 40
0.0
  9
$SKPOLY
 70
     0
  9
$TDCREATE
 40
2458268.736157882
  9
$TDUPDATE
 40
2458268.736158067
  9
$TDINDWG
 40
0.0000000116
  9
$TDUSRTIMER
 40
0.0000000116
  9
$USRTIMER
 70
     1
  9
$ANGBASE
 50
0.0
  9
$ANGDIR
 70
     0
  9
$PDMODE
 70
     0
  9
$PDSIZE
 40
0.0
  9
$PLINEWID
 40
0.0
  9
$COORDS
 70
     1
  9
$SPLFRAME
 70
     0
  9
$SPLINETYPE
 70
     6
  9
$SPLINESEGS
 70
     8
  9
$ATTDIA
 70
     0
  9
$ATTREQ
 70
     1
  9
$HANDLING
 70
     1
  9
$HANDSEED
  5
57C
  9
$SURFTAB1
 70
     6
  9
$SURFTAB2
 70
     6
  9
$SURFTYPE
 70
     6
  9
$SURFU
 70
     6
  9
$SURFV
 70
     6
  9
$UCSNAME
  2

  9
$UCSORG
 10
0.0
 20
0.0
 30
0.0
  9
$UCSXDIR
 10
1.0
 20
0.0
 30
0.0
  9
$UCSYDIR
 10
0.0
 20
1.0
 30
0.0
  9
$PUCSNAME
  2

  9
$PUCSORG
 10
0.0
 20
0.0
 30
0.0
  9
$PUCSXDIR
 10
1.0
 20
0.0
 30
0.0
  9
$PUCSYDIR
 10
0.0
 20
1.0
 30
0.0
  9
$USERI1
 70
     0
  9
$USERI2
 70
     0
  9
$USERI3
 70
     0
  9
$USERI4
 70
     0
  9
$USERI5
 70
     0
  9
$USERR1
 40
20.0
  9
$USERR2
 40
0.0
  9
$USERR3
 40
0.0
  9
$USERR4
 40
0.0
  9
$USERR5
 40
0.0
  9
$WORLDVIEW
 70
     1
  9
$SHADEDGE
 70
     3
  9
$SHADEDIF
 70
    70
  9
$TILEMODE
 70
     1
  9
$MAXACTVP
 70
    64
  9
$PINSBASE
 10
0.0
 20
0.0
 30
0.0
  9
$PLIMCHECK
 70
     0
  9
$PEXTMIN
 10
1.00000000000000E+20
 20
1.00000000000000E+20
 30
1.00000000000000E+20
  9
$PEXTMAX
 10
-1.00000000000000E+20
 20
-1.00000000000000E+20
 30
-1.00000000000000E+20
  9
$PLIMMIN
 10
0.0
 20
0.0
  9
$PLIMMAX
 10
12.0
 20
9.0
  9
$UNITMODE
 70
     0
  9
$VISRETAIN
 70
     1
  9
$PLINEGEN
 70
     0
  9
$PSLTSCALE
 70
     1
  9
$TREEDEPTH
 70
  3020
  9
$PICKSTYLE
 70
     1
  9
$CMLSTYLE
  2
STANDARD
  9
$CMLJUST
 70
     0
  9
$CMLSCALE
 40
1.0
  9
$PROXYGRAPHICS
 70
     1
  9
$MEASUREMENT
 70
     1
  0
ENDSEC
  0
SECTION
  2
CLASSES
  0
CLASS
  1
ACDBDICTIONARYWDFLT
  2
AcDbDictionaryWithDefault
  3
ObjectDBX Classes
 90
        0
280
     0
281
     0
  0
CLASS
  1
VISUALSTYLE
  2
AcDbVisualStyle
  3
ObjectDBX Classes
 90
     4095
280
     0
281
     0
  0
CLASS
  1
MATERIAL
  2
AcDbMaterial
  3
ObjectDBX Classes
 90
     1153
280
     0
281
     0
  0
CLASS
  1
SCALE
  2
AcDbScale
  3
ObjectDBX Classes
 90
     1153
280
     0
281
     0
  0
CLASS
  1
TABLESTYLE
  2
AcDbTableStyle
  3
ObjectDBX Classes
 90
     4095
280
     0
281
     0
  0
CLASS
  1
MLEADERSTYLE
  2
AcDbMLeaderStyle
  3
ACDB_MLEADERSTYLE_CLASS
 90
     4095
280
     0
281
     0
  0
CLASS
  1
SUN
  2
AcDbSun
  3
SCENEOE
 90
     1153
280
     0
281
     0
  0
CLASS
  1
DICTIONARYVAR
  2
AcDbDictionaryVar
  3
ObjectDBX Classes
 90
        0
280
     0
281
     0
  0
CLASS
  1
XRECORD
  2
AcDbXrecord
  3
ObjectDBX Classes
 90
        0
280
     0
281
     0
  0
CLASS
  1
LWPOLYLINE
  2
AcDbPolyline
  3
ObjectDBX Classes
 90
        0
280
     0
281
     1
  0
CLASS
  1
HATCH
  2
AcDbHatch
  3
ObjectDBX Classes
 90
        0
280
     0
281
     1
  0
CLASS
  1
ACDBPLACEHOLDER
  2
AcDbPlaceHolder
  3
ObjectDBX Classes
 90
        0
280
     0
281
     0
  0
CLASS
  1
LAYOUT
  2
AcDbLayout
  3
ObjectDBX Classes
 90
        0
280
     0
281
     0
  0
ENDSEC
  0
SECTION
  2
TABLES
  0
TABLE
  2
VPORT
  5
8
102
{ACAD_XDICTIONARY
360
571
102
}
330
0
100
AcDbSymbolTable
 70
     1
  0
VPORT
  5
29
330
8
100
AcDbSymbolTableRecord
100
AcDbViewportTableRecord
  2
*ACTIVE
 70
     0
 10
0.0
 20
0.0
 11
1.0
 21
1.0
 12
181.2237891366077
 22
163.6883138024
 13
0.0
 23
0.0
 14
0.5
 24
0.5
 15
0.5
 25
0.5
 16
0.0
 26
0.0
 36
1.0
 17
0.0
 27
0.0
 37
0.0
 40
120.4715059065081
 41
1.60267857142857
 42
50.0
 43
0.0
 44
0.0
 50
0.0
 51
0.0
 71
     0
 72
   100
 73
     1
 74
     3
 75
     0
 76
     0
 77
     0
 78
     0
  0
ENDTAB
  0
TABLE
  2
LTYPE
  5
5
330
0
100
AcDbSymbolTable
 70
     8
  0
LTYPE
  5
14
330
5
100
AcDbSymbolTableRecord
100
AcDbLinetypeTableRecord
  2
BYBLOCK
 70
     0
  3

 72
    65
 73
     0
 40
0.0
  0
LTYPE
  5
15
330
5
100
AcDbSymbolTableRecord
100
AcDbLinetypeTableRecord
  2
BYLAYER
 70
     0
  3

 72
    65
 73
     0
 40
0.0
  0
LTYPE
  5
16
330
5
100
AcDbSymbolTableRecord
100
AcDbLinetypeTableRecord
  2
CONTINUOUS
 70
     0
  3
Solid line
 72
    65
 73
     0
 40
0.0
  0
LTYPE
  5
6E
330
5
100
AcDbSymbolTableRecord
100
AcDbLinetypeTableRecord
  2
DASHED
 70
     0
  3
Dashed
 72
    65
 73
     2
 40
15.0
 49
7.0
 74
     0
 49
-8.0
 74
     0
  0
LTYPE
  5
6F
330
5
100
AcDbSymbolTableRecord
100
AcDbLinetypeTableRecord
  2
DOTTED
 70
     0
  3
Dotted
 72
    65
 73
     2
 40
1.0
 49
0.0
 74
     0
 49
-1.0
 74
     0
  0
LTYPE
  5
70
330
5
100
AcDbSymbolTableRecord
100
AcDbLinetypeTableRecord
  2
DOT_CENTER
 70
     0
  3
Dot_Center
 72
    65
 73
     4
 40
14.0
 49
12.0
 74
     0
 49
-1.0
 74
     0
 49
0.0
 74
     0
 49
-1.0
 74
     0
  0
LTYPE
  5
71
330
5
100
AcDbSymbolTableRecord
100
AcDbLinetypeTableRecord
  2
LONG_DASHED
 70
     0
  3
Long_Dashed
 72
    65
 73
     2
 40
15.0
 49
10.0
 74
     0
 49
-5.0
 74
     0
  0
LTYPE
  5
72
330
5
100
AcDbSymbolTableRecord
100
AcDbLinetypeTableRecord
  2
DASH_CENTER
 70
     0
  3
Dash_Center
 72
    65
 73
     4
 40
14.0
 49
11.0
 74
     0
 49
-1.0
 74
     0
 49
1.0
 74
     0
 49
-1.0
 74
     0
  0
LTYPE
  5
73
330
5
100
AcDbSymbolTableRecord
100
AcDbLinetypeTableRecord
  2
PHANTOM
 70
     0
  3
Phantom
 72
    65
 73
     6
 40
13.0
 49
10.0
 74
     0
 49
-1.0
 74
     0
 49
0.0
 74
     0
 49
-1.0
 74
     0
 49
0.0
 74
     0
 49
-1.0
 74
     0
  0
LTYPE
  5
74
330
5
100
AcDbSymbolTableRecord
100
AcDbLinetypeTableRecord
  2
CENTER_DASH_DASH
 70
     0
  3
Center_Dash_Dash
 72
    65
 73
     6
 40
14.0
 49
9.0
 74
     0
 49
-1.0
 74
     0
 49
1.0
 74
     0
 49
-1.0
 74
     0
 49
1.0
 74
     0
 49
-1.0
 74
     0
  0
ENDTAB
  0
TABLE
  2
LAYER
  5
2
330
0
100
AcDbSymbolTable
 70
     3
  0
LAYER
  5
10
330
2
100
AcDbSymbolTableRecord
100
AcDbLayerTableRecord
  2
0
 70
     0
 62
     7
  6
CONTINUOUS
  0
LAYER
  5
75
330
2
100
AcDbSymbolTableRecord
100
AcDbLayerTableRecord
  2
1
 70
     0
 62
     7
  6
CONTINUOUS
  0
LAYER
  5
76
330
2
100
AcDbSymbolTableRecord
100
AcDbLayerTableRecord
  2
黒地
 70
     0
 62
     7
  6
CONTINUOUS
  0
ENDTAB
  0
TABLE
  2
STYLE
  5
3
330
0
100
AcDbSymbolTable
 70
     2
  0
STYLE
  5
11
330
3
100
AcDbSymbolTableRecord
100
AcDbTextStyleTableRecord
  2
STANDARD
 70
     0
 40
0.0
 41
1.0
 50
0.0
 71
     0
 42
0.2
  3
txt
  4

  0
STYLE
  5
4FC
330
3
100
AcDbSymbolTableRecord
100
AcDbTextStyleTableRecord
  2
CONVERTER_11
 70
     0
 40
0.0
 41
0.9
 50
0.0
 71
     0
 42
0.2
  3
txt.shx
  4

  0
ENDTAB
  0
TABLE
  2
VIEW
  5
6
330
0
100
AcDbSymbolTable
 70
     0
  0
ENDTAB
  0
TABLE
  2
UCS
  5
7
330
0
100
AcDbSymbolTable
 70
     0
  0
ENDTAB
  0
TABLE
  2
APPID
  5
9
330
0
100
AcDbSymbolTable
 70
     2
  0
APPID
  5
12
330
9
100
AcDbSymbolTableRecord
100
AcDbRegAppTableRecord
  2
ACAD
 70
     0
  0
APPID
  5
57B
330
9
100
AcDbSymbolTableRecord
100
AcDbRegAppTableRecord
  2
ACAD_MLEADERVER
 70
     0
  0
ENDTAB
  0
TABLE
  2
DIMSTYLE
  5
A
330
0
100
AcDbSymbolTable
 70
     7
  0
DIMSTYLE
105
27
330
A
100
AcDbSymbolTableRecord
100
AcDbDimStyleTableRecord
  2
STANDARD
 70
     0
  3

  4

  5

  6

  7

 40
1.0
 41
0.18
 42
0.0625
 43
0.38
 44
0.18
 45
0.0
 46
0.0
 47
0.0
 48
0.0
140
0.18
141
0.09
142
0.0
143
25.4
144
1.0
145
0.0
146
1.0
147
0.09
 71
     0
 72
     0
 73
     1
 74
     1
 75
     0
 76
     0
 77
     0
 78
     0
170
     0
171
     2
172
     0
173
     0
174
     0
175
     0
176
     0
177
     0
178
     0
270
     2
271
     4
272
     4
273
     2
274
     2
340
11
275
     0
280
     0
281
     0
282
     0
283
     1
284
     0
285
     0
286
     0
287
     3
288
     0
  0
DIMSTYLE
105
506
102
{ACAD_REACTORS
330
507
102
}
330
A
100
AcDbSymbolTableRecord
100
AcDbDimStyleTableRecord
  2
ME10_DIM_10
 70
     0
  3

  4

  5

  6
OPEN30
  7
OPEN30
 40
1.0
 41
2.5
 42
0.5
 43
0.38
 44
2.121320343
 45
0.0
 46
0.0
 47
0.0
 48
0.0
140
2.5
141
0.09
142
0.0
143
25.4
144
1.0
145
0.0
146
1.0
147
1.0
 71
     0
 72
     0
 73
     0
 74
     0
 75
     0
 76
     0
 77
     1
 78
     8
170
     0
171
     2
172
     1
173
     1
174
     1
175
     1
176
     2
177
     2
178
     2
270
     2
271
     2
272
     4
273
     2
274
     2
340
4FC
275
     0
280
     0
281
     0
282
     0
283
     1
284
     0
285
     0
286
     0
287
     3
288
     0
  0
DIMSTYLE
105
513
102
{ACAD_REACTORS
330
514
102
}
330
A
100
AcDbSymbolTableRecord
100
AcDbDimStyleTableRecord
  2
ME10_DIM_11
 70
     0
  3

  4

  5

  6
OPEN30
  7
OPEN30
 40
1.0
 41
2.5
 42
0.5
 43
0.38
 44
2.121320343
 45
0.0
 46
0.0
 47
0.0
 48
0.0
140
2.5
141
0.09
142
0.0
143
25.4
144
1.0
145
0.0
146
1.0
147
1.0
 71
     0
 72
     0
 73
     0
 74
     0
 75
     0
 76
     0
 77
     1
 78
     8
170
     0
171
     2
172
     1
173
     1
174
     1
175
     1
176
     2
177
     2
178
     2
270
     2
271
     2
272
     4
273
     2
274
     2
340
4FC
275
     0
280
     0
281
     0
282
     0
283
     1
284
     0
285
     0
286
     0
287
     3
288
     0
  0
DIMSTYLE
105
520
102
{ACAD_REACTORS
330
521
102
}
330
A
100
AcDbSymbolTableRecord
100
AcDbDimStyleTableRecord
  2
ME10_DIM_12
 70
     0
  3

  4

  5

  6
OPEN30
  7
OPEN30
 40
1.0
 41
2.5
 42
0.5
 43
0.38
 44
2.121320343
 45
0.0
 46
0.0
 47
0.0
 48
0.0
140
2.5
141
0.09
142
0.0
143
25.4
144
1.0
145
0.0
146
1.0
147
1.0
 71
     0
 72
     0
 73
     0
 74
     0
 75
     0
 76
     0
 77
     1
 78
     8
170
     0
171
     2
172
     1
173
     1
174
     1
175
     1
176
     2
177
     2
178
     2
270
     2
271
     2
272
     4
273
     2
274
     2
340
4FC
275
     0
280
     0
281
     0
282
     0
283
     1
284
     0
285
     0
286
     0
287
     3
288
     0
  0
DIMSTYLE
105
52D
102
{ACAD_REACTORS
330
52E
102
}
330
A
100
AcDbSymbolTableRecord
100
AcDbDimStyleTableRecord
  2
ME10_DIM_13
 70
     0
  3

  4

  5

  6
OPEN30
  7
OPEN30
 40
1.0
 41
2.5
 42
0.5
 43
0.38
 44
2.121320343
 45
0.0
 46
0.0
 47
0.0
 48
0.0
140
2.5
141
0.09
142
0.0
143
25.4
144
1.0
145
0.0
146
1.0
147
1.0
 71
     0
 72
     0
 73
     0
 74
     0
 75
     0
 76
     0
 77
     1
 78
     8
170
     0
171
     2
172
     1
173
     1
174
     1
175
     1
176
     2
177
     2
178
     2
270
     2
271
     2
272
     4
273
     2
274
     2
340
4FC
275
     0
280
     0
281
     0
282
     0
283
     1
284
     0
285
     0
286
     0
287
     3
288
     0
  0
DIMSTYLE
105
53A
102
{ACAD_REACTORS
330
53B
102
}
330
A
100
AcDbSymbolTableRecord
100
AcDbDimStyleTableRecord
  2
ME10_DIM_14
 70
     0
  3

  4

  5

  6
OPEN30
  7
OPEN30
 40
1.0
 41
2.5
 42
0.5
 43
0.38
 44
2.121320343
 45
0.0
 46
0.0
 47
0.0
 48
0.0
140
2.5
141
0.09
142
0.0
143
25.4
144
1.0
145
0.0
146
1.0
147
1.0
 71
     0
 72
     0
 73
     0
 74
     0
 75
     0
 76
     0
 77
     1
 78
     8
170
     0
171
     2
172
     1
173
     1
174
     1
175
     1
176
     2
177
     2
178
     2
270
     2
271
     2
272
     4
273
     2
274
     2
340
4FC
275
     0
280
     0
281
     0
282
     0
283
     1
284
     0
285
     0
286
     0
287
     3
288
     0
  0
DIMSTYLE
105
547
102
{ACAD_REACTORS
330
548
102
}
330
A
100
AcDbSymbolTableRecord
100
AcDbDimStyleTableRecord
  2
ME10_DIM_15
 70
     0
  3

  4

  5

  6
OPEN30
  7
OPEN30
 40
1.0
 41
2.5
 42
0.5
 43
0.38
 44
2.121320343
 45
0.0
 46
0.0
 47
0.0
 48
0.0
140
2.5
141
0.09
142
0.0
143
25.4
144
1.0
145
0.0
146
1.0
147
1.0
 71
     0
 72
     0
 73
     0
 74
     0
 75
     0
 76
     0
 77
     1
 78
     8
170
     0
171
     2
172
     1
173
     1
174
     1
175
     1
176
     2
177
     2
178
     2
270
     2
271
     2
272
     4
273
     2
274
     2
340
4FC
275
     0
280
     0
281
     0
282
     0
283
     1
284
     0
285
     0
286
     0
287
     3
288
     0
  0
ENDTAB
  0
TABLE
  2
BLOCK_RECORD
  5
1
330
0
100
AcDbSymbolTable
 70
     8
  0
BLOCK_RECORD
  5
1F
330
1
100
AcDbSymbolTableRecord
100
AcDbBlockTableRecord
  2
*MODEL_SPACE
  0
BLOCK_RECORD
  5
1B
330
1
100
AcDbSymbolTableRecord
100
AcDbBlockTableRecord
  2
*PAPER_SPACE
  0
BLOCK_RECORD
  5
4F4
330
1
100
AcDbSymbolTableRecord
100
AcDbBlockTableRecord
  2
*D1
  0
BLOCK_RECORD
  5
500
330
1
100
AcDbSymbolTableRecord
100
AcDbBlockTableRecord
  2
_OPEN30
  0
BLOCK_RECORD
  5
508
330
1
100
AcDbSymbolTableRecord
100
AcDbBlockTableRecord
  2
*D3
  0
BLOCK_RECORD
  5
515
330
1
100
AcDbSymbolTableRecord
100
AcDbBlockTableRecord
  2
*D4
  0
BLOCK_RECORD
  5
522
330
1
100
AcDbSymbolTableRecord
100
AcDbBlockTableRecord
  2
*D5
  0
BLOCK_RECORD
  5
52F
330
1
100
AcDbSymbolTableRecord
100
AcDbBlockTableRecord
  2
*D6
  0
BLOCK_RECORD
  5
53C
330
1
100
AcDbSymbolTableRecord
100
AcDbBlockTableRecord
  2
*D7
  0
ENDTAB
  0
ENDSEC
  0
SECTION
  2
BLOCKS
  0
BLOCK
  5
20
330
1F
100
AcDbEntity
  8
0
100
AcDbBlockBegin
  2
*MODEL_SPACE
 70
     0
 10
0.0
 20
0.0
 30
0.0
  3
*MODEL_SPACE
  1

  0
ENDBLK
  5
21
330
1F
100
AcDbEntity
  8
0
100
AcDbBlockEnd
  0
BLOCK
  5
1C
330
1B
100
AcDbEntity
 67
     1
  8
0
100
AcDbBlockBegin
  2
*PAPER_SPACE
 70
     0
 10
0.0
 20
0.0
 30
0.0
  3
*PAPER_SPACE
  1

  0
ENDBLK
  5
1D
330
1B
100
AcDbEntity
 67
     1
  8
0
100
AcDbBlockEnd
  0
BLOCK
  5
4FE
330
4F4
100
AcDbEntity
  8
0
100
AcDbBlockBegin
  2
*D1
 70
     1
 10
0.0
 20
0.0
 30
0.0
  3
*D1
  1

  0
LINE
  5
4F5
330
4F4
100
AcDbEntity
  8
1
  6
CONTINUOUS
 62
     2
100
AcDbLine
 10
104.9367114788933
 20
116.748973199
 30
0.0
 11
127.4367123728933
 21
116.748973199
 31
0.0
  0
LINE
  5
4F6
330
4F4
100
AcDbEntity
  8
1
  6
CONTINUOUS
 62
     2
100
AcDbLine
 10
127.4367123728933
 20
124.1957929813
 30
0.0
 11
127.4367123728933
 21
114.627652856
 31
0.0
  0
LINE
  5
4F7
330
4F4
100
AcDbEntity
  8
1
  6
CONTINUOUS
 62
     2
100
AcDbLine
 10
104.9367114788933
 20
124.1957929813
 30
0.0
 11
104.9367114788933
 21
114.627652856
 31
0.0
  0
LINE
  5
4F8
330
4F4
100
AcDbEntity
  8
1
 62
     2
100
AcDbLine
 10
104.9367114788933
 20
116.748973199
 30
0.0
 11
107.4367114788933
 21
117.4188461800778
 31
0.0
  0
LINE
  5
4F9
330
4F4
100
AcDbEntity
  8
1
 62
     2
100
AcDbLine
 10
104.9367114788933
 20
116.748973199
 30
0.0
 11
107.4367114788933
 21
116.0791002179222
 31
0.0
  0
LINE
  5
4FA
330
4F4
100
AcDbEntity
  8
1
 62
     2
100
AcDbLine
 10
127.4367123728933
 20
116.748973199
 30
0.0
 11
124.9367123728933
 21
116.0791002179222
 31
0.0
  0
LINE
  5
4FB
330
4F4
100
AcDbEntity
  8
1
 62
     2
100
AcDbLine
 10
127.4367123728933
 20
116.748973199
 30
0.0
 11
124.9367123728933
 21
117.4188461800778
 31
0.0
  0
MTEXT
  5
4FD
330
4F4
100
AcDbEntity
  8
1
 62
     2
100
AcDbMText
 10
112.7804619258933
 20
117.748973199
 30
0.0
 40
2.5
 41
0.0
 71
     7
 72
     1
  1
22.5
  7
CONVERTER_11
 11
0.9999999999970619
 21
2.424068405545306E-6
 31
0.0
1001
ACAD
1000
MTEXTBEGIN
1070
    44
1040
0.60024009603842
1000
MTEXTEND
  0
ENDBLK
  5
4FF
330
4F4
100
AcDbEntity
  8
0
100
AcDbBlockEnd
  0
BLOCK
  5
501
330
500
100
AcDbEntity
  8
0
100
AcDbBlockBegin
  2
_OPEN30
 70
     0
 10
0.0
 20
0.0
 30
0.0
  3
_OPEN30
  1

  0
LINE
  5
503
330
500
100
AcDbEntity
  8
0
  6
BYBLOCK
 62
     0
100
AcDbLine
 10
-1.0
 20
0.267949
 30
0.0
 11
0.0
 21
0.0
 31
0.0
  0
LINE
  5
504
330
500
100
AcDbEntity
  8
0
  6
BYBLOCK
 62
     0
100
AcDbLine
 10
0.0
 20
0.0
 30
0.0
 11
-1.0
 21
-0.267949
 31
0.0
  0
LINE
  5
505
330
500
100
AcDbEntity
  8
0
  6
BYBLOCK
 62
     0
100
AcDbLine
 10
0.0
 20
0.0
 30
0.0
 11
-1.0
 21
0.0
 31
0.0
  0
ENDBLK
  5
502
330
500
100
AcDbEntity
  8
0
100
AcDbBlockEnd
  0
BLOCK
  5
511
330
508
100
AcDbEntity
  8
0
100
AcDbBlockBegin
  2
*D3
 70
     1
 10
0.0
 20
0.0
 30
0.0
  3
*D3
  1

  0
LINE
  5
509
330
508
100
AcDbEntity
  8
1
  6
CONTINUOUS
 62
     2
100
AcDbLine
 10
138.833685757168
 20
175.5887888911399
 30
0.0
 11
138.833685757168
 21
212.7489747488
 31
0.0
  0
LINE
  5
50A
330
508
100
AcDbEntity
  8
1
  6
CONTINUOUS
 62
     2
100
AcDbLine
 10
133.236623159917
 20
175.5887888911399
 30
0.0
 11
140.955006100168
 21
175.5887888911399
 31
0.0
  0
LINE
  5
50B
330
508
100
AcDbEntity
  8
1
  6
CONTINUOUS
 62
     2
100
AcDbLine
 10
126.9367122089933
 20
212.7489747488
 30
0.0
 11
140.955006100168
 21
212.7489747488
 31
0.0
  0
LINE
  5
50C
330
508
100
AcDbEntity
  8
1
 62
     2
100
AcDbLine
 10
138.833685757168
 20
175.5887888911399
 30
0.0
 11
138.1638127760902
 21
178.0887888911399
 31
0.0
  0
LINE
  5
50D
330
508
100
AcDbEntity
  8
1
 62
     2
100
AcDbLine
 10
138.833685757168
 20
175.5887888911399
 30
0.0
 11
139.5035587382458
 21
178.0887888911399
 31
0.0
  0
LINE
  5
50E
330
508
100
AcDbEntity
  8
1
 62
     2
100
AcDbLine
 10
138.833685757168
 20
212.7489747488
 30
0.0
 11
139.5035587382458
 21
210.2489747488
 31
0.0
  0
LINE
  5
50F
330
508
100
AcDbEntity
  8
1
 62
     2
100
AcDbLine
 10
138.833685757168
 20
212.7489747488
 30
0.0
 11
138.1638127760902
 21
210.2489747488
 31
0.0
  0
MTEXT
  5
510
330
508
100
AcDbEntity
  8
1
 62
     2
100
AcDbMText
 10
137.833685757168
 20
193.737167223687
 30
0.0
 40
2.5
 41
0.0
 71
     7
 72
     1
  1
37
  7
CONVERTER_11
 11
0.0
 21
1.0
 31
0.0
1001
ACAD
1000
MTEXTBEGIN
1070
    44
1040
0.60024009603842
1000
MTEXTEND
  0
ENDBLK
  5
512
330
508
100
AcDbEntity
  8
0
100
AcDbBlockEnd
  0
BLOCK
  5
51E
330
515
100
AcDbEntity
  8
0
100
AcDbBlockBegin
  2
*D4
 70
     1
 10
0.0
 20
0.0
 30
0.0
  3
*D4
  1

  0
LINE
  5
516
330
515
100
AcDbEntity
  8
1
  6
CONTINUOUS
 62
     2
100
AcDbLine
 10
145.833685757168
 20
123.748973199
 30
0.0
 11
145.833685757168
 21
212.7489747488
 31
0.0
  0
LINE
  5
517
330
515
100
AcDbEntity
  8
1
  6
CONTINUOUS
 62
     2
100
AcDbLine
 10
126.9367122089933
 20
123.748973199
 30
0.0
 11
147.955006100168
 21
123.748973199
 31
0.0
  0
LINE
  5
518
330
515
100
AcDbEntity
  8
1
  6
CONTINUOUS
 62
     2
100
AcDbLine
 10
126.9367122089933
 20
212.7489747488
 30
0.0
 11
147.955006100168
 21
212.7489747488
 31
0.0
  0
LINE
  5
519
330
515
100
AcDbEntity
  8
1
 62
     2
100
AcDbLine
 10
145.833685757168
 20
123.748973199
 30
0.0
 11
145.1638127760902
 21
126.248973199
 31
0.0
  0
LINE
  5
51A
330
515
100
AcDbEntity
  8
1
 62
     2
100
AcDbLine
 10
145.833685757168
 20
123.748973199
 30
0.0
 11
146.5035587382458
 21
126.248973199
 31
0.0
  0
LINE
  5
51B
330
515
100
AcDbEntity
  8
1
 62
     2
100
AcDbLine
 10
145.833685757168
 20
212.7489747488
 30
0.0
 11
146.5035587382458
 21
210.2489747488
 31
0.0
  0
LINE
  5
51C
330
515
100
AcDbEntity
  8
1
 62
     2
100
AcDbLine
 10
145.833685757168
 20
212.7489747488
 30
0.0
 11
145.1638127760902
 21
210.2489747488
 31
0.0
  0
MTEXT
  5
51D
330
515
100
AcDbEntity
  8
1
 62
     2
100
AcDbMText
 10
144.833685757168
 20
166.3739739739
 30
0.0
 40
2.5
 41
0.0
 71
     7
 72
     1
  1
89
  7
CONVERTER_11
 11
0.0
 21
1.0
 31
0.0
1001
ACAD
1000
MTEXTBEGIN
1070
    44
1040
0.60024009603842
1000
MTEXTEND
  0
ENDBLK
  5
51F
330
515
100
AcDbEntity
  8
0
100
AcDbBlockEnd
  0
BLOCK
  5
52B
330
522
100
AcDbEntity
  8
0
100
AcDbBlockBegin
  2
*D5
 70
     1
 10
0.0
 20
0.0
 30
0.0
  3
*D5
  1

  0
LINE
  5
523
330
522
100
AcDbEntity
  8
1
  6
CONTINUOUS
 62
     2
100
AcDbLine
 10
162.8962496951
 20
116.748973199
 30
0.0
 11
152.8962496950439
 21
116.748973199
 31
0.0
  0
LINE
  5
524
330
522
100
AcDbEntity
  8
1
  6
CONTINUOUS
 62
     2
100
AcDbLine
 10
152.8962496950439
 20
167.417631280651
 30
0.0
 11
152.8962496950439
 21
114.627652856
 31
0.0
  0
LINE
  5
525
330
522
100
AcDbEntity
  8
1
  6
CONTINUOUS
 62
     2
100
AcDbLine
 10
162.8962496951
 20
125.2488990211
 30
0.0
 11
162.8962496951
 21
114.627652856
 31
0.0
  0
LINE
  5
526
330
522
100
AcDbEntity
  8
1
 62
     2
100
AcDbLine
 10
162.8962496951
 20
116.748973199
 30
0.0
 11
160.3962496951
 21
116.0791002179222
 31
0.0
  0
LINE
  5
527
330
522
100
AcDbEntity
  8
1
 62
     2
100
AcDbLine
 10
162.8962496951
 20
116.748973199
 30
0.0
 11
160.3962496951
 21
117.4188461800778
 31
0.0
  0
LINE
  5
528
330
522
100
AcDbEntity
  8
1
 62
     2
100
AcDbLine
 10
152.8962496950439
 20
116.748973199
 30
0.0
 11
155.3962496950439
 21
117.4188461800778
 31
0.0
  0
LINE
  5
529
330
522
100
AcDbEntity
  8
1
 62
     2
100
AcDbLine
 10
152.8962496950439
 20
116.748973199
 30
0.0
 11
155.3962496950439
 21
116.0791002179222
 31
0.0
  0
MTEXT
  5
52A
330
522
100
AcDbEntity
  8
1
 62
     2
100
AcDbMText
 10
156.396249695072
 20
117.748973199
 30
0.0
 40
2.5
 41
0.0
 71
     7
 72
     1
  1
10
  7
CONVERTER_11
 11
0.9999999999970619
 21
2.424068405545306E-6
 31
0.0
1001
ACAD
1000
MTEXTBEGIN
1070
    44
1040
0.60024009603842
1000
MTEXTEND
  0
ENDBLK
  5
52C
330
522
100
AcDbEntity
  8
0
100
AcDbBlockEnd
  0
BLOCK
  5
538
330
52F
100
AcDbEntity
  8
0
100
AcDbBlockBegin
  2
*D6
 70
     1
 10
0.0
 20
0.0
 30
0.0
  3
*D6
  1

  0
LINE
  5
530
330
52F
100
AcDbEntity
  8
1
  6
CONTINUOUS
 62
     2
100
AcDbLine
 10
232.8962499931
 20
116.748973199
 30
0.0
 11
162.8962496951
 21
116.748973199
 31
0.0
  0
LINE
  5
531
330
52F
100
AcDbEntity
  8
1
  6
CONTINUOUS
 62
     2
100
AcDbLine
 10
162.8962496951
 20
125.2488990211
 30
0.0
 11
162.8962496951
 21
114.627652856
 31
0.0
  0
LINE
  5
532
330
52F
100
AcDbEntity
  8
1
  6
CONTINUOUS
 62
     2
100
AcDbLine
 10
232.8962499931
 20
125.7489745401
 30
0.0
 11
232.8962499931
 21
114.627652856
 31
0.0
  0
LINE
  5
533
330
52F
100
AcDbEntity
  8
1
 62
     2
100
AcDbLine
 10
232.8962499931
 20
116.748973199
 30
0.0
 11
230.3962499931
 21
116.0791002179222
 31
0.0
  0
LINE
  5
534
330
52F
100
AcDbEntity
  8
1
 62
     2
100
AcDbLine
 10
232.8962499931
 20
116.748973199
 30
0.0
 11
230.3962499931
 21
117.4188461800778
 31
0.0
  0
LINE
  5
535
330
52F
100
AcDbEntity
  8
1
 62
     2
100
AcDbLine
 10
162.8962496951
 20
116.748973199
 30
0.0
 11
165.3962496951
 21
117.4188461800778
 31
0.0
  0
LINE
  5
536
330
52F
100
AcDbEntity
  8
1
 62
     2
100
AcDbLine
 10
162.8962496951
 20
116.748973199
 30
0.0
 11
165.3962496951
 21
116.0791002179222
 31
0.0
  0
MTEXT
  5
537
330
52F
100
AcDbEntity
  8
1
 62
     2
100
AcDbMText
 10
196.0212498441
 20
117.748973199
 30
0.0
 40
2.5
 41
0.0
 71
     7
 72
     1
  1
70
  7
CONVERTER_11
 11
0.9999999999970619
 21
2.424068405545306E-6
 31
0.0
1001
ACAD
1000
MTEXTBEGIN
1070
    44
1040
0.60024009603842
1000
MTEXTEND
  0
ENDBLK
  5
539
330
52F
100
AcDbEntity
  8
0
100
AcDbBlockEnd
  0
BLOCK
  5
545
330
53C
100
AcDbEntity
  8
0
100
AcDbBlockBegin
  2
*D7
 70
     1
 10
0.0
 20
0.0
 30
0.0
  3
*D7
  1

  0
LINE
  5
53D
330
53C
100
AcDbEntity
  8
1
  6
CONTINUOUS
 62
     2
100
AcDbLine
 10
232.8962499931
 20
116.748973199
 30
0.0
 11
262.8962499931
 21
116.748973199
 31
0.0
  0
LINE
  5
53E
330
53C
100
AcDbEntity
  8
1
  6
CONTINUOUS
 62
     2
100
AcDbLine
 10
232.8962499931
 20
158.0888041499398
 30
0.0
 11
232.8962499931
 21
114.627652856
 31
0.0
  0
LINE
  5
53F
330
53C
100
AcDbEntity
  8
1
  6
CONTINUOUS
 62
     2
100
AcDbLine
 10
262.8962499931
 20
135.0888041499398
 30
0.0
 11
262.8962499931
 21
114.627652856
 31
0.0
  0
LINE
  5
540
330
53C
100
AcDbEntity
  8
1
 62
     2
100
AcDbLine
 10
232.8962499931
 20
116.748973199
 30
0.0
 11
235.3962499931
 21
117.4188461800778
 31
0.0
  0
LINE
  5
541
330
53C
100
AcDbEntity
  8
1
 62
     2
100
AcDbLine
 10
232.8962499931
 20
116.748973199
 30
0.0
 11
235.3962499931
 21
116.0791002179222
 31
0.0
  0
LINE
  5
542
330
53C
100
AcDbEntity
  8
1
 62
     2
100
AcDbLine
 10
262.8962499931
 20
116.748973199
 30
0.0
 11
260.3962499931
 21
116.0791002179222
 31
0.0
  0
LINE
  5
543
330
53C
100
AcDbEntity
  8
1
 62
     2
100
AcDbLine
 10
262.8962499931
 20
116.748973199
 30
0.0
 11
260.3962499931
 21
117.4188461800778
 31
0.0
  0
MTEXT
  5
544
330
53C
100
AcDbEntity
  8
1
 62
     2
100
AcDbMText
 10
246.0212499931
 20
117.748973199
 30
0.0
 40
2.5
 41
0.0
 71
     7
 72
     1
  1
30
  7
CONVERTER_11
 11
0.9999999999970619
 21
2.424068405545306E-6
 31
0.0
1001
ACAD
1000
MTEXTBEGIN
1070
    44
1040
0.60024009603842
1000
MTEXTEND
  0
ENDBLK
  5
546
330
53C
100
AcDbEntity
  8
0
100
AcDbBlockEnd
  0
ENDSEC
  0
SECTION
  2
ENTITIES
  0
POINT
  5
77
330
1F
100
AcDbEntity
  8
1
 62
     3
 60
     1
100
AcDbPoint
 10
218.2983088031
 20
209.0489754461
 30
0.0
  0
POINT
  5
78
330
1F
100
AcDbEntity
  8
1
 62
     3
 60
     1
100
AcDbPoint
 10
218.5962500706
 20
209.0489754461
 30
0.0
  0
POINT
  5
79
330
1F
100
AcDbEntity
  8
1
 62
     3
 60
     1
100
AcDbPoint
 10
105.9367114788673
 20
207.7315190815
 30
0.0
  0
POINT
  5
7A
330
1F
100
AcDbEntity
  8
1
 62
     3
 60
     1
100
AcDbPoint
 10
105.9367115263933
 20
207.7315190815
 30
0.0
  0
POINT
  5
7B
330
1F
100
AcDbEntity
  8
1
 62
     3
 60
     1
100
AcDbPoint
 10
105.9367114788673
 20
129.2664298796
 30
0.0
  0
POINT
  5
7C
330
1F
100
AcDbEntity
  8
1
 62
     3
 60
     1
100
AcDbPoint
 10
105.9367115263933
 20
129.2664298796
 30
0.0
  0
POINT
  5
7D
330
1F
100
AcDbEntity
  8
1
 62
     3
100
AcDbPoint
 10
152.8962496950439
 20
167.917631280651
 30
0.0
  0
LINE
  5
7E
330
1F
100
AcDbEntity
  8
1
  6
CONTINUOUS
 62
     7
100
AcDbLine
 10
113.0241953883792
 20
164.1732902783006
 30
0.0
 11
113.0241953883792
 21
164.4035228364402
 31
0.0
  0
LINE
  5
7F
330
1F
100
AcDbEntity
  8
1
  6
CONTINUOUS
 62
     7
100
AcDbLine
 10
113.2311953883792
 20
164.1732902783006
 30
0.0
 11
113.0241953883792
 21
164.1732902783006
 31
0.0
  0
LINE
  5
80
330
1F
100
AcDbEntity
  8
1
  6
CONTINUOUS
 62
     7
100
AcDbLine
 10
113.2311953883792
 20
164.4035228364402
 30
0.0
 11
113.2311953883792
 21
164.1732902783006
 31
0.0
  0
LINE
  5
81
330
1F
100
AcDbEntity
  8
1
  6
CONTINUOUS
 62
     7
100
AcDbLine
 10
113.0241953883792
 20
164.4035228364402
 30
0.0
 11
113.2311953883792
 21
164.4035228364402
 31
0.0
  0
LINE
  5
82
330
1F
100
AcDbEntity
  8
1
  6
CONTINUOUS
 62
     7
100
AcDbLine
 10
112.2591953883792
 20
165.7116623713239
 30
0.0
 11
111.8091953883792
 21
165.7116623713239
 31
0.0
  0
LINE
  5
83
330
1F
100
AcDbEntity
  8
1
  6
CONTINUOUS
 62
     7
100
AcDbLine
 10
112.3671953883792
 20
165.6907321387658
 30
0.0
 11
112.2591953883792
 21
165.7116623713239
 31
0.0
  0
LINE
  5
84
330
1F
100
AcDbEntity
  8
1
  6
CONTINUOUS
 62
     7
100
AcDbLine
 10
112.4661953883792
 20
165.6384065573704
 30
0.0
 11
112.3671953883792
 21
165.6907321387658
 31
0.0
  0
LINE
  5
85
330
1F
100
AcDbEntity
  8
1
  6
CONTINUOUS
 62
     7
100
AcDbLine
 10
112.5201953883792
 20
165.5337553945797
 30
0.0
 11
112.4661953883792
 21
165.6384065573704
 31
0.0
  0
LINE
  5
86
330
1F
100
AcDbEntity
  8
1
  6
CONTINUOUS
 62
     7
100
AcDbLine
 10
112.5381953883792
 20
165.3872437666728
 30
0.0
 11
112.5201953883792
 21
165.5337553945797
 31
0.0
  0
LINE
  5
87
330
1F
100
AcDbEntity
  8
1
  6
CONTINUOUS
 62
     7
100
AcDbLine
 10
112.5111953883792
 20
165.2407321387658
 30
0.0
 11
112.5381953883792
 21
165.3872437666728
 31
0.0
  0
LINE
  5
88
330
1F
100
AcDbEntity
  8
1
  6
CONTINUOUS
 62
     7
100
AcDbLine
 10
112.4571953883792
 20
165.1360809759751
 30
0.0
 11
112.5111953883792
 21
165.2407321387658
 31
0.0
  0
LINE
  5
89
330
1F
100
AcDbEntity
  8
1
  6
CONTINUOUS
 62
     7
100
AcDbLine
 10
112.3671953883792
 20
165.0732902783007
 30
0.0
 11
112.4571953883792
 21
165.1360809759751
 31
0.0
  0
LINE
  5
8A
330
1F
100
AcDbEntity
  8
1
  6
CONTINUOUS
 62
     7
100
AcDbLine
 10
112.2591953883792
 20
165.0523600457425
 30
0.0
 11
112.3671953883792
 21
165.0732902783007
 31
0.0
  0
LINE
  5
8B
330
1F
100
AcDbEntity
  8
1
  6
CONTINUOUS
 62
     7
100
AcDbLine
 10
111.8091953883792
 20
165.0523600457425
 30
0.0
 11
112.2591953883792
 21
165.0523600457425
 31
0.0
  0
LINE
  5
8C
330
1F
100
AcDbEntity
  8
1
  6
CONTINUOUS
 62
     7
100
AcDbLine
 10
111.8091953883792
 20
165.7116623713239
 30
0.0
 11
111.8091953883792
 21
165.0523600457425
 31
0.0
  0
LINE
  5
8D
330
1F
100
AcDbEntity
  8
1
  6
CONTINUOUS
 62
     7
100
AcDbLine
 10
111.6021953883792
 20
164.1732902783006
 30
0.0
 11
111.6021953883792
 21
165.9209646969053
 31
0.0
  0
LINE
  5
8E
330
1F
100
AcDbEntity
  8
1
  6
CONTINUOUS
 62
     7
100
AcDbLine
 10
111.8091953883792
 20
164.1732902783006
 30
0.0
 11
111.6021953883792
 21
164.1732902783006
 31
0.0
  0
LINE
  5
8F
330
1F
100
AcDbEntity
  8
1
  6
CONTINUOUS
 62
     7
100
AcDbLine
 10
111.8091953883792
 20
164.8430577201611
 30
0.0
 11
111.8091953883792
 21
164.1732902783006
 31
0.0
  0
LINE
  5
90
330
1F
100
AcDbEntity
  8
1
  6
CONTINUOUS
 62
     7
100
AcDbLine
 10
112.3041953883792
 20
164.8430577201611
 30
0.0
 11
111.8091953883792
 21
164.8430577201611
 31
0.0
  0
LINE
  5
91
330
1F
100
AcDbEntity
  8
1
  6
CONTINUOUS
 62
     7
100
AcDbLine
 10
112.4931953883792
 20
164.8744530689983
 30
0.0
 11
112.3041953883792
 21
164.8430577201611
 31
0.0
  0
LINE
  5
92
330
1F
100
AcDbEntity
  8
1
  6
CONTINUOUS
 62
     7
100
AcDbLine
 10
112.6281953883792
 20
165.0000344643472
 30
0.0
 11
112.4931953883792
 21
164.8744530689983
 31
0.0
  0
LINE
  5
93
330
1F
100
AcDbEntity
  8
1
  6
CONTINUOUS
 62
     7
100
AcDbLine
 10
112.7091953883792
 20
165.1570112085332
 30
0.0
 11
112.6281953883792
 21
165.0000344643472
 31
0.0
  0
LINE
  5
94
330
1F
100
AcDbEntity
  8
1
  6
CONTINUOUS
 62
     7
100
AcDbLine
 10
112.7451953883792
 20
165.3872437666728
 30
0.0
 11
112.7091953883792
 21
165.1570112085332
 31
0.0
  0
LINE
  5
95
330
1F
100
AcDbEntity
  8
1
  6
CONTINUOUS
 62
     7
100
AcDbLine
 10
112.7091953883792
 20
165.6070112085332
 30
0.0
 11
112.7451953883792
 21
165.3872437666728
 31
0.0
  0
LINE
  5
96
330
1F
100
AcDbEntity
  8
1
  6
CONTINUOUS
 62
     7
100
AcDbLine
 10
112.6191953883792
 20
165.7849181852774
 30
0.0
 11
112.7091953883792
 21
165.6070112085332
 31
0.0
  0
LINE
  5
97
330
1F
100
AcDbEntity
  8
1
  6
CONTINUOUS
 62
     7
100
AcDbLine
 10
112.4751953883792
 20
165.879104231789
 30
0.0
 11
112.6191953883792
 21
165.7849181852774
 31
0.0
  0
LINE
  5
98
330
1F
100
AcDbEntity
  8
1
  6
CONTINUOUS
 62
     7
100
AcDbLine
 10
112.3041953883792
 20
165.9209646969053
 30
0.0
 11
112.4751953883792
 21
165.879104231789
 31
0.0
  0
LINE
  5
99
330
1F
100
AcDbEntity
  8
1
  6
CONTINUOUS
 62
     7
100
AcDbLine
 10
111.6021953883792
 20
165.9209646969053
 30
0.0
 11
112.3041953883792
 21
165.9209646969053
 31
0.0
  0
LINE
  5
9A
330
1F
100
AcDbEntity
  8
1
  6
CONTINUOUS
 62
     7
100
AcDbLine
 10
110.2521953883792
 20
165.3244530689983
 30
0.0
 11
110.2341953883792
 21
165.4604995806262
 31
0.0
  0
LINE
  5
9B
330
1F
100
AcDbEntity
  8
1
  6
CONTINUOUS
 62
     7
100
AcDbLine
 10
110.3151953883792
 20
165.2198019062076
 30
0.0
 11
110.2521953883792
 21
165.3244530689983
 31
0.0
  0
LINE
  5
9C
330
1F
100
AcDbEntity
  8
1
  6
CONTINUOUS
 62
     7
100
AcDbLine
 10
110.3691953883792
 20
165.1570112085332
 30
0.0
 11
110.3151953883792
 21
165.2198019062076
 31
0.0
  0
LINE
  5
9D
330
1F
100
AcDbEntity
  8
1
  6
CONTINUOUS
 62
     7
100
AcDbLine
 10
110.4411953883792
 20
165.125615859696
 30
0.0
 11
110.3691953883792
 21
165.1570112085332
 31
0.0
  0
LINE
  5
9E
330
1F
100
AcDbEntity
  8
1
  6
CONTINUOUS
 62
     7
100
AcDbLine
 10
110.5491953883792
 20
165.0628251620216
 30
0.0
 11
110.4411953883792
 21
165.125615859696
 31
0.0
  0
LINE
  5
9F
330
1F
100
AcDbEntity
  8
1
  6
CONTINUOUS
 62
     7
100
AcDbLine
 10
110.6931953883792
 20
165.0000344643472
 30
0.0
 11
110.5491953883792
 21
165.0628251620216
 31
0.0
  0
LINE
  5
A0
330
1F
100
AcDbEntity
  8
1
  6
CONTINUOUS
 62
     7
100
AcDbLine
 10
110.8101953883792
 20
164.9267786503937
 30
0.0
 11
110.6931953883792
 21
165.0000344643472
 31
0.0
  0
LINE
  5
A1
330
1F
100
AcDbEntity
  8
1
  6
CONTINUOUS
 62
     7
100
AcDbLine
 10
110.9181953883792
 20
164.8744530689983
 30
0.0
 11
110.8101953883792
 21
164.9267786503937
 31
0.0
  0
LINE
  5
A2
330
1F
100
AcDbEntity
  8
1
  6
CONTINUOUS
 62
     7
100
AcDbLine
 10
110.9991953883792
 20
164.822127487603
 30
0.0
 11
110.9181953883792
 21
164.8744530689983
 31
0.0
  0
LINE
  5
A3
330
1F
100
AcDbEntity
  8
1
  6
CONTINUOUS
 62
     7
100
AcDbLine
 10
111.0621953883792
 20
164.7698019062076
 30
0.0
 11
110.9991953883792
 21
164.822127487603
 31
0.0
  0
LINE
  5
A4
330
1F
100
AcDbEntity
  8
1
  6
CONTINUOUS
 62
     7
100
AcDbLine
 10
111.0981953883792
 20
164.6965460922542
 30
0.0
 11
111.0621953883792
 21
164.7698019062076
 31
0.0
  0
LINE
  5
A5
330
1F
100
AcDbEntity
  8
1
  6
CONTINUOUS
 62
     7
100
AcDbLine
 10
111.1161953883792
 20
164.6128251620216
 30
0.0
 11
111.0981953883792
 21
164.6965460922542
 31
0.0
  0
LINE
  5
A6
330
1F
100
AcDbEntity
  8
1
  6
CONTINUOUS
 62
     7
100
AcDbLine
 10
111.0981953883792
 20
164.529104231789
 30
0.0
 11
111.1161953883792
 21
164.6128251620216
 31
0.0
  0
LINE
  5
A7
330
1F
100
AcDbEntity
  8
1
  6
CONTINUOUS
 62
     7
100
AcDbLine
 10
111.0441953883792
 20
164.4558484178355
 30
0.0
 11
111.0981953883792
 21
164.529104231789
 31
0.0
  0
LINE
  5
A8
330
1F
100
AcDbEntity
  8
1
  6
CONTINUOUS
 62
     7
100
AcDbLine
 10
110.9271953883792
 20
164.372127487603
 30
0.0
 11
111.0441953883792
 21
164.4558484178355
 31
0.0
  0
LINE
  5
A9
330
1F
100
AcDbEntity
  8
1
  6
CONTINUOUS
 62
     7
100
AcDbLine
 10
110.7741953883792
 20
164.3511972550448
 30
0.0
 11
110.9271953883792
 21
164.372127487603
 31
0.0
  0
LINE
  5
AA
330
1F
100
AcDbEntity
  8
1
  6
CONTINUOUS
 62
     7
100
AcDbLine
 10
110.5941953883792
 20
164.372127487603
 30
0.0
 11
110.7741953883792
 21
164.3511972550448
 31
0.0
  0
LINE
  5
AB
330
1F
100
AcDbEntity
  8
1
  6
CONTINUOUS
 62
     7
100
AcDbLine
 10
110.4681953883792
 20
164.4663135341146
 30
0.0
 11
110.5941953883792
 21
164.372127487603
 31
0.0
  0
LINE
  5
AC
330
1F
100
AcDbEntity
  8
1
  6
CONTINUOUS
 62
     7
100
AcDbLine
 10
110.4141953883792
 20
164.5709646969053
 30
0.0
 11
110.4681953883792
 21
164.4663135341146
 31
0.0
  0
LINE
  5
AD
330
1F
100
AcDbEntity
  8
1
  6
CONTINUOUS
 62
     7
100
AcDbLine
 10
110.4051953883792
 20
164.7279414410914
 30
0.0
 11
110.4141953883792
 21
164.5709646969053
 31
0.0
  0
LINE
  5
AE
330
1F
100
AcDbEntity
  8
1
  6
CONTINUOUS
 62
     7
100
AcDbLine
 10
110.1981953883792
 20
164.7279414410914
 30
0.0
 11
110.4051953883792
 21
164.7279414410914
 31
0.0
  0
LINE
  5
AF
330
1F
100
AcDbEntity
  8
1
  6
CONTINUOUS
 62
     7
100
AcDbLine
 10
110.2251953883792
 20
164.4977088829518
 30
0.0
 11
110.1981953883792
 21
164.7279414410914
 31
0.0
  0
LINE
  5
B0
330
1F
100
AcDbEntity
  8
1
  6
CONTINUOUS
 62
     7
100
AcDbLine
 10
110.3151953883792
 20
164.3407321387658
 30
0.0
 11
110.2251953883792
 21
164.4977088829518
 31
0.0
  0
LINE
  5
B1
330
1F
100
AcDbEntity
  8
1
  6
CONTINUOUS
 62
     7
100
AcDbLine
 10
110.5041953883792
 20
164.1942205108588
 30
0.0
 11
110.3151953883792
 21
164.3407321387658
 31
0.0
  0
LINE
  5
B2
330
1F
100
AcDbEntity
  8
1
  6
CONTINUOUS
 62
     7
100
AcDbLine
 10
110.7651953883792
 20
164.1523600457425
 30
0.0
 11
110.5041953883792
 21
164.1942205108588
 31
0.0
  0
LINE
  5
B3
330
1F
100
AcDbEntity
  8
1
  6
CONTINUOUS
 62
     7
100
AcDbLine
 10
111.0171953883792
 20
164.1837553945797
 30
0.0
 11
110.7651953883792
 21
164.1523600457425
 31
0.0
  0
LINE
  5
B4
330
1F
100
AcDbEntity
  8
1
  6
CONTINUOUS
 62
     7
100
AcDbLine
 10
111.1971953883792
 20
164.3093367899286
 30
0.0
 11
111.0171953883792
 21
164.1837553945797
 31
0.0
  0
LINE
  5
B5
330
1F
100
AcDbEntity
  8
1
  6
CONTINUOUS
 62
     7
100
AcDbLine
 10
111.2781953883792
 20
164.4663135341146
 30
0.0
 11
111.1971953883792
 21
164.3093367899286
 31
0.0
  0
LINE
  5
B6
330
1F
100
AcDbEntity
  8
1
  6
CONTINUOUS
 62
     7
100
AcDbLine
 10
111.3141953883792
 20
164.6546856271379
 30
0.0
 11
111.2781953883792
 21
164.4663135341146
 31
0.0
  0
LINE
  5
B7
330
1F
100
AcDbEntity
  8
1
  6
CONTINUOUS
 62
     7
100
AcDbLine
 10
111.2871953883792
 20
164.8011972550448
 30
0.0
 11
111.3141953883792
 21
164.6546856271379
 31
0.0
  0
LINE
  5
B8
330
1F
100
AcDbEntity
  8
1
  6
CONTINUOUS
 62
     7
100
AcDbLine
 10
111.2151953883792
 20
164.9267786503937
 30
0.0
 11
111.2871953883792
 21
164.8011972550448
 31
0.0
  0
LINE
  5
B9
330
1F
100
AcDbEntity
  8
1
  6
CONTINUOUS
 62
     7
100
AcDbLine
 10
111.1521953883792
 20
164.979104231789
 30
0.0
 11
111.2151953883792
 21
164.9267786503937
 31
0.0
  0
LINE
  5
BA
330
1F
100
AcDbEntity
  8
1
  6
CONTINUOUS
 62
     7
100
AcDbLine
 10
111.0891953883792
 20
165.0209646969053
 30
0.0
 11
111.1521953883792
 21
164.979104231789
 31
0.0
  0
LINE
  5
BB
330
1F
100
AcDbEntity
  8
1
  6
CONTINUOUS
 62
     7
100
AcDbLine
 10
110.8371953883792
 20
165.1465460922541
 30
0.0
 11
111.0891953883792
 21
165.0209646969053
 31
0.0
  0
LINE
  5
BC
330
1F
100
AcDbEntity
  8
1
  6
CONTINUOUS
 62
     7
100
AcDbLine
 10
110.6301953883792
 20
165.2616623713239
 30
0.0
 11
110.8371953883792
 21
165.1465460922541
 31
0.0
  0
LINE
  5
BD
330
1F
100
AcDbEntity
  8
1
  6
CONTINUOUS
 62
     7
100
AcDbLine
 10
110.5311953883792
 20
165.3139879527193
 30
0.0
 11
110.6301953883792
 21
165.2616623713239
 31
0.0
  0
LINE
  5
BE
330
1F
100
AcDbEntity
  8
1
  6
CONTINUOUS
 62
     7
100
AcDbLine
 10
110.4681953883792
 20
165.3663135341146
 30
0.0
 11
110.5311953883792
 21
165.3139879527193
 31
0.0
  0
LINE
  5
BF
330
1F
100
AcDbEntity
  8
1
  6
CONTINUOUS
 62
     7
100
AcDbLine
 10
110.4411953883792
 20
165.41863911551
 30
0.0
 11
110.4681953883792
 21
165.3663135341146
 31
0.0
  0
LINE
  5
C0
330
1F
100
AcDbEntity
  8
1
  6
CONTINUOUS
 62
     7
100
AcDbLine
 10
110.4411953883792
 20
165.4918949294635
 30
0.0
 11
110.4411953883792
 21
165.41863911551
 31
0.0
  0
LINE
  5
C1
330
1F
100
AcDbEntity
  8
1
  6
CONTINUOUS
 62
     7
100
AcDbLine
 10
110.4501953883792
 20
165.575615859696
 30
0.0
 11
110.4411953883792
 21
165.4918949294635
 31
0.0
  0
LINE
  5
C2
330
1F
100
AcDbEntity
  8
1
  6
CONTINUOUS
 62
     7
100
AcDbLine
 10
110.4951953883792
 20
165.6593367899286
 30
0.0
 11
110.4501953883792
 21
165.575615859696
 31
0.0
  0
LINE
  5
C3
330
1F
100
AcDbEntity
  8
1
  6
CONTINUOUS
 62
     7
100
AcDbLine
 10
110.5941953883792
 20
165.722127487603
 30
0.0
 11
110.4951953883792
 21
165.6593367899286
 31
0.0
  0
LINE
  5
C4
330
1F
100
AcDbEntity
  8
1
  6
CONTINUOUS
 62
     7
100
AcDbLine
 10
110.7561953883792
 20
165.7430577201611
 30
0.0
 11
110.5941953883792
 21
165.722127487603
 31
0.0
  0
LINE
  5
C5
330
1F
100
AcDbEntity
  8
1
  6
CONTINUOUS
 62
     7
100
AcDbLine
 10
110.8911953883792
 20
165.7116623713239
 30
0.0
 11
110.7561953883792
 21
165.7430577201611
 31
0.0
  0
LINE
  5
C6
330
1F
100
AcDbEntity
  8
1
  6
CONTINUOUS
 62
     7
100
AcDbLine
 10
110.9991953883792
 20
165.6488716736495
 30
0.0
 11
110.8911953883792
 21
165.7116623713239
 31
0.0
  0
LINE
  5
C7
330
1F
100
AcDbEntity
  8
1
  6
CONTINUOUS
 62
     7
100
AcDbLine
 10
111.0531953883792
 20
165.5546856271379
 30
0.0
 11
110.9991953883792
 21
165.6488716736495
 31
0.0
  0
LINE
  5
C8
330
1F
100
AcDbEntity
  8
1
  6
CONTINUOUS
 62
     7
100
AcDbLine
 10
111.0711953883792
 20
165.4500344643472
 30
0.0
 11
111.0531953883792
 21
165.5546856271379
 31
0.0
  0
LINE
  5
C9
330
1F
100
AcDbEntity
  8
1
  6
CONTINUOUS
 62
     7
100
AcDbLine
 10
111.2691953883792
 20
165.4500344643472
 30
0.0
 11
111.0711953883792
 21
165.4500344643472
 31
0.0
  0
LINE
  5
CA
330
1F
100
AcDbEntity
  8
1
  6
CONTINUOUS
 62
     7
100
AcDbLine
 10
111.2331953883792
 20
165.6279414410913
 30
0.0
 11
111.2691953883792
 21
165.4500344643472
 31
0.0
  0
LINE
  5
CB
330
1F
100
AcDbEntity
  8
1
  6
CONTINUOUS
 62
     7
100
AcDbLine
 10
111.1521953883792
 20
165.7849181852774
 30
0.0
 11
111.2331953883792
 21
165.6279414410913
 31
0.0
  0
LINE
  5
CC
330
1F
100
AcDbEntity
  8
1
  6
CONTINUOUS
 62
     7
100
AcDbLine
 10
110.9721953883792
 20
165.9000344643472
 30
0.0
 11
111.1521953883792
 21
165.7849181852774
 31
0.0
  0
LINE
  5
CD
330
1F
100
AcDbEntity
  8
1
  6
CONTINUOUS
 62
     7
100
AcDbLine
 10
110.7381953883792
 20
165.9418949294634
 30
0.0
 11
110.9721953883792
 21
165.9000344643472
 31
0.0
  0
LINE
  5
CE
330
1F
100
AcDbEntity
  8
1
  6
CONTINUOUS
 62
     7
100
AcDbLine
 10
110.5131953883792
 20
165.9000344643472
 30
0.0
 11
110.7381953883792
 21
165.9418949294634
 31
0.0
  0
LINE
  5
CF
330
1F
100
AcDbEntity
  8
1
  6
CONTINUOUS
 62
     7
100
AcDbLine
 10
110.3601953883792
 20
165.8058484178355
 30
0.0
 11
110.5131953883792
 21
165.9000344643472
 31
0.0
  0
LINE
  5
D0
330
1F
100
AcDbEntity
  8
1
  6
CONTINUOUS
 62
     7
100
AcDbLine
 10
110.2611953883792
 20
165.6384065573704
 30
0.0
 11
110.3601953883792
 21
165.8058484178355
 31
0.0
  0
LINE
  5
D1
330
1F
100
AcDbEntity
  8
1
  6
CONTINUOUS
 62
     7
100
AcDbLine
 10
110.2341953883792
 20
165.4604995806262
 30
0.0
 11
110.2611953883792
 21
165.6384065573704
 31
0.0
  0
LINE
  5
D2
330
1F
100
AcDbEntity
  8
1
  6
CONTINUOUS
 62
     7
100
AcDbLine
 10
109.5411953883792
 20
165.6907321387658
 30
0.0
 11
109.5411953883792
 21
165.9209646969053
 31
0.0
  0
LINE
  5
D3
330
1F
100
AcDbEntity
  8
1
  6
CONTINUOUS
 62
     7
100
AcDbLine
 10
109.6401953883792
 20
165.6907321387658
 30
0.0
 11
109.5411953883792
 21
165.6907321387658
 31
0.0
  0
LINE
  5
D4
330
1F
100
AcDbEntity
  8
1
  6
CONTINUOUS
 62
     7
100
AcDbLine
 10
109.6401953883792
 20
164.4035228364402
 30
0.0
 11
109.6401953883792
 21
165.6907321387658
 31
0.0
  0
LINE
  5
D5
330
1F
100
AcDbEntity
  8
1
  6
CONTINUOUS
 62
     7
100
AcDbLine
 10
109.5411953883792
 20
164.4035228364402
 30
0.0
 11
109.6401953883792
 21
164.4035228364402
 31
0.0
  0
LINE
  5
D6
330
1F
100
AcDbEntity
  8
1
  6
CONTINUOUS
 62
     7
100
AcDbLine
 10
109.5411953883792
 20
164.1732902783006
 30
0.0
 11
109.5411953883792
 21
164.4035228364402
 31
0.0
  0
LINE
  5
D7
330
1F
100
AcDbEntity
  8
1
  6
CONTINUOUS
 62
     7
100
AcDbLine
 10
109.9371953883792
 20
164.1732902783006
 30
0.0
 11
109.5411953883792
 21
164.1732902783006
 31
0.0
  0
LINE
  5
D8
330
1F
100
AcDbEntity
  8
1
  6
CONTINUOUS
 62
     7
100
AcDbLine
 10
109.9371953883792
 20
164.4035228364402
 30
0.0
 11
109.9371953883792
 21
164.1732902783006
 31
0.0
  0
LINE
  5
D9
330
1F
100
AcDbEntity
  8
1
  6
CONTINUOUS
 62
     7
100
AcDbLine
 10
109.8471953883792
 20
164.4035228364402
 30
0.0
 11
109.9371953883792
 21
164.4035228364402
 31
0.0
  0
LINE
  5
DA
330
1F
100
AcDbEntity
  8
1
  6
CONTINUOUS
 62
     7
100
AcDbLine
 10
109.8471953883792
 20
165.6907321387658
 30
0.0
 11
109.8471953883792
 21
164.4035228364402
 31
0.0
  0
LINE
  5
DB
330
1F
100
AcDbEntity
  8
1
  6
CONTINUOUS
 62
     7
100
AcDbLine
 10
109.9371953883792
 20
165.6907321387658
 30
0.0
 11
109.8471953883792
 21
165.6907321387658
 31
0.0
  0
LINE
  5
DC
330
1F
100
AcDbEntity
  8
1
  6
CONTINUOUS
 62
     7
100
AcDbLine
 10
109.9371953883792
 20
165.9209646969053
 30
0.0
 11
109.9371953883792
 21
165.6907321387658
 31
0.0
  0
LINE
  5
DD
330
1F
100
AcDbEntity
  8
1
  6
CONTINUOUS
 62
     7
100
AcDbLine
 10
109.5411953883792
 20
165.9209646969053
 30
0.0
 11
109.9371953883792
 21
165.9209646969053
 31
0.0
  0
LINE
  5
DE
330
1F
100
AcDbEntity
  8
1
  6
CONTINUOUS
 62
     7
100
AcDbLine
 10
108.6321953883792
 20
165.7116623713239
 30
0.0
 11
108.3171953883792
 21
165.7116623713239
 31
0.0
  0
LINE
  5
DF
330
1F
100
AcDbEntity
  8
1
  6
CONTINUOUS
 62
     7
100
AcDbLine
 10
108.7761953883792
 20
165.6802670224867
 30
0.0
 11
108.6321953883792
 21
165.7116623713239
 31
0.0
  0
LINE
  5
E0
330
1F
100
AcDbEntity
  8
1
  6
CONTINUOUS
 62
     7
100
AcDbLine
 10
108.9111953883792
 20
165.5860809759751
 30
0.0
 11
108.7761953883792
 21
165.6802670224867
 31
0.0
  0
LINE
  5
E1
330
1F
100
AcDbEntity
  8
1
  6
CONTINUOUS
 62
     7
100
AcDbLine
 10
109.0281953883792
 20
165.3558484178356
 30
0.0
 11
108.9111953883792
 21
165.5860809759751
 31
0.0
  0
LINE
  5
E2
330
1F
100
AcDbEntity
  8
1
  6
CONTINUOUS
 62
     7
100
AcDbLine
 10
109.0731953883792
 20
165.0314298131844
 30
0.0
 11
109.0281953883792
 21
165.3558484178356
 31
0.0
  0
LINE
  5
E3
330
1F
100
AcDbEntity
  8
1
  6
CONTINUOUS
 62
     7
100
AcDbLine
 10
109.0281953883792
 20
164.7174763248123
 30
0.0
 11
109.0731953883792
 21
165.0314298131844
 31
0.0
  0
LINE
  5
E4
330
1F
100
AcDbEntity
  8
1
  6
CONTINUOUS
 62
     7
100
AcDbLine
 10
108.9021953883792
 20
164.4977088829518
 30
0.0
 11
109.0281953883792
 21
164.7174763248123
 31
0.0
  0
LINE
  5
E5
330
1F
100
AcDbEntity
  8
1
  6
CONTINUOUS
 62
     7
100
AcDbLine
 10
108.7761953883792
 20
164.4035228364402
 30
0.0
 11
108.9021953883792
 21
164.4977088829518
 31
0.0
  0
LINE
  5
E6
330
1F
100
AcDbEntity
  8
1
  6
CONTINUOUS
 62
     7
100
AcDbLine
 10
108.6321953883792
 20
164.372127487603
 30
0.0
 11
108.7761953883792
 21
164.4035228364402
 31
0.0
  0
LINE
  5
E7
330
1F
100
AcDbEntity
  8
1
  6
CONTINUOUS
 62
     7
100
AcDbLine
 10
108.3171953883792
 20
164.372127487603
 30
0.0
 11
108.6321953883792
 21
164.372127487603
 31
0.0
  0
LINE
  5
E8
330
1F
100
AcDbEntity
  8
1
  6
CONTINUOUS
 62
     7
100
AcDbLine
 10
108.3171953883792
 20
165.7116623713239
 30
0.0
 11
108.3171953883792
 21
164.372127487603
 31
0.0
  0
LINE
  5
E9
330
1F
100
AcDbEntity
  8
1
  6
CONTINUOUS
 62
     7
100
AcDbLine
 10
108.1101953883792
 20
164.1628251620216
 30
0.0
 11
108.1101953883792
 21
165.9209646969053
 31
0.0
  0
LINE
  5
EA
330
1F
100
AcDbEntity
  8
1
  6
CONTINUOUS
 62
     7
100
AcDbLine
 10
108.6411953883792
 20
164.1628251620216
 30
0.0
 11
108.1101953883792
 21
164.1628251620216
 31
0.0
  0
LINE
  5
EB
330
1F
100
AcDbEntity
  8
1
  6
CONTINUOUS
 62
     7
100
AcDbLine
 10
108.8841953883792
 20
164.2151507434169
 30
0.0
 11
108.6411953883792
 21
164.1628251620216
 31
0.0
  0
LINE
  5
EC
330
1F
100
AcDbEntity
  8
1
  6
CONTINUOUS
 62
     7
100
AcDbLine
 10
109.0821953883792
 20
164.372127487603
 30
0.0
 11
108.8841953883792
 21
164.2151507434169
 31
0.0
  0
LINE
  5
ED
330
1F
100
AcDbEntity
  8
1
  6
CONTINUOUS
 62
     7
100
AcDbLine
 10
109.2261953883792
 20
164.6442205108588
 30
0.0
 11
109.0821953883792
 21
164.372127487603
 31
0.0
  0
LINE
  5
EE
330
1F
100
AcDbEntity
  8
1
  6
CONTINUOUS
 62
     7
100
AcDbLine
 10
109.2801953883792
 20
165.0314298131844
 30
0.0
 11
109.2261953883792
 21
164.6442205108588
 31
0.0
  0
LINE
  5
EF
330
1F
100
AcDbEntity
  8
1
  6
CONTINUOUS
 62
     7
100
AcDbLine
 10
109.2261953883792
 20
165.41863911551
 30
0.0
 11
109.2801953883792
 21
165.0314298131844
 31
0.0
  0
LINE
  5
F0
330
1F
100
AcDbEntity
  8
1
  6
CONTINUOUS
 62
     7
100
AcDbLine
 10
109.0911953883792
 20
165.7116623713239
 30
0.0
 11
109.2261953883792
 21
165.41863911551
 31
0.0
  0
LINE
  5
F1
330
1F
100
AcDbEntity
  8
1
  6
CONTINUOUS
 62
     7
100
AcDbLine
 10
108.8841953883792
 20
165.86863911551
 30
0.0
 11
109.0911953883792
 21
165.7116623713239
 31
0.0
  0
LINE
  5
F2
330
1F
100
AcDbEntity
  8
1
  6
CONTINUOUS
 62
     7
100
AcDbLine
 10
108.6411953883792
 20
165.9209646969053
 30
0.0
 11
108.8841953883792
 21
165.86863911551
 31
0.0
  0
LINE
  5
F3
330
1F
100
AcDbEntity
  8
1
  6
CONTINUOUS
 62
     7
100
AcDbLine
 10
108.1101953883792
 20
165.9209646969053
 30
0.0
 11
108.6411953883792
 21
165.9209646969053
 31
0.0
  0
LINE
  5
F4
330
1F
100
AcDbEntity
  8
1
  6
CONTINUOUS
 62
     7
100
AcDbLine
 10
122.9543987845701
 20
206.9468809543942
 30
0.0
 11
122.8787987845701
 21
207.48897397765
 31
0.0
  0
LINE
  5
F5
330
1F
100
AcDbEntity
  8
1
  6
CONTINUOUS
 62
     7
100
AcDbLine
 10
123.1937987845701
 20
206.5366483962546
 30
0.0
 11
122.9543987845701
 21
206.9468809543942
 31
0.0
  0
LINE
  5
F6
330
1F
100
AcDbEntity
  8
1
  6
CONTINUOUS
 62
     7
100
AcDbLine
 10
123.4709987845701
 20
206.3168809543942
 30
0.0
 11
123.1937987845701
 21
206.5366483962546
 31
0.0
  0
LINE
  5
F7
330
1F
100
AcDbEntity
  8
1
  6
CONTINUOUS
 62
     7
100
AcDbLine
 10
123.8237987845701
 20
206.2436251404407
 30
0.0
 11
123.4709987845701
 21
206.3168809543942
 31
0.0
  0
LINE
  5
F8
330
1F
100
AcDbEntity
  8
1
  6
CONTINUOUS
 62
     7
100
AcDbLine
 10
124.1135987845701
 20
206.3022297916035
 30
0.0
 11
123.8237987845701
 21
206.2436251404407
 31
0.0
  0
LINE
  5
F9
330
1F
100
AcDbEntity
  8
1
  6
CONTINUOUS
 62
     7
100
AcDbLine
 10
124.3529987845701
 20
206.4926949078825
 30
0.0
 11
124.1135987845701
 21
206.3022297916035
 31
0.0
  0
LINE
  5
FA
330
1F
100
AcDbEntity
  8
1
  6
CONTINUOUS
 62
     7
100
AcDbLine
 10
124.4285987845701
 20
206.2436251404407
 30
0.0
 11
124.3529987845701
 21
206.4926949078825
 31
0.0
  0
LINE
  5
FB
330
1F
100
AcDbEntity
  8
1
  6
CONTINUOUS
 62
     7
100
AcDbLine
 10
124.6427987845701
 20
206.2436251404407
 30
0.0
 11
124.4285987845701
 21
206.2436251404407
 31
0.0
  0
LINE
  5
FC
330
1F
100
AcDbEntity
  8
1
  6
CONTINUOUS
 62
     7
100
AcDbLine
 10
124.6427987845701
 20
207.5036251404407
 30
0.0
 11
124.6427987845701
 21
206.2436251404407
 31
0.0
  0
LINE
  5
FD
330
1F
100
AcDbEntity
  8
1
  6
CONTINUOUS
 62
     7
100
AcDbLine
 10
124.0001987845701
 20
207.5036251404407
 30
0.0
 11
124.6427987845701
 21
207.5036251404407
 31
0.0
  0
LINE
  5
FE
330
1F
100
AcDbEntity
  8
1
  6
CONTINUOUS
 62
     7
100
AcDbLine
 10
124.0001987845701
 20
207.2106018846267
 30
0.0
 11
124.0001987845701
 21
207.5036251404407
 31
0.0
  0
LINE
  5
FF
330
1F
100
AcDbEntity
  8
1
  6
CONTINUOUS
 62
     7
100
AcDbLine
 10
124.3529987845701
 20
207.2106018846267
 30
0.0
 11
124.0001987845701
 21
207.2106018846267
 31
0.0
  0
LINE
  5
100
330
1F
100
AcDbEntity
  8
1
  6
CONTINUOUS
 62
     7
100
AcDbLine
 10
124.3529987845701
 20
207.005485605557
 30
0.0
 11
124.3529987845701
 21
207.2106018846267
 31
0.0
  0
LINE
  5
101
330
1F
100
AcDbEntity
  8
1
  6
CONTINUOUS
 62
     7
100
AcDbLine
 10
124.3025987845701
 20
206.8443228148593
 30
0.0
 11
124.3529987845701
 21
207.005485605557
 31
0.0
  0
LINE
  5
102
330
1F
100
AcDbEntity
  8
1
  6
CONTINUOUS
 62
     7
100
AcDbLine
 10
124.2017987845701
 20
206.6831600241616
 30
0.0
 11
124.3025987845701
 21
206.8443228148593
 31
0.0
  0
LINE
  5
103
330
1F
100
AcDbEntity
  8
1
  6
CONTINUOUS
 62
     7
100
AcDbLine
 10
124.0379987845701
 20
206.5512995590453
 30
0.0
 11
124.2017987845701
 21
206.6831600241616
 31
0.0
  0
LINE
  5
104
330
1F
100
AcDbEntity
  8
1
  6
CONTINUOUS
 62
     7
100
AcDbLine
 10
123.8489987845701
 20
206.5219972334639
 30
0.0
 11
124.0379987845701
 21
206.5512995590453
 31
0.0
  0
LINE
  5
105
330
1F
100
AcDbEntity
  8
1
  6
CONTINUOUS
 62
     7
100
AcDbLine
 10
123.5969987845701
 20
206.565950721836
 30
0.0
 11
123.8489987845701
 21
206.5219972334639
 31
0.0
  0
LINE
  5
106
330
1F
100
AcDbEntity
  8
1
  6
CONTINUOUS
 62
     7
100
AcDbLine
 10
123.4079987845701
 20
206.712462349743
 30
0.0
 11
123.5969987845701
 21
206.565950721836
 31
0.0
  0
LINE
  5
107
330
1F
100
AcDbEntity
  8
1
  6
CONTINUOUS
 62
     7
100
AcDbLine
 10
123.2315987845701
 20
207.0347879311384
 30
0.0
 11
123.4079987845701
 21
206.712462349743
 31
0.0
  0
LINE
  5
108
330
1F
100
AcDbEntity
  8
1
  6
CONTINUOUS
 62
     7
100
AcDbLine
 10
123.1811987845701
 20
207.48897397765
 30
0.0
 11
123.2315987845701
 21
207.0347879311384
 31
0.0
  0
LINE
  5
109
330
1F
100
AcDbEntity
  8
1
  6
CONTINUOUS
 62
     7
100
AcDbLine
 10
123.2315987845701
 20
207.9578111869523
 30
0.0
 11
123.1811987845701
 21
207.48897397765
 31
0.0
  0
LINE
  5
10A
330
1F
100
AcDbEntity
  8
1
  6
CONTINUOUS
 62
     7
100
AcDbLine
 10
123.3953987845701
 20
208.2947879311384
 30
0.0
 11
123.2315987845701
 21
207.9578111869523
 31
0.0
  0
LINE
  5
10B
330
1F
100
AcDbEntity
  8
1
  6
CONTINUOUS
 62
     7
100
AcDbLine
 10
123.5717987845701
 20
208.4266483962547
 30
0.0
 11
123.3953987845701
 21
208.2947879311384
 31
0.0
  0
LINE
  5
10C
330
1F
100
AcDbEntity
  8
1
  6
CONTINUOUS
 62
     7
100
AcDbLine
 10
123.7859987845701
 20
208.4852530474174
 30
0.0
 11
123.5717987845701
 21
208.4266483962547
 31
0.0
  0
LINE
  5
10D
330
1F
100
AcDbEntity
  8
1
  6
CONTINUOUS
 62
     7
100
AcDbLine
 10
124.0001987845701
 20
208.4412995590454
 30
0.0
 11
123.7859987845701
 21
208.4852530474174
 31
0.0
  0
LINE
  5
10E
330
1F
100
AcDbEntity
  8
1
  6
CONTINUOUS
 62
     7
100
AcDbLine
 10
124.1639987845701
 20
208.3240902567198
 30
0.0
 11
124.0001987845701
 21
208.4412995590454
 31
0.0
  0
LINE
  5
10F
330
1F
100
AcDbEntity
  8
1
  6
CONTINUOUS
 62
     7
100
AcDbLine
 10
124.2521987845701
 20
208.1336251404407
 30
0.0
 11
124.1639987845701
 21
208.3240902567198
 31
0.0
  0
LINE
  5
110
330
1F
100
AcDbEntity
  8
1
  6
CONTINUOUS
 62
     7
100
AcDbLine
 10
124.3025987845701
 20
207.9285088613709
 30
0.0
 11
124.2521987845701
 21
208.1336251404407
 31
0.0
  0
LINE
  5
111
330
1F
100
AcDbEntity
  8
1
  6
CONTINUOUS
 62
     7
100
AcDbLine
 10
124.6049987845701
 20
207.9285088613709
 30
0.0
 11
124.3025987845701
 21
207.9285088613709
 31
0.0
  0
LINE
  5
112
330
1F
100
AcDbEntity
  8
1
  6
CONTINUOUS
 62
     7
100
AcDbLine
 10
124.5419987845701
 20
208.2215321171849
 30
0.0
 11
124.6049987845701
 21
207.9285088613709
 31
0.0
  0
LINE
  5
113
330
1F
100
AcDbEntity
  8
1
  6
CONTINUOUS
 62
     7
100
AcDbLine
 10
124.3907987845701
 20
208.4852530474174
 30
0.0
 11
124.5419987845701
 21
208.2215321171849
 31
0.0
  0
LINE
  5
114
330
1F
100
AcDbEntity
  8
1
  6
CONTINUOUS
 62
     7
100
AcDbLine
 10
124.1261987845701
 20
208.6757181636965
 30
0.0
 11
124.3907987845701
 21
208.4852530474174
 31
0.0
  0
LINE
  5
115
330
1F
100
AcDbEntity
  8
1
  6
CONTINUOUS
 62
     7
100
AcDbLine
 10
123.7859987845701
 20
208.74897397765
 30
0.0
 11
124.1261987845701
 21
208.6757181636965
 31
0.0
  0
LINE
  5
116
330
1F
100
AcDbEntity
  8
1
  6
CONTINUOUS
 62
     7
100
AcDbLine
 10
123.4457987845701
 20
208.6757181636965
 30
0.0
 11
123.7859987845701
 21
208.74897397765
 31
0.0
  0
LINE
  5
117
330
1F
100
AcDbEntity
  8
1
  6
CONTINUOUS
 62
     7
100
AcDbLine
 10
123.1685987845701
 20
208.4559507218361
 30
0.0
 11
123.4457987845701
 21
208.6757181636965
 31
0.0
  0
LINE
  5
118
330
1F
100
AcDbEntity
  8
1
  6
CONTINUOUS
 62
     7
100
AcDbLine
 10
122.9417987845701
 20
208.0457181636965
 30
0.0
 11
123.1685987845701
 21
208.4559507218361
 31
0.0
  0
LINE
  5
119
330
1F
100
AcDbEntity
  8
1
  6
CONTINUOUS
 62
     7
100
AcDbLine
 10
122.8787987845701
 20
207.48897397765
 30
0.0
 11
122.9417987845701
 21
208.0457181636965
 31
0.0
  0
LINE
  5
11A
330
1F
100
AcDbEntity
  8
1
  6
CONTINUOUS
 62
     7
100
AcDbLine
 10
120.9887987845701
 20
207.8845553729988
 30
0.0
 11
120.9635987845701
 21
208.0750204892779
 31
0.0
  0
LINE
  5
11B
330
1F
100
AcDbEntity
  8
1
  6
CONTINUOUS
 62
     7
100
AcDbLine
 10
121.0769987845701
 20
207.7380437450919
 30
0.0
 11
120.9887987845701
 21
207.8845553729988
 31
0.0
  0
LINE
  5
11C
330
1F
100
AcDbEntity
  8
1
  6
CONTINUOUS
 62
     7
100
AcDbLine
 10
121.1525987845701
 20
207.6501367683477
 30
0.0
 11
121.0769987845701
 21
207.7380437450919
 31
0.0
  0
LINE
  5
11D
330
1F
100
AcDbEntity
  8
1
  6
CONTINUOUS
 62
     7
100
AcDbLine
 10
121.2533987845701
 20
207.6061832799756
 30
0.0
 11
121.1525987845701
 21
207.6501367683477
 31
0.0
  0
LINE
  5
11E
330
1F
100
AcDbEntity
  8
1
  6
CONTINUOUS
 62
     7
100
AcDbLine
 10
121.4045987845701
 20
207.5182763032314
 30
0.0
 11
121.2533987845701
 21
207.6061832799756
 31
0.0
  0
LINE
  5
11F
330
1F
100
AcDbEntity
  8
1
  6
CONTINUOUS
 62
     7
100
AcDbLine
 10
121.6061987845701
 20
207.4303693264872
 30
0.0
 11
121.4045987845701
 21
207.5182763032314
 31
0.0
  0
LINE
  5
120
330
1F
100
AcDbEntity
  8
1
  6
CONTINUOUS
 62
     7
100
AcDbLine
 10
121.7699987845701
 20
207.3278111869523
 30
0.0
 11
121.6061987845701
 21
207.4303693264872
 31
0.0
  0
LINE
  5
121
330
1F
100
AcDbEntity
  8
1
  6
CONTINUOUS
 62
     7
100
AcDbLine
 10
121.9211987845701
 20
207.2545553729988
 30
0.0
 11
121.7699987845701
 21
207.3278111869523
 31
0.0
  0
LINE
  5
122
330
1F
100
AcDbEntity
  8
1
  6
CONTINUOUS
 62
     7
100
AcDbLine
 10
122.0345987845701
 20
207.1812995590453
 30
0.0
 11
121.9211987845701
 21
207.2545553729988
 31
0.0
  0
LINE
  5
123
330
1F
100
AcDbEntity
  8
1
  6
CONTINUOUS
 62
     7
100
AcDbLine
 10
122.1227987845701
 20
207.1080437450918
 30
0.0
 11
122.0345987845701
 21
207.1812995590453
 31
0.0
  0
LINE
  5
124
330
1F
100
AcDbEntity
  8
1
  6
CONTINUOUS
 62
     7
100
AcDbLine
 10
122.1731987845701
 20
207.005485605557
 30
0.0
 11
122.1227987845701
 21
207.1080437450918
 31
0.0
  0
LINE
  5
125
330
1F
100
AcDbEntity
  8
1
  6
CONTINUOUS
 62
     7
100
AcDbLine
 10
122.1983987845701
 20
206.8882763032314
 30
0.0
 11
122.1731987845701
 21
207.005485605557
 31
0.0
  0
LINE
  5
126
330
1F
100
AcDbEntity
  8
1
  6
CONTINUOUS
 62
     7
100
AcDbLine
 10
122.1731987845701
 20
206.7710670009058
 30
0.0
 11
122.1983987845701
 21
206.8882763032314
 31
0.0
  0
LINE
  5
127
330
1F
100
AcDbEntity
  8
1
  6
CONTINUOUS
 62
     7
100
AcDbLine
 10
122.0975987845701
 20
206.6685088613709
 30
0.0
 11
122.1731987845701
 21
206.7710670009058
 31
0.0
  0
LINE
  5
128
330
1F
100
AcDbEntity
  8
1
  6
CONTINUOUS
 62
     7
100
AcDbLine
 10
121.9337987845701
 20
206.5512995590453
 30
0.0
 11
122.0975987845701
 21
206.6685088613709
 31
0.0
  0
LINE
  5
129
330
1F
100
AcDbEntity
  8
1
  6
CONTINUOUS
 62
     7
100
AcDbLine
 10
121.7195987845701
 20
206.5219972334639
 30
0.0
 11
121.9337987845701
 21
206.5512995590453
 31
0.0
  0
LINE
  5
12A
330
1F
100
AcDbEntity
  8
1
  6
CONTINUOUS
 62
     7
100
AcDbLine
 10
121.4675987845701
 20
206.5512995590453
 30
0.0
 11
121.7195987845701
 21
206.5219972334639
 31
0.0
  0
LINE
  5
12B
330
1F
100
AcDbEntity
  8
1
  6
CONTINUOUS
 62
     7
100
AcDbLine
 10
121.2911987845701
 20
206.6831600241616
 30
0.0
 11
121.4675987845701
 21
206.5512995590453
 31
0.0
  0
LINE
  5
12C
330
1F
100
AcDbEntity
  8
1
  6
CONTINUOUS
 62
     7
100
AcDbLine
 10
121.2155987845701
 20
206.8296716520686
 30
0.0
 11
121.2911987845701
 21
206.6831600241616
 31
0.0
  0
LINE
  5
12D
330
1F
100
AcDbEntity
  8
1
  6
CONTINUOUS
 62
     7
100
AcDbLine
 10
121.2029987845701
 20
207.0494390939291
 30
0.0
 11
121.2155987845701
 21
206.8296716520686
 31
0.0
  0
LINE
  5
12E
330
1F
100
AcDbEntity
  8
1
  6
CONTINUOUS
 62
     7
100
AcDbLine
 10
120.9131987845701
 20
207.0494390939291
 30
0.0
 11
121.2029987845701
 21
207.0494390939291
 31
0.0
  0
LINE
  5
12F
330
1F
100
AcDbEntity
  8
1
  6
CONTINUOUS
 62
     7
100
AcDbLine
 10
120.9509987845701
 20
206.7271135125337
 30
0.0
 11
120.9131987845701
 21
207.0494390939291
 31
0.0
  0
LINE
  5
130
330
1F
100
AcDbEntity
  8
1
  6
CONTINUOUS
 62
     7
100
AcDbLine
 10
121.0769987845701
 20
206.5073460706732
 30
0.0
 11
120.9509987845701
 21
206.7271135125337
 31
0.0
  0
LINE
  5
131
330
1F
100
AcDbEntity
  8
1
  6
CONTINUOUS
 62
     7
100
AcDbLine
 10
121.3415987845701
 20
206.3022297916035
 30
0.0
 11
121.0769987845701
 21
206.5073460706732
 31
0.0
  0
LINE
  5
132
330
1F
100
AcDbEntity
  8
1
  6
CONTINUOUS
 62
     7
100
AcDbLine
 10
121.7069987845701
 20
206.2436251404407
 30
0.0
 11
121.3415987845701
 21
206.3022297916035
 31
0.0
  0
LINE
  5
133
330
1F
100
AcDbEntity
  8
1
  6
CONTINUOUS
 62
     7
100
AcDbLine
 10
122.0597987845701
 20
206.2875786288128
 30
0.0
 11
121.7069987845701
 21
206.2436251404407
 31
0.0
  0
LINE
  5
134
330
1F
100
AcDbEntity
  8
1
  6
CONTINUOUS
 62
     7
100
AcDbLine
 10
122.3117987845701
 20
206.4633925823011
 30
0.0
 11
122.0597987845701
 21
206.2875786288128
 31
0.0
  0
LINE
  5
135
330
1F
100
AcDbEntity
  8
1
  6
CONTINUOUS
 62
     7
100
AcDbLine
 10
122.4251987845701
 20
206.6831600241616
 30
0.0
 11
122.3117987845701
 21
206.4633925823011
 31
0.0
  0
LINE
  5
136
330
1F
100
AcDbEntity
  8
1
  6
CONTINUOUS
 62
     7
100
AcDbLine
 10
122.4755987845701
 20
206.9468809543942
 30
0.0
 11
122.4251987845701
 21
206.6831600241616
 31
0.0
  0
LINE
  5
137
330
1F
100
AcDbEntity
  8
1
  6
CONTINUOUS
 62
     7
100
AcDbLine
 10
122.4377987845701
 20
207.1519972334639
 30
0.0
 11
122.4755987845701
 21
206.9468809543942
 31
0.0
  0
LINE
  5
138
330
1F
100
AcDbEntity
  8
1
  6
CONTINUOUS
 62
     7
100
AcDbLine
 10
122.3369987845701
 20
207.3278111869523
 30
0.0
 11
122.4377987845701
 21
207.1519972334639
 31
0.0
  0
LINE
  5
139
330
1F
100
AcDbEntity
  8
1
  6
CONTINUOUS
 62
     7
100
AcDbLine
 10
122.2487987845701
 20
207.4010670009058
 30
0.0
 11
122.3369987845701
 21
207.3278111869523
 31
0.0
  0
LINE
  5
13A
330
1F
100
AcDbEntity
  8
1
  6
CONTINUOUS
 62
     7
100
AcDbLine
 10
122.1605987845701
 20
207.4596716520686
 30
0.0
 11
122.2487987845701
 21
207.4010670009058
 31
0.0
  0
LINE
  5
13B
330
1F
100
AcDbEntity
  8
1
  6
CONTINUOUS
 62
     7
100
AcDbLine
 10
121.8077987845701
 20
207.635485605557
 30
0.0
 11
122.1605987845701
 21
207.4596716520686
 31
0.0
  0
LINE
  5
13C
330
1F
100
AcDbEntity
  8
1
  6
CONTINUOUS
 62
     7
100
AcDbLine
 10
121.5179987845701
 20
207.7966483962546
 30
0.0
 11
121.8077987845701
 21
207.635485605557
 31
0.0
  0
LINE
  5
13D
330
1F
100
AcDbEntity
  8
1
  6
CONTINUOUS
 62
     7
100
AcDbLine
 10
121.3793987845701
 20
207.8699042102081
 30
0.0
 11
121.5179987845701
 21
207.7966483962546
 31
0.0
  0
LINE
  5
13E
330
1F
100
AcDbEntity
  8
1
  6
CONTINUOUS
 62
     7
100
AcDbLine
 10
121.2911987845701
 20
207.9431600241616
 30
0.0
 11
121.3793987845701
 21
207.8699042102081
 31
0.0
  0
LINE
  5
13F
330
1F
100
AcDbEntity
  8
1
  6
CONTINUOUS
 62
     7
100
AcDbLine
 10
121.2533987845701
 20
208.0164158381151
 30
0.0
 11
121.2911987845701
 21
207.9431600241616
 31
0.0
  0
LINE
  5
140
330
1F
100
AcDbEntity
  8
1
  6
CONTINUOUS
 62
     7
100
AcDbLine
 10
121.2533987845701
 20
208.11897397765
 30
0.0
 11
121.2533987845701
 21
208.0164158381151
 31
0.0
  0
LINE
  5
141
330
1F
100
AcDbEntity
  8
1
  6
CONTINUOUS
 62
     7
100
AcDbLine
 10
121.2659987845701
 20
208.2361832799756
 30
0.0
 11
121.2533987845701
 21
208.11897397765
 31
0.0
  0
LINE
  5
142
330
1F
100
AcDbEntity
  8
1
  6
CONTINUOUS
 62
     7
100
AcDbLine
 10
121.3289987845701
 20
208.3533925823012
 30
0.0
 11
121.2659987845701
 21
208.2361832799756
 31
0.0
  0
LINE
  5
143
330
1F
100
AcDbEntity
  8
1
  6
CONTINUOUS
 62
     7
100
AcDbLine
 10
121.4675987845701
 20
208.4412995590454
 30
0.0
 11
121.3289987845701
 21
208.3533925823012
 31
0.0
  0
LINE
  5
144
330
1F
100
AcDbEntity
  8
1
  6
CONTINUOUS
 62
     7
100
AcDbLine
 10
121.6943987845701
 20
208.4706018846267
 30
0.0
 11
121.4675987845701
 21
208.4412995590454
 31
0.0
  0
LINE
  5
145
330
1F
100
AcDbEntity
  8
1
  6
CONTINUOUS
 62
     7
100
AcDbLine
 10
121.8833987845701
 20
208.4266483962547
 30
0.0
 11
121.6943987845701
 21
208.4706018846267
 31
0.0
  0
LINE
  5
146
330
1F
100
AcDbEntity
  8
1
  6
CONTINUOUS
 62
     7
100
AcDbLine
 10
122.0345987845701
 20
208.3387414195105
 30
0.0
 11
121.8833987845701
 21
208.4266483962547
 31
0.0
  0
LINE
  5
147
330
1F
100
AcDbEntity
  8
1
  6
CONTINUOUS
 62
     7
100
AcDbLine
 10
122.1101987845701
 20
208.2068809543942
 30
0.0
 11
122.0345987845701
 21
208.3387414195105
 31
0.0
  0
LINE
  5
148
330
1F
100
AcDbEntity
  8
1
  6
CONTINUOUS
 62
     7
100
AcDbLine
 10
122.1353987845701
 20
208.0603693264872
 30
0.0
 11
122.1101987845701
 21
208.2068809543942
 31
0.0
  0
LINE
  5
149
330
1F
100
AcDbEntity
  8
1
  6
CONTINUOUS
 62
     7
100
AcDbLine
 10
122.4125987845701
 20
208.0603693264872
 30
0.0
 11
122.1353987845701
 21
208.0603693264872
 31
0.0
  0
LINE
  5
14A
330
1F
100
AcDbEntity
  8
1
  6
CONTINUOUS
 62
     7
100
AcDbLine
 10
122.3621987845701
 20
208.3094390939291
 30
0.0
 11
122.4125987845701
 21
208.0603693264872
 31
0.0
  0
LINE
  5
14B
330
1F
100
AcDbEntity
  8
1
  6
CONTINUOUS
 62
     7
100
AcDbLine
 10
122.2487987845701
 20
208.5292065357895
 30
0.0
 11
122.3621987845701
 21
208.3094390939291
 31
0.0
  0
LINE
  5
14C
330
1F
100
AcDbEntity
  8
1
  6
CONTINUOUS
 62
     7
100
AcDbLine
 10
121.9967987845701
 20
208.6903693264872
 30
0.0
 11
122.2487987845701
 21
208.5292065357895
 31
0.0
  0
LINE
  5
14D
330
1F
100
AcDbEntity
  8
1
  6
CONTINUOUS
 62
     7
100
AcDbLine
 10
121.6691987845701
 20
208.74897397765
 30
0.0
 11
121.9967987845701
 21
208.6903693264872
 31
0.0
  0
LINE
  5
14E
330
1F
100
AcDbEntity
  8
1
  6
CONTINUOUS
 62
     7
100
AcDbLine
 10
121.3541987845701
 20
208.6903693264872
 30
0.0
 11
121.6691987845701
 21
208.74897397765
 31
0.0
  0
LINE
  5
14F
330
1F
100
AcDbEntity
  8
1
  6
CONTINUOUS
 62
     7
100
AcDbLine
 10
121.1399987845701
 20
208.5585088613709
 30
0.0
 11
121.3541987845701
 21
208.6903693264872
 31
0.0
  0
LINE
  5
150
330
1F
100
AcDbEntity
  8
1
  6
CONTINUOUS
 62
     7
100
AcDbLine
 10
121.0013987845701
 20
208.3240902567198
 30
0.0
 11
121.1399987845701
 21
208.5585088613709
 31
0.0
  0
LINE
  5
151
330
1F
100
AcDbEntity
  8
1
  6
CONTINUOUS
 62
     7
100
AcDbLine
 10
120.9635987845701
 20
208.0750204892779
 30
0.0
 11
121.0013987845701
 21
208.3240902567198
 31
0.0
  0
LINE
  5
152
330
1F
100
AcDbEntity
  8
1
  6
CONTINUOUS
 62
     7
100
AcDbLine
 10
123.2793524555302
 20
138.663785515495
 30
0.0
 11
123.2793524555302
 21
138.8730878410764
 31
0.0
  0
LINE
  5
153
330
1F
100
AcDbEntity
  8
1
  6
CONTINUOUS
 62
     7
100
AcDbLine
 10
123.6753524555302
 20
138.663785515495
 30
0.0
 11
123.2793524555302
 21
138.663785515495
 31
0.0
  0
LINE
  5
154
330
1F
100
AcDbEntity
  8
1
  6
CONTINUOUS
 62
     7
100
AcDbLine
 10
123.6753524555302
 20
137.1254134224717
 30
0.0
 11
123.6753524555302
 21
138.663785515495
 31
0.0
  0
LINE
  5
155
330
1F
100
AcDbEntity
  8
1
  6
CONTINUOUS
 62
     7
100
AcDbLine
 10
123.8409524555302
 20
137.1254134224717
 30
0.0
 11
123.6753524555302
 21
137.1254134224717
 31
0.0
  0
LINE
  5
156
330
1F
100
AcDbEntity
  8
1
  6
CONTINUOUS
 62
     7
100
AcDbLine
 10
123.8409524555302
 20
138.663785515495
 30
0.0
 11
123.8409524555302
 21
137.1254134224717
 31
0.0
  0
LINE
  5
157
330
1F
100
AcDbEntity
  8
1
  6
CONTINUOUS
 62
     7
100
AcDbLine
 10
124.2441524555302
 20
138.663785515495
 30
0.0
 11
123.8409524555302
 21
138.663785515495
 31
0.0
  0
LINE
  5
158
330
1F
100
AcDbEntity
  8
1
  6
CONTINUOUS
 62
     7
100
AcDbLine
 10
124.2441524555302
 20
138.8730878410764
 30
0.0
 11
124.2441524555302
 21
138.663785515495
 31
0.0
  0
LINE
  5
159
330
1F
100
AcDbEntity
  8
1
  6
CONTINUOUS
 62
     7
100
AcDbLine
 10
123.2793524555302
 20
138.8730878410764
 30
0.0
 11
124.2441524555302
 21
138.8730878410764
 31
0.0
  0
LINE
  5
15A
330
1F
100
AcDbEntity
  8
1
  6
CONTINUOUS
 62
     7
100
AcDbLine
 10
122.1705524555302
 20
137.6382041201461
 30
0.0
 11
122.1705524555302
 21
138.8730878410764
 31
0.0
  0
LINE
  5
15B
330
1F
100
AcDbEntity
  8
1
  6
CONTINUOUS
 62
     7
100
AcDbLine
 10
122.1921524555302
 20
137.4289017945647
 30
0.0
 11
122.1705524555302
 21
137.6382041201461
 31
0.0
  0
LINE
  5
15C
330
1F
100
AcDbEntity
  8
1
  6
CONTINUOUS
 62
     7
100
AcDbLine
 10
122.2713524555302
 20
137.2719250503787
 30
0.0
 11
122.1921524555302
 21
137.4289017945647
 31
0.0
  0
LINE
  5
15D
330
1F
100
AcDbEntity
  8
1
  6
CONTINUOUS
 62
     7
100
AcDbLine
 10
122.4081524555302
 20
137.1463436550299
 30
0.0
 11
122.2713524555302
 21
137.2719250503787
 31
0.0
  0
LINE
  5
15E
330
1F
100
AcDbEntity
  8
1
  6
CONTINUOUS
 62
     7
100
AcDbLine
 10
122.6241524555302
 20
137.1044831899136
 30
0.0
 11
122.4081524555302
 21
137.1463436550299
 31
0.0
  0
LINE
  5
15F
330
1F
100
AcDbEntity
  8
1
  6
CONTINUOUS
 62
     7
100
AcDbLine
 10
122.8257524555302
 20
137.1463436550299
 30
0.0
 11
122.6241524555302
 21
137.1044831899136
 31
0.0
  0
LINE
  5
160
330
1F
100
AcDbEntity
  8
1
  6
CONTINUOUS
 62
     7
100
AcDbLine
 10
122.9697524555302
 20
137.2719250503787
 30
0.0
 11
122.8257524555302
 21
137.1463436550299
 31
0.0
  0
LINE
  5
161
330
1F
100
AcDbEntity
  8
1
  6
CONTINUOUS
 62
     7
100
AcDbLine
 10
123.0417524555302
 20
137.4289017945647
 30
0.0
 11
122.9697524555302
 21
137.2719250503787
 31
0.0
  0
LINE
  5
162
330
1F
100
AcDbEntity
  8
1
  6
CONTINUOUS
 62
     7
100
AcDbLine
 10
123.0705524555302
 20
137.6382041201461
 30
0.0
 11
123.0417524555302
 21
137.4289017945647
 31
0.0
  0
LINE
  5
163
330
1F
100
AcDbEntity
  8
1
  6
CONTINUOUS
 62
     7
100
AcDbLine
 10
123.0705524555302
 20
138.8730878410764
 30
0.0
 11
123.0705524555302
 21
137.6382041201461
 31
0.0
  0
LINE
  5
164
330
1F
100
AcDbEntity
  8
1
  6
CONTINUOUS
 62
     7
100
AcDbLine
 10
122.9049524555302
 20
138.8730878410764
 30
0.0
 11
123.0705524555302
 21
138.8730878410764
 31
0.0
  0
LINE
  5
165
330
1F
100
AcDbEntity
  8
1
  6
CONTINUOUS
 62
     7
100
AcDbLine
 10
122.9049524555302
 20
137.6486692364252
 30
0.0
 11
122.9049524555302
 21
138.8730878410764
 31
0.0
  0
LINE
  5
166
330
1F
100
AcDbEntity
  8
1
  6
CONTINUOUS
 62
     7
100
AcDbLine
 10
122.8905524555302
 20
137.5230878410764
 30
0.0
 11
122.9049524555302
 21
137.6486692364252
 31
0.0
  0
LINE
  5
167
330
1F
100
AcDbEntity
  8
1
  6
CONTINUOUS
 62
     7
100
AcDbLine
 10
122.8473524555302
 20
137.4184366782857
 30
0.0
 11
122.8905524555302
 21
137.5230878410764
 31
0.0
  0
LINE
  5
168
330
1F
100
AcDbEntity
  8
1
  6
CONTINUOUS
 62
     7
100
AcDbLine
 10
122.7465524555302
 20
137.324250631774
 30
0.0
 11
122.8473524555302
 21
137.4184366782857
 31
0.0
  0
LINE
  5
169
330
1F
100
AcDbEntity
  8
1
  6
CONTINUOUS
 62
     7
100
AcDbLine
 10
122.6241524555302
 20
137.3033203992159
 30
0.0
 11
122.7465524555302
 21
137.324250631774
 31
0.0
  0
LINE
  5
16A
330
1F
100
AcDbEntity
  8
1
  6
CONTINUOUS
 62
     7
100
AcDbLine
 10
122.4873524555302
 20
137.324250631774
 30
0.0
 11
122.6241524555302
 21
137.3033203992159
 31
0.0
  0
LINE
  5
16B
330
1F
100
AcDbEntity
  8
1
  6
CONTINUOUS
 62
     7
100
AcDbLine
 10
122.3937524555302
 20
137.4184366782857
 30
0.0
 11
122.4873524555302
 21
137.324250631774
 31
0.0
  0
LINE
  5
16C
330
1F
100
AcDbEntity
  8
1
  6
CONTINUOUS
 62
     7
100
AcDbLine
 10
122.3505524555302
 20
137.5230878410764
 30
0.0
 11
122.3937524555302
 21
137.4184366782857
 31
0.0
  0
LINE
  5
16D
330
1F
100
AcDbEntity
  8
1
  6
CONTINUOUS
 62
     7
100
AcDbLine
 10
122.3361524555302
 20
137.6486692364252
 30
0.0
 11
122.3505524555302
 21
137.5230878410764
 31
0.0
  0
LINE
  5
16E
330
1F
100
AcDbEntity
  8
1
  6
CONTINUOUS
 62
     7
100
AcDbLine
 10
122.3361524555302
 20
138.8730878410764
 30
0.0
 11
122.3361524555302
 21
137.6486692364252
 31
0.0
  0
LINE
  5
16F
330
1F
100
AcDbEntity
  8
1
  6
CONTINUOUS
 62
     7
100
AcDbLine
 10
122.1705524555302
 20
138.8730878410764
 30
0.0
 11
122.3361524555302
 21
138.8730878410764
 31
0.0
  0
LINE
  5
170
330
1F
100
AcDbEntity
  8
1
  6
CONTINUOUS
 62
     7
100
AcDbLine
 10
121.4937524555302
 20
138.663785515495
 30
0.0
 11
121.3641524555302
 21
138.7056459806113
 31
0.0
  0
LINE
  5
171
330
1F
100
AcDbEntity
  8
1
  6
CONTINUOUS
 62
     7
100
AcDbLine
 10
121.6089524555302
 20
138.5486692364252
 30
0.0
 11
121.4937524555302
 21
138.663785515495
 31
0.0
  0
LINE
  5
172
330
1F
100
AcDbEntity
  8
1
  6
CONTINUOUS
 62
     7
100
AcDbLine
 10
121.6953524555302
 20
138.3289017945647
 30
0.0
 11
121.6089524555302
 21
138.5486692364252
 31
0.0
  0
LINE
  5
173
330
1F
100
AcDbEntity
  8
1
  6
CONTINUOUS
 62
     7
100
AcDbLine
 10
121.7241524555302
 20
138.0044831899136
 30
0.0
 11
121.6953524555302
 21
138.3289017945647
 31
0.0
  0
LINE
  5
174
330
1F
100
AcDbEntity
  8
1
  6
CONTINUOUS
 62
     7
100
AcDbLine
 10
121.6953524555302
 20
137.6800645852624
 30
0.0
 11
121.7241524555302
 21
138.0044831899136
 31
0.0
  0
LINE
  5
175
330
1F
100
AcDbEntity
  8
1
  6
CONTINUOUS
 62
     7
100
AcDbLine
 10
121.6089524555302
 20
137.470762259681
 30
0.0
 11
121.6953524555302
 21
137.6800645852624
 31
0.0
  0
LINE
  5
176
330
1F
100
AcDbEntity
  8
1
  6
CONTINUOUS
 62
     7
100
AcDbLine
 10
121.4937524555302
 20
137.3451808643322
 30
0.0
 11
121.6089524555302
 21
137.470762259681
 31
0.0
  0
LINE
  5
177
330
1F
100
AcDbEntity
  8
1
  6
CONTINUOUS
 62
     7
100
AcDbLine
 10
121.3641524555302
 20
137.313785515495
 30
0.0
 11
121.4937524555302
 21
137.3451808643322
 31
0.0
  0
LINE
  5
178
330
1F
100
AcDbEntity
  8
1
  6
CONTINUOUS
 62
     7
100
AcDbLine
 10
121.2345524555302
 20
137.3451808643322
 30
0.0
 11
121.3641524555302
 21
137.313785515495
 31
0.0
  0
LINE
  5
179
330
1F
100
AcDbEntity
  8
1
  6
CONTINUOUS
 62
     7
100
AcDbLine
 10
121.1265524555302
 20
137.470762259681
 30
0.0
 11
121.2345524555302
 21
137.3451808643322
 31
0.0
  0
LINE
  5
17A
330
1F
100
AcDbEntity
  8
1
  6
CONTINUOUS
 62
     7
100
AcDbLine
 10
121.0401524555302
 20
137.6800645852624
 30
0.0
 11
121.1265524555302
 21
137.470762259681
 31
0.0
  0
LINE
  5
17B
330
1F
100
AcDbEntity
  8
1
  6
CONTINUOUS
 62
     7
100
AcDbLine
 10
121.0113524555302
 20
138.0044831899136
 30
0.0
 11
121.0401524555302
 21
137.6800645852624
 31
0.0
  0
LINE
  5
17C
330
1F
100
AcDbEntity
  8
1
  6
CONTINUOUS
 62
     7
100
AcDbLine
 10
121.0401524555302
 20
138.3289017945647
 30
0.0
 11
121.0113524555302
 21
138.0044831899136
 31
0.0
  0
LINE
  5
17D
330
1F
100
AcDbEntity
  8
1
  6
CONTINUOUS
 62
     7
100
AcDbLine
 10
121.1265524555302
 20
138.5486692364252
 30
0.0
 11
121.0401524555302
 21
138.3289017945647
 31
0.0
  0
LINE
  5
17E
330
1F
100
AcDbEntity
  8
1
  6
CONTINUOUS
 62
     7
100
AcDbLine
 10
121.2345524555302
 20
138.663785515495
 30
0.0
 11
121.1265524555302
 21
138.5486692364252
 31
0.0
  0
LINE
  5
17F
330
1F
100
AcDbEntity
  8
1
  6
CONTINUOUS
 62
     7
100
AcDbLine
 10
121.3641524555302
 20
138.7056459806113
 30
0.0
 11
121.2345524555302
 21
138.663785515495
 31
0.0
  0
LINE
  5
180
330
1F
100
AcDbEntity
  8
1
  6
CONTINUOUS
 62
     7
100
AcDbLine
 10
120.8817524555302
 20
137.617273887588
 30
0.0
 11
120.8385524555302
 21
138.0044831899136
 31
0.0
  0
LINE
  5
181
330
1F
100
AcDbEntity
  8
1
  6
CONTINUOUS
 62
     7
100
AcDbLine
 10
121.0113524555302
 20
137.3347157480531
 30
0.0
 11
120.8817524555302
 21
137.617273887588
 31
0.0
  0
LINE
  5
182
330
1F
100
AcDbEntity
  8
1
  6
CONTINUOUS
 62
     7
100
AcDbLine
 10
121.1697524555302
 20
137.167273887588
 30
0.0
 11
121.0113524555302
 21
137.3347157480531
 31
0.0
  0
LINE
  5
183
330
1F
100
AcDbEntity
  8
1
  6
CONTINUOUS
 62
     7
100
AcDbLine
 10
121.3641524555302
 20
137.1149483061926
 30
0.0
 11
121.1697524555302
 21
137.167273887588
 31
0.0
  0
LINE
  5
184
330
1F
100
AcDbEntity
  8
1
  6
CONTINUOUS
 62
     7
100
AcDbLine
 10
121.5585524555302
 20
137.167273887588
 30
0.0
 11
121.3641524555302
 21
137.1149483061926
 31
0.0
  0
LINE
  5
185
330
1F
100
AcDbEntity
  8
1
  6
CONTINUOUS
 62
     7
100
AcDbLine
 10
121.7241524555302
 20
137.3347157480531
 30
0.0
 11
121.5585524555302
 21
137.167273887588
 31
0.0
  0
LINE
  5
186
330
1F
100
AcDbEntity
  8
1
  6
CONTINUOUS
 62
     7
100
AcDbLine
 10
121.8537524555302
 20
137.617273887588
 30
0.0
 11
121.7241524555302
 21
137.3347157480531
 31
0.0
  0
LINE
  5
187
330
1F
100
AcDbEntity
  8
1
  6
CONTINUOUS
 62
     7
100
AcDbLine
 10
121.8969524555302
 20
138.0044831899136
 30
0.0
 11
121.8537524555302
 21
137.617273887588
 31
0.0
  0
LINE
  5
188
330
1F
100
AcDbEntity
  8
1
  6
CONTINUOUS
 62
     7
100
AcDbLine
 10
121.8537524555302
 20
138.3812273759601
 30
0.0
 11
121.8969524555302
 21
138.0044831899136
 31
0.0
  0
LINE
  5
189
330
1F
100
AcDbEntity
  8
1
  6
CONTINUOUS
 62
     7
100
AcDbLine
 10
121.7241524555302
 20
138.6847157480531
 30
0.0
 11
121.8537524555302
 21
138.3812273759601
 31
0.0
  0
LINE
  5
18A
330
1F
100
AcDbEntity
  8
1
  6
CONTINUOUS
 62
     7
100
AcDbLine
 10
121.5585524555302
 20
138.8416924922391
 30
0.0
 11
121.7241524555302
 21
138.6847157480531
 31
0.0
  0
LINE
  5
18B
330
1F
100
AcDbEntity
  8
1
  6
CONTINUOUS
 62
     7
100
AcDbLine
 10
121.3641524555302
 20
138.8940180736345
 30
0.0
 11
121.5585524555302
 21
138.8416924922391
 31
0.0
  0
LINE
  5
18C
330
1F
100
AcDbEntity
  8
1
  6
CONTINUOUS
 62
     7
100
AcDbLine
 10
121.1697524555302
 20
138.8416924922391
 30
0.0
 11
121.3641524555302
 21
138.8940180736345
 31
0.0
  0
LINE
  5
18D
330
1F
100
AcDbEntity
  8
1
  6
CONTINUOUS
 62
     7
100
AcDbLine
 10
121.0113524555302
 20
138.6847157480531
 30
0.0
 11
121.1697524555302
 21
138.8416924922391
 31
0.0
  0
LINE
  5
18E
330
1F
100
AcDbEntity
  8
1
  6
CONTINUOUS
 62
     7
100
AcDbLine
 10
120.8817524555302
 20
138.3812273759601
 30
0.0
 11
121.0113524555302
 21
138.6847157480531
 31
0.0
  0
LINE
  5
18F
330
1F
100
AcDbEntity
  8
1
  6
CONTINUOUS
 62
     7
100
AcDbLine
 10
120.8385524555302
 20
138.0044831899136
 30
0.0
 11
120.8817524555302
 21
138.3812273759601
 31
0.0
  0
LINE
  5
190
330
1F
100
AcDbEntity
  8
1
  6
CONTINUOUS
 62
     7
100
AcDbLine
 10
123.9229447845702
 20
129.8045555555489
 30
0.0
 11
123.9229447845702
 21
131.7852532299675
 31
0.0
  0
LINE
  5
191
330
1F
100
AcDbEntity
  8
1
  6
CONTINUOUS
 62
     7
100
AcDbLine
 10
124.1035867845702
 20
129.8045555555489
 30
0.0
 11
123.9229447845702
 21
129.8045555555489
 31
0.0
  0
LINE
  5
192
330
1F
100
AcDbEntity
  8
1
  6
CONTINUOUS
 62
     7
100
AcDbLine
 10
124.1035867845702
 20
131.3701369508977
 30
0.0
 11
124.1035867845702
 21
129.8045555555489
 31
0.0
  0
LINE
  5
193
330
1F
100
AcDbEntity
  8
1
  6
CONTINUOUS
 62
     7
100
AcDbLine
 10
124.7161987845702
 20
129.8045555555489
 30
0.0
 11
124.1035867845702
 21
131.3701369508977
 31
0.0
  0
LINE
  5
194
330
1F
100
AcDbEntity
  8
1
  6
CONTINUOUS
 62
     7
100
AcDbLine
 10
124.9046947845702
 20
129.8045555555489
 30
0.0
 11
124.7161987845702
 21
129.8045555555489
 31
0.0
  0
LINE
  5
195
330
1F
100
AcDbEntity
  8
1
  6
CONTINUOUS
 62
     7
100
AcDbLine
 10
124.9046947845702
 20
131.7852532299675
 30
0.0
 11
124.9046947845702
 21
129.8045555555489
 31
0.0
  0
LINE
  5
196
330
1F
100
AcDbEntity
  8
1
  6
CONTINUOUS
 62
     7
100
AcDbLine
 10
124.7240527845702
 20
131.7852532299675
 30
0.0
 11
124.9046947845702
 21
131.7852532299675
 31
0.0
  0
LINE
  5
197
330
1F
100
AcDbEntity
  8
1
  6
CONTINUOUS
 62
     7
100
AcDbLine
 10
124.7240527845702
 20
130.2315322997349
 30
0.0
 11
124.7240527845702
 21
131.7852532299675
 31
0.0
  0
LINE
  5
198
330
1F
100
AcDbEntity
  8
1
  6
CONTINUOUS
 62
     7
100
AcDbLine
 10
124.1192947845702
 20
131.7852532299675
 30
0.0
 11
124.7240527845702
 21
130.2315322997349
 31
0.0
  0
LINE
  5
199
330
1F
100
AcDbEntity
  8
1
  6
CONTINUOUS
 62
     7
100
AcDbLine
 10
123.9229447845702
 20
131.7852532299675
 30
0.0
 11
124.1192947845702
 21
131.7852532299675
 31
0.0
  0
LINE
  5
19A
330
1F
100
AcDbEntity
  8
1
  6
CONTINUOUS
 62
     7
100
AcDbLine
 10
123.3260407845702
 20
130.6347881136884
 30
0.0
 11
123.1296907845702
 21
131.4294392764791
 31
0.0
  0
LINE
  5
19B
330
1F
100
AcDbEntity
  8
1
  6
CONTINUOUS
 62
     7
100
AcDbLine
 10
122.9254867845702
 20
130.6347881136884
 30
0.0
 11
123.3260407845702
 21
130.6347881136884
 31
0.0
  0
LINE
  5
19C
330
1F
100
AcDbEntity
  8
1
  6
CONTINUOUS
 62
     7
100
AcDbLine
 10
123.1296907845702
 20
131.4294392764791
 30
0.0
 11
122.9254867845702
 21
130.6347881136884
 31
0.0
  0
LINE
  5
19D
330
1F
100
AcDbEntity
  8
1
  6
CONTINUOUS
 62
     7
100
AcDbLine
 10
122.7134287845702
 20
129.8045555555489
 30
0.0
 11
122.5249327845702
 21
129.8045555555489
 31
0.0
  0
LINE
  5
19E
330
1F
100
AcDbEntity
  8
1
  6
CONTINUOUS
 62
     7
100
AcDbLine
 10
122.8705087845702
 20
130.3975788113628
 30
0.0
 11
122.7134287845702
 21
129.8045555555489
 31
0.0
  0
LINE
  5
19F
330
1F
100
AcDbEntity
  8
1
  6
CONTINUOUS
 62
     7
100
AcDbLine
 10
123.3810187845702
 20
130.3975788113628
 30
0.0
 11
122.8705087845702
 21
130.3975788113628
 31
0.0
  0
LINE
  5
1A0
330
1F
100
AcDbEntity
  8
1
  6
CONTINUOUS
 62
     7
100
AcDbLine
 10
123.5380987845702
 20
129.8045555555489
 30
0.0
 11
123.3810187845702
 21
130.3975788113628
 31
0.0
  0
LINE
  5
1A1
330
1F
100
AcDbEntity
  8
1
  6
CONTINUOUS
 62
     7
100
AcDbLine
 10
123.7265947845702
 20
129.8045555555489
 30
0.0
 11
123.5380987845702
 21
129.8045555555489
 31
0.0
  0
LINE
  5
1A2
330
1F
100
AcDbEntity
  8
1
  6
CONTINUOUS
 62
     7
100
AcDbLine
 10
123.2003767845702
 20
131.8089741602
 30
0.0
 11
123.7265947845702
 21
129.8045555555489
 31
0.0
  0
LINE
  5
1A3
330
1F
100
AcDbEntity
  8
1
  6
CONTINUOUS
 62
     7
100
AcDbLine
 10
123.0511507845702
 20
131.8089741602
 30
0.0
 11
123.2003767845702
 21
131.8089741602
 31
0.0
  0
LINE
  5
1A4
330
1F
100
AcDbEntity
  8
1
  6
CONTINUOUS
 62
     7
100
AcDbLine
 10
122.5249327845702
 20
129.8045555555489
 30
0.0
 11
123.0511507845702
 21
131.8089741602
 31
0.0
  0
LINE
  5
1A5
330
1F
100
AcDbEntity
  8
1
  6
CONTINUOUS
 62
     7
100
AcDbLine
 10
121.9515907845702
 20
131.5480439276419
 30
0.0
 11
121.5588907845702
 21
131.5480439276419
 31
0.0
  0
LINE
  5
1A6
330
1F
100
AcDbEntity
  8
1
  6
CONTINUOUS
 62
     7
100
AcDbLine
 10
122.0458387845702
 20
131.5243229974093
 30
0.0
 11
121.9515907845702
 21
131.5480439276419
 31
0.0
  0
LINE
  5
1A7
330
1F
100
AcDbEntity
  8
1
  6
CONTINUOUS
 62
     7
100
AcDbLine
 10
122.1322327845702
 20
131.4650206718279
 30
0.0
 11
122.0458387845702
 21
131.5243229974093
 31
0.0
  0
LINE
  5
1A8
330
1F
100
AcDbEntity
  8
1
  6
CONTINUOUS
 62
     7
100
AcDbLine
 10
122.1793567845702
 20
131.3464160206651
 30
0.0
 11
122.1322327845702
 21
131.4650206718279
 31
0.0
  0
LINE
  5
1A9
330
1F
100
AcDbEntity
  8
1
  6
CONTINUOUS
 62
     7
100
AcDbLine
 10
122.1950647845702
 20
131.1803695090372
 30
0.0
 11
122.1793567845702
 21
131.3464160206651
 31
0.0
  0
LINE
  5
1AA
330
1F
100
AcDbEntity
  8
1
  6
CONTINUOUS
 62
     7
100
AcDbLine
 10
122.1715027845702
 20
131.0143229974093
 30
0.0
 11
122.1950647845702
 21
131.1803695090372
 31
0.0
  0
LINE
  5
1AB
330
1F
100
AcDbEntity
  8
1
  6
CONTINUOUS
 62
     7
100
AcDbLine
 10
122.1243787845702
 20
130.8957183462465
 30
0.0
 11
122.1715027845702
 21
131.0143229974093
 31
0.0
  0
LINE
  5
1AC
330
1F
100
AcDbEntity
  8
1
  6
CONTINUOUS
 62
     7
100
AcDbLine
 10
122.0458387845702
 20
130.8245555555488
 30
0.0
 11
122.1243787845702
 21
130.8957183462465
 31
0.0
  0
LINE
  5
1AD
330
1F
100
AcDbEntity
  8
1
  6
CONTINUOUS
 62
     7
100
AcDbLine
 10
121.9515907845702
 20
130.8008346253163
 30
0.0
 11
122.0458387845702
 21
130.8245555555488
 31
0.0
  0
LINE
  5
1AE
330
1F
100
AcDbEntity
  8
1
  6
CONTINUOUS
 62
     7
100
AcDbLine
 10
121.5588907845702
 20
130.8008346253163
 30
0.0
 11
121.9515907845702
 21
130.8008346253163
 31
0.0
  0
LINE
  5
1AF
330
1F
100
AcDbEntity
  8
1
  6
CONTINUOUS
 62
     7
100
AcDbLine
 10
121.5588907845702
 20
131.5480439276419
 30
0.0
 11
121.5588907845702
 21
130.8008346253163
 31
0.0
  0
LINE
  5
1B0
330
1F
100
AcDbEntity
  8
1
  6
CONTINUOUS
 62
     7
100
AcDbLine
 10
121.3782487845702
 20
129.8045555555489
 30
0.0
 11
121.3782487845702
 21
131.7852532299675
 31
0.0
  0
LINE
  5
1B1
330
1F
100
AcDbEntity
  8
1
  6
CONTINUOUS
 62
     7
100
AcDbLine
 10
121.5588907845702
 20
129.8045555555489
 30
0.0
 11
121.3782487845702
 21
129.8045555555489
 31
0.0
  0
LINE
  5
1B2
330
1F
100
AcDbEntity
  8
1
  6
CONTINUOUS
 62
     7
100
AcDbLine
 10
121.5588907845702
 20
130.5636253229907
 30
0.0
 11
121.5588907845702
 21
129.8045555555489
 31
0.0
  0
LINE
  5
1B3
330
1F
100
AcDbEntity
  8
1
  6
CONTINUOUS
 62
     7
100
AcDbLine
 10
121.9908607845702
 20
130.5636253229907
 30
0.0
 11
121.5588907845702
 21
130.5636253229907
 31
0.0
  0
LINE
  5
1B4
330
1F
100
AcDbEntity
  8
1
  6
CONTINUOUS
 62
     7
100
AcDbLine
 10
122.1557947845702
 20
130.5992067183395
 30
0.0
 11
121.9908607845702
 21
130.5636253229907
 31
0.0
  0
LINE
  5
1B5
330
1F
100
AcDbEntity
  8
1
  6
CONTINUOUS
 62
     7
100
AcDbLine
 10
122.2736047845702
 20
130.7415322997349
 30
0.0
 11
122.1557947845702
 21
130.5992067183395
 31
0.0
  0
LINE
  5
1B6
330
1F
100
AcDbEntity
  8
1
  6
CONTINUOUS
 62
     7
100
AcDbLine
 10
122.3442907845702
 20
130.9194392764791
 30
0.0
 11
122.2736047845702
 21
130.7415322997349
 31
0.0
  0
LINE
  5
1B7
330
1F
100
AcDbEntity
  8
1
  6
CONTINUOUS
 62
     7
100
AcDbLine
 10
122.3757067845702
 20
131.1803695090372
 30
0.0
 11
122.3442907845702
 21
130.9194392764791
 31
0.0
  0
LINE
  5
1B8
330
1F
100
AcDbEntity
  8
1
  6
CONTINUOUS
 62
     7
100
AcDbLine
 10
122.3442907845702
 20
131.4294392764791
 30
0.0
 11
122.3757067845702
 21
131.1803695090372
 31
0.0
  0
LINE
  5
1B9
330
1F
100
AcDbEntity
  8
1
  6
CONTINUOUS
 62
     7
100
AcDbLine
 10
122.2657507845702
 20
131.6310671834558
 30
0.0
 11
122.3442907845702
 21
131.4294392764791
 31
0.0
  0
LINE
  5
1BA
330
1F
100
AcDbEntity
  8
1
  6
CONTINUOUS
 62
     7
100
AcDbLine
 10
122.1400867845702
 20
131.7378113695023
 30
0.0
 11
122.2657507845702
 21
131.6310671834558
 31
0.0
  0
LINE
  5
1BB
330
1F
100
AcDbEntity
  8
1
  6
CONTINUOUS
 62
     7
100
AcDbLine
 10
121.9908607845702
 20
131.7852532299675
 30
0.0
 11
122.1400867845702
 21
131.7378113695023
 31
0.0
  0
LINE
  5
1BC
330
1F
100
AcDbEntity
  8
1
  6
CONTINUOUS
 62
     7
100
AcDbLine
 10
121.3782487845702
 20
131.7852532299675
 30
0.0
 11
121.9908607845702
 21
131.7852532299675
 31
0.0
  0
LINE
  5
1BD
330
1F
100
AcDbEntity
  8
1
  6
CONTINUOUS
 62
     7
100
AcDbLine
 10
120.2001487845702
 20
131.1092067183396
 30
0.0
 11
120.1844407845702
 21
131.2633927648512
 31
0.0
  0
LINE
  5
1BE
330
1F
100
AcDbEntity
  8
1
  6
CONTINUOUS
 62
     7
100
AcDbLine
 10
120.2551267845702
 20
130.9906020671768
 30
0.0
 11
120.2001487845702
 21
131.1092067183396
 31
0.0
  0
LINE
  5
1BF
330
1F
100
AcDbEntity
  8
1
  6
CONTINUOUS
 62
     7
100
AcDbLine
 10
120.3022507845702
 20
130.9194392764791
 30
0.0
 11
120.2551267845702
 21
130.9906020671768
 31
0.0
  0
LINE
  5
1C0
330
1F
100
AcDbEntity
  8
1
  6
CONTINUOUS
 62
     7
100
AcDbLine
 10
120.3650827845702
 20
130.8838578811302
 30
0.0
 11
120.3022507845702
 21
130.9194392764791
 31
0.0
  0
LINE
  5
1C1
330
1F
100
AcDbEntity
  8
1
  6
CONTINUOUS
 62
     7
100
AcDbLine
 10
120.4593307845702
 20
130.8126950904326
 30
0.0
 11
120.3650827845702
 21
130.8838578811302
 31
0.0
  0
LINE
  5
1C2
330
1F
100
AcDbEntity
  8
1
  6
CONTINUOUS
 62
     7
100
AcDbLine
 10
120.5849947845702
 20
130.7415322997349
 30
0.0
 11
120.4593307845702
 21
130.8126950904326
 31
0.0
  0
LINE
  5
1C3
330
1F
100
AcDbEntity
  8
1
  6
CONTINUOUS
 62
     7
100
AcDbLine
 10
120.6870967845702
 20
130.6585090439209
 30
0.0
 11
120.5849947845702
 21
130.7415322997349
 31
0.0
  0
LINE
  5
1C4
330
1F
100
AcDbEntity
  8
1
  6
CONTINUOUS
 62
     7
100
AcDbLine
 10
120.7813447845702
 20
130.5992067183395
 30
0.0
 11
120.6870967845702
 21
130.6585090439209
 31
0.0
  0
LINE
  5
1C5
330
1F
100
AcDbEntity
  8
1
  6
CONTINUOUS
 62
     7
100
AcDbLine
 10
120.8520307845702
 20
130.5399043927582
 30
0.0
 11
120.7813447845702
 21
130.5992067183395
 31
0.0
  0
LINE
  5
1C6
330
1F
100
AcDbEntity
  8
1
  6
CONTINUOUS
 62
     7
100
AcDbLine
 10
120.9070087845702
 20
130.4806020671768
 30
0.0
 11
120.8520307845702
 21
130.5399043927582
 31
0.0
  0
LINE
  5
1C7
330
1F
100
AcDbEntity
  8
1
  6
CONTINUOUS
 62
     7
100
AcDbLine
 10
120.9384247845702
 20
130.3975788113628
 30
0.0
 11
120.9070087845702
 21
130.4806020671768
 31
0.0
  0
LINE
  5
1C8
330
1F
100
AcDbEntity
  8
1
  6
CONTINUOUS
 62
     7
100
AcDbLine
 10
120.9541327845702
 20
130.3026950904326
 30
0.0
 11
120.9384247845702
 21
130.3975788113628
 31
0.0
  0
LINE
  5
1C9
330
1F
100
AcDbEntity
  8
1
  6
CONTINUOUS
 62
     7
100
AcDbLine
 10
120.9384247845702
 20
130.2078113695023
 30
0.0
 11
120.9541327845702
 21
130.3026950904326
 31
0.0
  0
LINE
  5
1CA
330
1F
100
AcDbEntity
  8
1
  6
CONTINUOUS
 62
     7
100
AcDbLine
 10
120.8913007845702
 20
130.1247881136884
 30
0.0
 11
120.9384247845702
 21
130.2078113695023
 31
0.0
  0
LINE
  5
1CB
330
1F
100
AcDbEntity
  8
1
  6
CONTINUOUS
 62
     7
100
AcDbLine
 10
120.7891987845702
 20
130.0299043927581
 30
0.0
 11
120.8913007845702
 21
130.1247881136884
 31
0.0
  0
LINE
  5
1CC
330
1F
100
AcDbEntity
  8
1
  6
CONTINUOUS
 62
     7
100
AcDbLine
 10
120.6556807845702
 20
130.0061834625256
 30
0.0
 11
120.7891987845702
 21
130.0299043927581
 31
0.0
  0
LINE
  5
1CD
330
1F
100
AcDbEntity
  8
1
  6
CONTINUOUS
 62
     7
100
AcDbLine
 10
120.4986007845702
 20
130.0299043927581
 30
0.0
 11
120.6556807845702
 21
130.0061834625256
 31
0.0
  0
LINE
  5
1CE
330
1F
100
AcDbEntity
  8
1
  6
CONTINUOUS
 62
     7
100
AcDbLine
 10
120.3886447845702
 20
130.1366485788047
 30
0.0
 11
120.4986007845702
 21
130.0299043927581
 31
0.0
  0
LINE
  5
1CF
330
1F
100
AcDbEntity
  8
1
  6
CONTINUOUS
 62
     7
100
AcDbLine
 10
120.3415207845702
 20
130.2552532299675
 30
0.0
 11
120.3886447845702
 21
130.1366485788047
 31
0.0
  0
LINE
  5
1D0
330
1F
100
AcDbEntity
  8
1
  6
CONTINUOUS
 62
     7
100
AcDbLine
 10
120.3336667845702
 20
130.4331602067117
 30
0.0
 11
120.3415207845702
 21
130.2552532299675
 31
0.0
  0
LINE
  5
1D1
330
1F
100
AcDbEntity
  8
1
  6
CONTINUOUS
 62
     7
100
AcDbLine
 10
120.1530247845702
 20
130.4331602067117
 30
0.0
 11
120.3336667845702
 21
130.4331602067117
 31
0.0
  0
LINE
  5
1D2
330
1F
100
AcDbEntity
  8
1
  6
CONTINUOUS
 62
     7
100
AcDbLine
 10
120.1765867845702
 20
130.1722299741535
 30
0.0
 11
120.1530247845702
 21
130.4331602067117
 31
0.0
  0
LINE
  5
1D3
330
1F
100
AcDbEntity
  8
1
  6
CONTINUOUS
 62
     7
100
AcDbLine
 10
120.2551267845702
 20
129.9943229974093
 30
0.0
 11
120.1765867845702
 21
130.1722299741535
 31
0.0
  0
LINE
  5
1D4
330
1F
100
AcDbEntity
  8
1
  6
CONTINUOUS
 62
     7
100
AcDbLine
 10
120.4200607845702
 20
129.8282764857814
 30
0.0
 11
120.2551267845702
 21
129.9943229974093
 31
0.0
  0
LINE
  5
1D5
330
1F
100
AcDbEntity
  8
1
  6
CONTINUOUS
 62
     7
100
AcDbLine
 10
120.6478267845702
 20
129.7808346253163
 30
0.0
 11
120.4200607845702
 21
129.8282764857814
 31
0.0
  0
LINE
  5
1D6
330
1F
100
AcDbEntity
  8
1
  6
CONTINUOUS
 62
     7
100
AcDbLine
 10
120.8677387845702
 20
129.8164160206651
 30
0.0
 11
120.6478267845702
 21
129.7808346253163
 31
0.0
  0
LINE
  5
1D7
330
1F
100
AcDbEntity
  8
1
  6
CONTINUOUS
 62
     7
100
AcDbLine
 10
121.0248187845702
 20
129.9587416020605
 30
0.0
 11
120.8677387845702
 21
129.8164160206651
 31
0.0
  0
LINE
  5
1D8
330
1F
100
AcDbEntity
  8
1
  6
CONTINUOUS
 62
     7
100
AcDbLine
 10
121.0955047845702
 20
130.1366485788047
 30
0.0
 11
121.0248187845702
 21
129.9587416020605
 31
0.0
  0
LINE
  5
1D9
330
1F
100
AcDbEntity
  8
1
  6
CONTINUOUS
 62
     7
100
AcDbLine
 10
121.1269207845702
 20
130.3501369508977
 30
0.0
 11
121.0955047845702
 21
130.1366485788047
 31
0.0
  0
LINE
  5
1DA
330
1F
100
AcDbEntity
  8
1
  6
CONTINUOUS
 62
     7
100
AcDbLine
 10
121.1033587845702
 20
130.5161834625256
 30
0.0
 11
121.1269207845702
 21
130.3501369508977
 31
0.0
  0
LINE
  5
1DB
330
1F
100
AcDbEntity
  8
1
  6
CONTINUOUS
 62
     7
100
AcDbLine
 10
121.0405267845702
 20
130.6585090439209
 30
0.0
 11
121.1033587845702
 21
130.5161834625256
 31
0.0
  0
LINE
  5
1DC
330
1F
100
AcDbEntity
  8
1
  6
CONTINUOUS
 62
     7
100
AcDbLine
 10
120.9855487845702
 20
130.7178113695023
 30
0.0
 11
121.0405267845702
 21
130.6585090439209
 31
0.0
  0
LINE
  5
1DD
330
1F
100
AcDbEntity
  8
1
  6
CONTINUOUS
 62
     7
100
AcDbLine
 10
120.9305707845702
 20
130.7652532299674
 30
0.0
 11
120.9855487845702
 21
130.7178113695023
 31
0.0
  0
LINE
  5
1DE
330
1F
100
AcDbEntity
  8
1
  6
CONTINUOUS
 62
     7
100
AcDbLine
 10
120.7106587845702
 20
130.9075788113628
 30
0.0
 11
120.9305707845702
 21
130.7652532299674
 31
0.0
  0
LINE
  5
1DF
330
1F
100
AcDbEntity
  8
1
  6
CONTINUOUS
 62
     7
100
AcDbLine
 10
120.5300167845702
 20
131.0380439276419
 30
0.0
 11
120.7106587845702
 21
130.9075788113628
 31
0.0
  0
LINE
  5
1E0
330
1F
100
AcDbEntity
  8
1
  6
CONTINUOUS
 62
     7
100
AcDbLine
 10
120.4436227845702
 20
131.0973462532233
 30
0.0
 11
120.5300167845702
 21
131.0380439276419
 31
0.0
  0
LINE
  5
1E1
330
1F
100
AcDbEntity
  8
1
  6
CONTINUOUS
 62
     7
100
AcDbLine
 10
120.3886447845702
 20
131.1566485788047
 30
0.0
 11
120.4436227845702
 21
131.0973462532233
 31
0.0
  0
LINE
  5
1E2
330
1F
100
AcDbEntity
  8
1
  6
CONTINUOUS
 62
     7
100
AcDbLine
 10
120.3650827845702
 20
131.2159509043861
 30
0.0
 11
120.3886447845702
 21
131.1566485788047
 31
0.0
  0
LINE
  5
1E3
330
1F
100
AcDbEntity
  8
1
  6
CONTINUOUS
 62
     7
100
AcDbLine
 10
120.3650827845702
 20
131.2989741602
 30
0.0
 11
120.3650827845702
 21
131.2159509043861
 31
0.0
  0
LINE
  5
1E4
330
1F
100
AcDbEntity
  8
1
  6
CONTINUOUS
 62
     7
100
AcDbLine
 10
120.3729367845702
 20
131.3938578811302
 30
0.0
 11
120.3650827845702
 21
131.2989741602
 31
0.0
  0
LINE
  5
1E5
330
1F
100
AcDbEntity
  8
1
  6
CONTINUOUS
 62
     7
100
AcDbLine
 10
120.4122067845702
 20
131.4887416020605
 30
0.0
 11
120.3729367845702
 21
131.3938578811302
 31
0.0
  0
LINE
  5
1E6
330
1F
100
AcDbEntity
  8
1
  6
CONTINUOUS
 62
     7
100
AcDbLine
 10
120.4986007845702
 20
131.5599043927581
 30
0.0
 11
120.4122067845702
 21
131.4887416020605
 31
0.0
  0
LINE
  5
1E7
330
1F
100
AcDbEntity
  8
1
  6
CONTINUOUS
 62
     7
100
AcDbLine
 10
120.6399727845702
 20
131.5836253229907
 30
0.0
 11
120.4986007845702
 21
131.5599043927581
 31
0.0
  0
LINE
  5
1E8
330
1F
100
AcDbEntity
  8
1
  6
CONTINUOUS
 62
     7
100
AcDbLine
 10
120.7577827845702
 20
131.5480439276419
 30
0.0
 11
120.6399727845702
 21
131.5836253229907
 31
0.0
  0
LINE
  5
1E9
330
1F
100
AcDbEntity
  8
1
  6
CONTINUOUS
 62
     7
100
AcDbLine
 10
120.8520307845702
 20
131.4768811369442
 30
0.0
 11
120.7577827845702
 21
131.5480439276419
 31
0.0
  0
LINE
  5
1EA
330
1F
100
AcDbEntity
  8
1
  6
CONTINUOUS
 62
     7
100
AcDbLine
 10
120.8991547845702
 20
131.3701369508977
 30
0.0
 11
120.8520307845702
 21
131.4768811369442
 31
0.0
  0
LINE
  5
1EB
330
1F
100
AcDbEntity
  8
1
  6
CONTINUOUS
 62
     7
100
AcDbLine
 10
120.9148627845702
 20
131.2515322997349
 30
0.0
 11
120.8991547845702
 21
131.3701369508977
 31
0.0
  0
LINE
  5
1EC
330
1F
100
AcDbEntity
  8
1
  6
CONTINUOUS
 62
     7
100
AcDbLine
 10
121.0876507845702
 20
131.2515322997349
 30
0.0
 11
120.9148627845702
 21
131.2515322997349
 31
0.0
  0
LINE
  5
1ED
330
1F
100
AcDbEntity
  8
1
  6
CONTINUOUS
 62
     7
100
AcDbLine
 10
121.0562347845702
 20
131.4531602067116
 30
0.0
 11
121.0876507845702
 21
131.2515322997349
 31
0.0
  0
LINE
  5
1EE
330
1F
100
AcDbEntity
  8
1
  6
CONTINUOUS
 62
     7
100
AcDbLine
 10
120.9855487845702
 20
131.6310671834558
 30
0.0
 11
121.0562347845702
 21
131.4531602067116
 31
0.0
  0
LINE
  5
1EF
330
1F
100
AcDbEntity
  8
1
  6
CONTINUOUS
 62
     7
100
AcDbLine
 10
120.8284687845702
 20
131.7615322997349
 30
0.0
 11
120.9855487845702
 21
131.6310671834558
 31
0.0
  0
LINE
  5
1F0
330
1F
100
AcDbEntity
  8
1
  6
CONTINUOUS
 62
     7
100
AcDbLine
 10
120.6242647845702
 20
131.8089741602
 30
0.0
 11
120.8284687845702
 21
131.7615322997349
 31
0.0
  0
LINE
  5
1F1
330
1F
100
AcDbEntity
  8
1
  6
CONTINUOUS
 62
     7
100
AcDbLine
 10
120.4279147845702
 20
131.7615322997349
 30
0.0
 11
120.6242647845702
 21
131.8089741602
 31
0.0
  0
LINE
  5
1F2
330
1F
100
AcDbEntity
  8
1
  6
CONTINUOUS
 62
     7
100
AcDbLine
 10
120.2943967845702
 20
131.6547881136884
 30
0.0
 11
120.4279147845702
 21
131.7615322997349
 31
0.0
  0
LINE
  5
1F3
330
1F
100
AcDbEntity
  8
1
  6
CONTINUOUS
 62
     7
100
AcDbLine
 10
120.2080027845702
 20
131.4650206718279
 30
0.0
 11
120.2943967845702
 21
131.6547881136884
 31
0.0
  0
LINE
  5
1F4
330
1F
100
AcDbEntity
  8
1
  6
CONTINUOUS
 62
     7
100
AcDbLine
 10
120.1844407845702
 20
131.2633927648512
 30
0.0
 11
120.2080027845702
 21
131.4650206718279
 31
0.0
  0
LINE
  5
1F5
330
1F
100
AcDbEntity
  8
1
  6
CONTINUOUS
 62
     7
100
AcDbLine
 10
124.4613087845702
 20
145.9580437599918
 30
0.0
 11
124.3199367845702
 21
146.005485620457
 31
0.0
  0
LINE
  5
1F6
330
1F
100
AcDbEntity
  8
1
  6
CONTINUOUS
 62
     7
100
AcDbLine
 10
124.5869727845702
 20
145.8275786437128
 30
0.0
 11
124.4613087845702
 21
145.9580437599918
 31
0.0
  0
LINE
  5
1F7
330
1F
100
AcDbEntity
  8
1
  6
CONTINUOUS
 62
     7
100
AcDbLine
 10
124.6812207845702
 20
145.5785088762709
 30
0.0
 11
124.5869727845702
 21
145.8275786437128
 31
0.0
  0
LINE
  5
1F8
330
1F
100
AcDbEntity
  8
1
  6
CONTINUOUS
 62
     7
100
AcDbLine
 10
124.7126367845702
 20
145.2108344576663
 30
0.0
 11
124.6812207845702
 21
145.5785088762709
 31
0.0
  0
LINE
  5
1F9
330
1F
100
AcDbEntity
  8
1
  6
CONTINUOUS
 62
     7
100
AcDbLine
 10
124.6812207845702
 20
144.8431600390616
 30
0.0
 11
124.7126367845702
 21
145.2108344576663
 31
0.0
  0
LINE
  5
1FA
330
1F
100
AcDbEntity
  8
1
  6
CONTINUOUS
 62
     7
100
AcDbLine
 10
124.5869727845702
 20
144.605950736736
 30
0.0
 11
124.6812207845702
 21
144.8431600390616
 31
0.0
  0
LINE
  5
1FB
330
1F
100
AcDbEntity
  8
1
  6
CONTINUOUS
 62
     7
100
AcDbLine
 10
124.4613087845702
 20
144.4636251553407
 30
0.0
 11
124.5869727845702
 21
144.605950736736
 31
0.0
  0
LINE
  5
1FC
330
1F
100
AcDbEntity
  8
1
  6
CONTINUOUS
 62
     7
100
AcDbLine
 10
124.3199367845702
 20
144.4280437599918
 30
0.0
 11
124.4613087845702
 21
144.4636251553407
 31
0.0
  0
LINE
  5
1FD
330
1F
100
AcDbEntity
  8
1
  6
CONTINUOUS
 62
     7
100
AcDbLine
 10
124.1785647845702
 20
144.4636251553407
 30
0.0
 11
124.3199367845702
 21
144.4280437599918
 31
0.0
  0
LINE
  5
1FE
330
1F
100
AcDbEntity
  8
1
  6
CONTINUOUS
 62
     7
100
AcDbLine
 10
124.0607547845702
 20
144.605950736736
 30
0.0
 11
124.1785647845702
 21
144.4636251553407
 31
0.0
  0
LINE
  5
1FF
330
1F
100
AcDbEntity
  8
1
  6
CONTINUOUS
 62
     7
100
AcDbLine
 10
123.9665067845702
 20
144.8431600390616
 30
0.0
 11
124.0607547845702
 21
144.605950736736
 31
0.0
  0
LINE
  5
200
330
1F
100
AcDbEntity
  8
1
  6
CONTINUOUS
 62
     7
100
AcDbLine
 10
123.9350907845702
 20
145.2108344576663
 30
0.0
 11
123.9665067845702
 21
144.8431600390616
 31
0.0
  0
LINE
  5
201
330
1F
100
AcDbEntity
  8
1
  6
CONTINUOUS
 62
     7
100
AcDbLine
 10
123.9665067845702
 20
145.5785088762709
 30
0.0
 11
123.9350907845702
 21
145.2108344576663
 31
0.0
  0
LINE
  5
202
330
1F
100
AcDbEntity
  8
1
  6
CONTINUOUS
 62
     7
100
AcDbLine
 10
124.0607547845702
 20
145.8275786437128
 30
0.0
 11
123.9665067845702
 21
145.5785088762709
 31
0.0
  0
LINE
  5
203
330
1F
100
AcDbEntity
  8
1
  6
CONTINUOUS
 62
     7
100
AcDbLine
 10
124.1785647845702
 20
145.9580437599918
 30
0.0
 11
124.0607547845702
 21
145.8275786437128
 31
0.0
  0
LINE
  5
204
330
1F
100
AcDbEntity
  8
1
  6
CONTINUOUS
 62
     7
100
AcDbLine
 10
124.3199367845702
 20
146.005485620457
 30
0.0
 11
124.1785647845702
 21
145.9580437599918
 31
0.0
  0
LINE
  5
205
330
1F
100
AcDbEntity
  8
1
  6
CONTINUOUS
 62
     7
100
AcDbLine
 10
123.7937187845702
 20
144.7719972483639
 30
0.0
 11
123.7465947845702
 21
145.2108344576663
 31
0.0
  0
LINE
  5
206
330
1F
100
AcDbEntity
  8
1
  6
CONTINUOUS
 62
     7
100
AcDbLine
 10
123.9350907845702
 20
144.4517646902244
 30
0.0
 11
123.7937187845702
 21
144.7719972483639
 31
0.0
  0
LINE
  5
207
330
1F
100
AcDbEntity
  8
1
  6
CONTINUOUS
 62
     7
100
AcDbLine
 10
124.1078787845702
 20
144.2619972483639
 30
0.0
 11
123.9350907845702
 21
144.4517646902244
 31
0.0
  0
LINE
  5
208
330
1F
100
AcDbEntity
  8
1
  6
CONTINUOUS
 62
     7
100
AcDbLine
 10
124.3199367845702
 20
144.2026949227825
 30
0.0
 11
124.1078787845702
 21
144.2619972483639
 31
0.0
  0
LINE
  5
209
330
1F
100
AcDbEntity
  8
1
  6
CONTINUOUS
 62
     7
100
AcDbLine
 10
124.5319947845702
 20
144.2619972483639
 30
0.0
 11
124.3199367845702
 21
144.2026949227825
 31
0.0
  0
LINE
  5
20A
330
1F
100
AcDbEntity
  8
1
  6
CONTINUOUS
 62
     7
100
AcDbLine
 10
124.7126367845702
 20
144.4517646902244
 30
0.0
 11
124.5319947845702
 21
144.2619972483639
 31
0.0
  0
LINE
  5
20B
330
1F
100
AcDbEntity
  8
1
  6
CONTINUOUS
 62
     7
100
AcDbLine
 10
124.8540087845702
 20
144.7719972483639
 30
0.0
 11
124.7126367845702
 21
144.4517646902244
 31
0.0
  0
LINE
  5
20C
330
1F
100
AcDbEntity
  8
1
  6
CONTINUOUS
 62
     7
100
AcDbLine
 10
124.9011327845702
 20
145.2108344576663
 30
0.0
 11
124.8540087845702
 21
144.7719972483639
 31
0.0
  0
LINE
  5
20D
330
1F
100
AcDbEntity
  8
1
  6
CONTINUOUS
 62
     7
100
AcDbLine
 10
124.8540087845702
 20
145.6378112018523
 30
0.0
 11
124.9011327845702
 21
145.2108344576663
 31
0.0
  0
LINE
  5
20E
330
1F
100
AcDbEntity
  8
1
  6
CONTINUOUS
 62
     7
100
AcDbLine
 10
124.7126367845702
 20
145.9817646902244
 30
0.0
 11
124.8540087845702
 21
145.6378112018523
 31
0.0
  0
LINE
  5
20F
330
1F
100
AcDbEntity
  8
1
  6
CONTINUOUS
 62
     7
100
AcDbLine
 10
124.5319947845702
 20
146.1596716669686
 30
0.0
 11
124.7126367845702
 21
145.9817646902244
 31
0.0
  0
LINE
  5
210
330
1F
100
AcDbEntity
  8
1
  6
CONTINUOUS
 62
     7
100
AcDbLine
 10
124.3199367845702
 20
146.21897399255
 30
0.0
 11
124.5319947845702
 21
146.1596716669686
 31
0.0
  0
LINE
  5
211
330
1F
100
AcDbEntity
  8
1
  6
CONTINUOUS
 62
     7
100
AcDbLine
 10
124.1078787845702
 20
146.1596716669686
 30
0.0
 11
124.3199367845702
 21
146.21897399255
 31
0.0
  0
LINE
  5
212
330
1F
100
AcDbEntity
  8
1
  6
CONTINUOUS
 62
     7
100
AcDbLine
 10
123.9350907845702
 20
145.9817646902244
 30
0.0
 11
124.1078787845702
 21
146.1596716669686
 31
0.0
  0
LINE
  5
213
330
1F
100
AcDbEntity
  8
1
  6
CONTINUOUS
 62
     7
100
AcDbLine
 10
123.7937187845702
 20
145.6378112018523
 30
0.0
 11
123.9350907845702
 21
145.9817646902244
 31
0.0
  0
LINE
  5
214
330
1F
100
AcDbEntity
  8
1
  6
CONTINUOUS
 62
     7
100
AcDbLine
 10
123.7465947845702
 20
145.2108344576663
 30
0.0
 11
123.7937187845702
 21
145.6378112018523
 31
0.0
  0
LINE
  5
215
330
1F
100
AcDbEntity
  8
1
  6
CONTINUOUS
 62
     7
100
AcDbLine
 10
123.1339827845702
 20
145.9699042251081
 30
0.0
 11
122.7020127845702
 21
145.9699042251081
 31
0.0
  0
LINE
  5
216
330
1F
100
AcDbEntity
  8
1
  6
CONTINUOUS
 62
     7
100
AcDbLine
 10
123.2125227845702
 20
145.9461832948756
 30
0.0
 11
123.1339827845702
 21
145.9699042251081
 31
0.0
  0
LINE
  5
217
330
1F
100
AcDbEntity
  8
1
  6
CONTINUOUS
 62
     7
100
AcDbLine
 10
123.2832087845702
 20
145.8987414344105
 30
0.0
 11
123.2125227845702
 21
145.9461832948756
 31
0.0
  0
LINE
  5
218
330
1F
100
AcDbEntity
  8
1
  6
CONTINUOUS
 62
     7
100
AcDbLine
 10
123.3303327845702
 20
145.7801367832477
 30
0.0
 11
123.2832087845702
 21
145.8987414344105
 31
0.0
  0
LINE
  5
219
330
1F
100
AcDbEntity
  8
1
  6
CONTINUOUS
 62
     7
100
AcDbLine
 10
123.3460407845702
 20
145.6496716669686
 30
0.0
 11
123.3303327845702
 21
145.7801367832477
 31
0.0
  0
LINE
  5
21A
330
1F
100
AcDbEntity
  8
1
  6
CONTINUOUS
 62
     7
100
AcDbLine
 10
123.3303327845702
 20
145.495485620457
 30
0.0
 11
123.3460407845702
 21
145.6496716669686
 31
0.0
  0
LINE
  5
21B
330
1F
100
AcDbEntity
  8
1
  6
CONTINUOUS
 62
     7
100
AcDbLine
 10
123.2910627845702
 20
145.3887414344104
 30
0.0
 11
123.3303327845702
 21
145.495485620457
 31
0.0
  0
LINE
  5
21C
330
1F
100
AcDbEntity
  8
1
  6
CONTINUOUS
 62
     7
100
AcDbLine
 10
123.2282307845702
 20
145.3175786437128
 30
0.0
 11
123.2910627845702
 21
145.3887414344104
 31
0.0
  0
LINE
  5
21D
330
1F
100
AcDbEntity
  8
1
  6
CONTINUOUS
 62
     7
100
AcDbLine
 10
123.1575447845702
 20
145.3057181785965
 30
0.0
 11
123.2282307845702
 21
145.3175786437128
 31
0.0
  0
LINE
  5
21E
330
1F
100
AcDbEntity
  8
1
  6
CONTINUOUS
 62
     7
100
AcDbLine
 10
122.7020127845702
 20
145.3057181785965
 30
0.0
 11
123.1575447845702
 21
145.3057181785965
 31
0.0
  0
LINE
  5
21F
330
1F
100
AcDbEntity
  8
1
  6
CONTINUOUS
 62
     7
100
AcDbLine
 10
122.7020127845702
 20
145.9699042251081
 30
0.0
 11
122.7020127845702
 21
145.3057181785965
 31
0.0
  0
LINE
  5
220
330
1F
100
AcDbEntity
  8
1
  6
CONTINUOUS
 62
     7
100
AcDbLine
 10
122.5213707845702
 20
144.2264158530151
 30
0.0
 11
122.5213707845702
 21
146.2071135274337
 31
0.0
  0
LINE
  5
221
330
1F
100
AcDbEntity
  8
1
  6
CONTINUOUS
 62
     7
100
AcDbLine
 10
122.7020127845702
 20
144.2264158530151
 30
0.0
 11
122.5213707845702
 21
144.2264158530151
 31
0.0
  0
LINE
  5
222
330
1F
100
AcDbEntity
  8
1
  6
CONTINUOUS
 62
     7
100
AcDbLine
 10
122.7020127845702
 20
145.0685088762709
 30
0.0
 11
122.7020127845702
 21
144.2264158530151
 31
0.0
  0
LINE
  5
223
330
1F
100
AcDbEntity
  8
1
  6
CONTINUOUS
 62
     7
100
AcDbLine
 10
123.1025667845702
 20
145.0685088762709
 30
0.0
 11
122.7020127845702
 21
145.0685088762709
 31
0.0
  0
LINE
  5
224
330
1F
100
AcDbEntity
  8
1
  6
CONTINUOUS
 62
     7
100
AcDbLine
 10
123.3774567845702
 20
144.2264158530151
 30
0.0
 11
123.1025667845702
 21
145.0685088762709
 31
0.0
  0
LINE
  5
225
330
1F
100
AcDbEntity
  8
1
  6
CONTINUOUS
 62
     7
100
AcDbLine
 10
123.5738067845702
 20
144.2264158530151
 30
0.0
 11
123.3774567845702
 21
144.2264158530151
 31
0.0
  0
LINE
  5
226
330
1F
100
AcDbEntity
  8
1
  6
CONTINUOUS
 62
     7
100
AcDbLine
 10
123.2753547845702
 20
145.1278112018523
 30
0.0
 11
123.5738067845702
 21
144.2264158530151
 31
0.0
  0
LINE
  5
227
330
1F
100
AcDbEntity
  8
1
  6
CONTINUOUS
 62
     7
100
AcDbLine
 10
123.3538947845702
 20
145.1633925972012
 30
0.0
 11
123.2753547845702
 21
145.1278112018523
 31
0.0
  0
LINE
  5
228
330
1F
100
AcDbEntity
  8
1
  6
CONTINUOUS
 62
     7
100
AcDbLine
 10
123.4245807845702
 20
145.2226949227825
 30
0.0
 11
123.3538947845702
 21
145.1633925972012
 31
0.0
  0
LINE
  5
229
330
1F
100
AcDbEntity
  8
1
  6
CONTINUOUS
 62
     7
100
AcDbLine
 10
123.4952667845702
 20
145.4006018995267
 30
0.0
 11
123.4245807845702
 21
145.2226949227825
 31
0.0
  0
LINE
  5
22A
330
1F
100
AcDbEntity
  8
1
  6
CONTINUOUS
 62
     7
100
AcDbLine
 10
123.5266827845702
 20
145.6496716669686
 30
0.0
 11
123.4952667845702
 21
145.4006018995267
 31
0.0
  0
LINE
  5
22B
330
1F
100
AcDbEntity
  8
1
  6
CONTINUOUS
 62
     7
100
AcDbLine
 10
123.4952667845702
 20
145.8750205041779
 30
0.0
 11
123.5266827845702
 21
145.6496716669686
 31
0.0
  0
LINE
  5
22C
330
1F
100
AcDbEntity
  8
1
  6
CONTINUOUS
 62
     7
100
AcDbLine
 10
123.4245807845702
 20
146.0647879460383
 30
0.0
 11
123.4952667845702
 21
145.8750205041779
 31
0.0
  0
LINE
  5
22D
330
1F
100
AcDbEntity
  8
1
  6
CONTINUOUS
 62
     7
100
AcDbLine
 10
123.3146247845702
 20
146.1715321320849
 30
0.0
 11
123.4245807845702
 21
146.0647879460383
 31
0.0
  0
LINE
  5
22E
330
1F
100
AcDbEntity
  8
1
  6
CONTINUOUS
 62
     7
100
AcDbLine
 10
123.1732527845702
 20
146.2071135274337
 30
0.0
 11
123.3146247845702
 21
146.1715321320849
 31
0.0
  0
LINE
  5
22F
330
1F
100
AcDbEntity
  8
1
  6
CONTINUOUS
 62
     7
100
AcDbLine
 10
122.5213707845702
 20
146.2071135274337
 30
0.0
 11
123.1732527845702
 21
146.2071135274337
 31
0.0
  0
LINE
  5
230
330
1F
100
AcDbEntity
  8
1
  6
CONTINUOUS
 62
     7
100
AcDbLine
 10
121.3432707845702
 20
144.2026949227825
 30
0.0
 11
121.3432707845702
 21
146.1952530623174
 31
0.0
  0
LINE
  5
231
330
1F
100
AcDbEntity
  8
1
  6
CONTINUOUS
 62
     7
100
AcDbLine
 10
122.2229187845702
 20
144.2026949227825
 30
0.0
 11
121.3432707845702
 21
144.2026949227825
 31
0.0
  0
LINE
  5
232
330
1F
100
AcDbEntity
  8
1
  6
CONTINUOUS
 62
     7
100
AcDbLine
 10
122.2229187845702
 20
144.4399042251081
 30
0.0
 11
122.2229187845702
 21
144.2026949227825
 31
0.0
  0
LINE
  5
233
330
1F
100
AcDbEntity
  8
1
  6
CONTINUOUS
 62
     7
100
AcDbLine
 10
121.5239127845702
 20
144.4399042251081
 30
0.0
 11
122.2229187845702
 21
144.4399042251081
 31
0.0
  0
LINE
  5
234
330
1F
100
AcDbEntity
  8
1
  6
CONTINUOUS
 62
     7
100
AcDbLine
 10
121.5239127845702
 20
145.1278112018523
 30
0.0
 11
121.5239127845702
 21
144.4399042251081
 31
0.0
  0
LINE
  5
235
330
1F
100
AcDbEntity
  8
1
  6
CONTINUOUS
 62
     7
100
AcDbLine
 10
122.1443787845702
 20
145.1278112018523
 30
0.0
 11
121.5239127845702
 21
145.1278112018523
 31
0.0
  0
LINE
  5
236
330
1F
100
AcDbEntity
  8
1
  6
CONTINUOUS
 62
     7
100
AcDbLine
 10
122.1443787845702
 20
145.3650205041779
 30
0.0
 11
122.1443787845702
 21
145.1278112018523
 31
0.0
  0
LINE
  5
237
330
1F
100
AcDbEntity
  8
1
  6
CONTINUOUS
 62
     7
100
AcDbLine
 10
121.5239127845702
 20
145.3650205041779
 30
0.0
 11
122.1443787845702
 21
145.3650205041779
 31
0.0
  0
LINE
  5
238
330
1F
100
AcDbEntity
  8
1
  6
CONTINUOUS
 62
     7
100
AcDbLine
 10
121.5239127845702
 20
145.9580437599918
 30
0.0
 11
121.5239127845702
 21
145.3650205041779
 31
0.0
  0
LINE
  5
239
330
1F
100
AcDbEntity
  8
1
  6
CONTINUOUS
 62
     7
100
AcDbLine
 10
122.1915027845702
 20
145.9580437599918
 30
0.0
 11
121.5239127845702
 21
145.9580437599918
 31
0.0
  0
LINE
  5
23A
330
1F
100
AcDbEntity
  8
1
  6
CONTINUOUS
 62
     7
100
AcDbLine
 10
122.1915027845702
 20
146.1952530623174
 30
0.0
 11
122.1915027845702
 21
145.9580437599918
 31
0.0
  0
LINE
  5
23B
330
1F
100
AcDbEntity
  8
1
  6
CONTINUOUS
 62
     7
100
AcDbLine
 10
121.3432707845702
 20
146.1952530623174
 30
0.0
 11
122.1915027845702
 21
146.1952530623174
 31
0.0
  0
LINE
  5
23C
330
1F
100
AcDbEntity
  8
1
  6
CONTINUOUS
 62
     7
100
AcDbLine
 10
120.1730247845702
 20
145.9580437599918
 30
0.0
 11
120.1730247845702
 21
146.1952530623174
 31
0.0
  0
LINE
  5
23D
330
1F
100
AcDbEntity
  8
1
  6
CONTINUOUS
 62
     7
100
AcDbLine
 10
120.8798847845702
 20
145.9580437599918
 30
0.0
 11
120.1730247845702
 21
145.9580437599918
 31
0.0
  0
LINE
  5
23E
330
1F
100
AcDbEntity
  8
1
  6
CONTINUOUS
 62
     7
100
AcDbLine
 10
120.1259007845702
 20
144.4517646902244
 30
0.0
 11
120.8798847845702
 21
145.9580437599918
 31
0.0
  0
LINE
  5
23F
330
1F
100
AcDbEntity
  8
1
  6
CONTINUOUS
 62
     7
100
AcDbLine
 10
120.1259007845702
 20
144.2026949227825
 30
0.0
 11
120.1259007845702
 21
144.4517646902244
 31
0.0
  0
LINE
  5
240
330
1F
100
AcDbEntity
  8
1
  6
CONTINUOUS
 62
     7
100
AcDbLine
 10
121.0840887845702
 20
144.2026949227825
 30
0.0
 11
120.1259007845702
 21
144.2026949227825
 31
0.0
  0
LINE
  5
241
330
1F
100
AcDbEntity
  8
1
  6
CONTINUOUS
 62
     7
100
AcDbLine
 10
121.0840887845702
 20
144.4399042251081
 30
0.0
 11
121.0840887845702
 21
144.2026949227825
 31
0.0
  0
LINE
  5
242
330
1F
100
AcDbEntity
  8
1
  6
CONTINUOUS
 62
     7
100
AcDbLine
 10
120.3143967845702
 20
144.4399042251081
 30
0.0
 11
121.0840887845702
 21
144.4399042251081
 31
0.0
  0
LINE
  5
243
330
1F
100
AcDbEntity
  8
1
  6
CONTINUOUS
 62
     7
100
AcDbLine
 10
121.0605267845702
 20
145.9699042251081
 30
0.0
 11
120.3143967845702
 21
144.4399042251081
 31
0.0
  0
LINE
  5
244
330
1F
100
AcDbEntity
  8
1
  6
CONTINUOUS
 62
     7
100
AcDbLine
 10
121.0605267845702
 20
146.1952530623174
 30
0.0
 11
121.0605267845702
 21
145.9699042251081
 31
0.0
  0
LINE
  5
245
330
1F
100
AcDbEntity
  8
1
  6
CONTINUOUS
 62
     7
100
AcDbLine
 10
120.1730247845702
 20
146.1952530623174
 30
0.0
 11
121.0605267845702
 21
146.1952530623174
 31
0.0
  0
LINE
  5
246
330
1F
100
AcDbEntity
  8
1
  6
CONTINUOUS
 62
     7
100
AcDbLine
 10
112.0503953883794
 20
148.0665181346157
 30
0.0
 11
112.0503953883794
 21
149.8246576694994
 31
0.0
  0
LINE
  5
247
330
1F
100
AcDbEntity
  8
1
  6
CONTINUOUS
 62
     7
100
AcDbLine
 10
112.8567953883794
 20
148.0665181346157
 30
0.0
 11
112.0503953883794
 21
148.0665181346157
 31
0.0
  0
LINE
  5
248
330
1F
100
AcDbEntity
  8
1
  6
CONTINUOUS
 62
     7
100
AcDbLine
 10
112.8567953883794
 20
148.275820460197
 30
0.0
 11
112.8567953883794
 21
148.0665181346157
 31
0.0
  0
LINE
  5
249
330
1F
100
AcDbEntity
  8
1
  6
CONTINUOUS
 62
     7
100
AcDbLine
 10
112.2159953883794
 20
148.275820460197
 30
0.0
 11
112.8567953883794
 21
148.275820460197
 31
0.0
  0
LINE
  5
24A
330
1F
100
AcDbEntity
  8
1
  6
CONTINUOUS
 62
     7
100
AcDbLine
 10
112.2159953883794
 20
148.8827972043831
 30
0.0
 11
112.2159953883794
 21
148.275820460197
 31
0.0
  0
LINE
  5
24B
330
1F
100
AcDbEntity
  8
1
  6
CONTINUOUS
 62
     7
100
AcDbLine
 10
112.7847953883794
 20
148.8827972043831
 30
0.0
 11
112.2159953883794
 21
148.8827972043831
 31
0.0
  0
LINE
  5
24C
330
1F
100
AcDbEntity
  8
1
  6
CONTINUOUS
 62
     7
100
AcDbLine
 10
112.7847953883794
 20
149.0920995299645
 30
0.0
 11
112.7847953883794
 21
148.8827972043831
 31
0.0
  0
LINE
  5
24D
330
1F
100
AcDbEntity
  8
1
  6
CONTINUOUS
 62
     7
100
AcDbLine
 10
112.2159953883794
 20
149.0920995299645
 30
0.0
 11
112.7847953883794
 21
149.0920995299645
 31
0.0
  0
LINE
  5
24E
330
1F
100
AcDbEntity
  8
1
  6
CONTINUOUS
 62
     7
100
AcDbLine
 10
112.2159953883794
 20
149.615355343918
 30
0.0
 11
112.2159953883794
 21
149.0920995299645
 31
0.0
  0
LINE
  5
24F
330
1F
100
AcDbEntity
  8
1
  6
CONTINUOUS
 62
     7
100
AcDbLine
 10
112.8279953883794
 20
149.615355343918
 30
0.0
 11
112.2159953883794
 21
149.615355343918
 31
0.0
  0
LINE
  5
250
330
1F
100
AcDbEntity
  8
1
  6
CONTINUOUS
 62
     7
100
AcDbLine
 10
112.8279953883794
 20
149.8246576694994
 30
0.0
 11
112.8279953883794
 21
149.615355343918
 31
0.0
  0
LINE
  5
251
330
1F
100
AcDbEntity
  8
1
  6
CONTINUOUS
 62
     7
100
AcDbLine
 10
112.0503953883794
 20
149.8246576694994
 30
0.0
 11
112.8279953883794
 21
149.8246576694994
 31
0.0
  0
LINE
  5
252
330
1F
100
AcDbEntity
  8
1
  6
CONTINUOUS
 62
     7
100
AcDbLine
 10
111.2655953883794
 20
149.615355343918
 30
0.0
 11
111.0135953883794
 21
149.615355343918
 31
0.0
  0
LINE
  5
253
330
1F
100
AcDbEntity
  8
1
  6
CONTINUOUS
 62
     7
100
AcDbLine
 10
111.3807953883794
 20
149.5839599950808
 30
0.0
 11
111.2655953883794
 21
149.615355343918
 31
0.0
  0
LINE
  5
254
330
1F
100
AcDbEntity
  8
1
  6
CONTINUOUS
 62
     7
100
AcDbLine
 10
111.4887953883794
 20
149.4897739485691
 30
0.0
 11
111.3807953883794
 21
149.5839599950808
 31
0.0
  0
LINE
  5
255
330
1F
100
AcDbEntity
  8
1
  6
CONTINUOUS
 62
     7
100
AcDbLine
 10
111.5823953883794
 20
149.2595413904296
 30
0.0
 11
111.4887953883794
 21
149.4897739485691
 31
0.0
  0
LINE
  5
256
330
1F
100
AcDbEntity
  8
1
  6
CONTINUOUS
 62
     7
100
AcDbLine
 10
111.6183953883794
 20
148.9351227857784
 30
0.0
 11
111.5823953883794
 21
149.2595413904296
 31
0.0
  0
LINE
  5
257
330
1F
100
AcDbEntity
  8
1
  6
CONTINUOUS
 62
     7
100
AcDbLine
 10
111.5823953883794
 20
148.6211692974063
 30
0.0
 11
111.6183953883794
 21
148.9351227857784
 31
0.0
  0
LINE
  5
258
330
1F
100
AcDbEntity
  8
1
  6
CONTINUOUS
 62
     7
100
AcDbLine
 10
111.4815953883794
 20
148.4014018555459
 30
0.0
 11
111.5823953883794
 21
148.6211692974063
 31
0.0
  0
LINE
  5
259
330
1F
100
AcDbEntity
  8
1
  6
CONTINUOUS
 62
     7
100
AcDbLine
 10
111.3807953883794
 20
148.3072158090342
 30
0.0
 11
111.4815953883794
 21
148.4014018555459
 31
0.0
  0
LINE
  5
25A
330
1F
100
AcDbEntity
  8
1
  6
CONTINUOUS
 62
     7
100
AcDbLine
 10
111.2655953883794
 20
148.275820460197
 30
0.0
 11
111.3807953883794
 21
148.3072158090342
 31
0.0
  0
LINE
  5
25B
330
1F
100
AcDbEntity
  8
1
  6
CONTINUOUS
 62
     7
100
AcDbLine
 10
111.0135953883794
 20
148.275820460197
 30
0.0
 11
111.2655953883794
 21
148.275820460197
 31
0.0
  0
LINE
  5
25C
330
1F
100
AcDbEntity
  8
1
  6
CONTINUOUS
 62
     7
100
AcDbLine
 10
111.0135953883794
 20
149.615355343918
 30
0.0
 11
111.0135953883794
 21
148.275820460197
 31
0.0
  0
LINE
  5
25D
330
1F
100
AcDbEntity
  8
1
  6
CONTINUOUS
 62
     7
100
AcDbLine
 10
110.8479953883794
 20
148.0665181346157
 30
0.0
 11
110.8479953883794
 21
149.8246576694994
 31
0.0
  0
LINE
  5
25E
330
1F
100
AcDbEntity
  8
1
  6
CONTINUOUS
 62
     7
100
AcDbLine
 10
111.2727953883794
 20
148.0665181346157
 30
0.0
 11
110.8479953883794
 21
148.0665181346157
 31
0.0
  0
LINE
  5
25F
330
1F
100
AcDbEntity
  8
1
  6
CONTINUOUS
 62
     7
100
AcDbLine
 10
111.4671953883794
 20
148.118843716011
 30
0.0
 11
111.2727953883794
 21
148.0665181346157
 31
0.0
  0
LINE
  5
260
330
1F
100
AcDbEntity
  8
1
  6
CONTINUOUS
 62
     7
100
AcDbLine
 10
111.6255953883794
 20
148.275820460197
 30
0.0
 11
111.4671953883794
 21
148.118843716011
 31
0.0
  0
LINE
  5
261
330
1F
100
AcDbEntity
  8
1
  6
CONTINUOUS
 62
     7
100
AcDbLine
 10
111.7407953883794
 20
148.5479134834529
 30
0.0
 11
111.6255953883794
 21
148.275820460197
 31
0.0
  0
LINE
  5
262
330
1F
100
AcDbEntity
  8
1
  6
CONTINUOUS
 62
     7
100
AcDbLine
 10
111.7839953883794
 20
148.9351227857784
 30
0.0
 11
111.7407953883794
 21
148.5479134834529
 31
0.0
  0
LINE
  5
263
330
1F
100
AcDbEntity
  8
1
  6
CONTINUOUS
 62
     7
100
AcDbLine
 10
111.7407953883794
 20
149.322332088104
 30
0.0
 11
111.7839953883794
 21
148.9351227857784
 31
0.0
  0
LINE
  5
264
330
1F
100
AcDbEntity
  8
1
  6
CONTINUOUS
 62
     7
100
AcDbLine
 10
111.6327953883794
 20
149.615355343918
 30
0.0
 11
111.7407953883794
 21
149.322332088104
 31
0.0
  0
LINE
  5
265
330
1F
100
AcDbEntity
  8
1
  6
CONTINUOUS
 62
     7
100
AcDbLine
 10
111.4671953883794
 20
149.772332088104
 30
0.0
 11
111.6327953883794
 21
149.615355343918
 31
0.0
  0
LINE
  5
266
330
1F
100
AcDbEntity
  8
1
  6
CONTINUOUS
 62
     7
100
AcDbLine
 10
111.2727953883794
 20
149.8246576694994
 30
0.0
 11
111.4671953883794
 21
149.772332088104
 31
0.0
  0
LINE
  5
267
330
1F
100
AcDbEntity
  8
1
  6
CONTINUOUS
 62
     7
100
AcDbLine
 10
110.8479953883794
 20
149.8246576694994
 30
0.0
 11
111.2727953883794
 21
149.8246576694994
 31
0.0
  0
LINE
  5
268
330
1F
100
AcDbEntity
  8
1
  6
CONTINUOUS
 62
     7
100
AcDbLine
 10
110.1783953883794
 20
149.615355343918
 30
0.0
 11
110.0487953883794
 21
149.6572158090343
 31
0.0
  0
LINE
  5
269
330
1F
100
AcDbEntity
  8
1
  6
CONTINUOUS
 62
     7
100
AcDbLine
 10
110.2935953883794
 20
149.5002390648482
 30
0.0
 11
110.1783953883794
 21
149.615355343918
 31
0.0
  0
LINE
  5
26A
330
1F
100
AcDbEntity
  8
1
  6
CONTINUOUS
 62
     7
100
AcDbLine
 10
110.3799953883794
 20
149.2804716229877
 30
0.0
 11
110.2935953883794
 21
149.5002390648482
 31
0.0
  0
LINE
  5
26B
330
1F
100
AcDbEntity
  8
1
  6
CONTINUOUS
 62
     7
100
AcDbLine
 10
110.4087953883794
 20
148.9560530183366
 30
0.0
 11
110.3799953883794
 21
149.2804716229877
 31
0.0
  0
LINE
  5
26C
330
1F
100
AcDbEntity
  8
1
  6
CONTINUOUS
 62
     7
100
AcDbLine
 10
110.3799953883794
 20
148.6316344136854
 30
0.0
 11
110.4087953883794
 21
148.9560530183366
 31
0.0
  0
LINE
  5
26D
330
1F
100
AcDbEntity
  8
1
  6
CONTINUOUS
 62
     7
100
AcDbLine
 10
110.2935953883794
 20
148.422332088104
 30
0.0
 11
110.3799953883794
 21
148.6316344136854
 31
0.0
  0
LINE
  5
26E
330
1F
100
AcDbEntity
  8
1
  6
CONTINUOUS
 62
     7
100
AcDbLine
 10
110.1783953883794
 20
148.2967506927552
 30
0.0
 11
110.2935953883794
 21
148.422332088104
 31
0.0
  0
LINE
  5
26F
330
1F
100
AcDbEntity
  8
1
  6
CONTINUOUS
 62
     7
100
AcDbLine
 10
110.0487953883794
 20
148.265355343918
 30
0.0
 11
110.1783953883794
 21
148.2967506927552
 31
0.0
  0
LINE
  5
270
330
1F
100
AcDbEntity
  8
1
  6
CONTINUOUS
 62
     7
100
AcDbLine
 10
109.9191953883794
 20
148.2967506927552
 30
0.0
 11
110.0487953883794
 21
148.265355343918
 31
0.0
  0
LINE
  5
271
330
1F
100
AcDbEntity
  8
1
  6
CONTINUOUS
 62
     7
100
AcDbLine
 10
109.8111953883794
 20
148.422332088104
 30
0.0
 11
109.9191953883794
 21
148.2967506927552
 31
0.0
  0
LINE
  5
272
330
1F
100
AcDbEntity
  8
1
  6
CONTINUOUS
 62
     7
100
AcDbLine
 10
109.7247953883794
 20
148.6316344136854
 30
0.0
 11
109.8111953883794
 21
148.422332088104
 31
0.0
  0
LINE
  5
273
330
1F
100
AcDbEntity
  8
1
  6
CONTINUOUS
 62
     7
100
AcDbLine
 10
109.6959953883794
 20
148.9560530183366
 30
0.0
 11
109.7247953883794
 21
148.6316344136854
 31
0.0
  0
LINE
  5
274
330
1F
100
AcDbEntity
  8
1
  6
CONTINUOUS
 62
     7
100
AcDbLine
 10
109.7247953883794
 20
149.2804716229877
 30
0.0
 11
109.6959953883794
 21
148.9560530183366
 31
0.0
  0
LINE
  5
275
330
1F
100
AcDbEntity
  8
1
  6
CONTINUOUS
 62
     7
100
AcDbLine
 10
109.8111953883794
 20
149.5002390648482
 30
0.0
 11
109.7247953883794
 21
149.2804716229877
 31
0.0
  0
LINE
  5
276
330
1F
100
AcDbEntity
  8
1
  6
CONTINUOUS
 62
     7
100
AcDbLine
 10
109.9191953883794
 20
149.615355343918
 30
0.0
 11
109.8111953883794
 21
149.5002390648482
 31
0.0
  0
LINE
  5
277
330
1F
100
AcDbEntity
  8
1
  6
CONTINUOUS
 62
     7
100
AcDbLine
 10
110.0487953883794
 20
149.6572158090343
 30
0.0
 11
109.9191953883794
 21
149.615355343918
 31
0.0
  0
LINE
  5
278
330
1F
100
AcDbEntity
  8
1
  6
CONTINUOUS
 62
     7
100
AcDbLine
 10
109.5663953883794
 20
148.568843716011
 30
0.0
 11
109.5231953883794
 21
148.9560530183366
 31
0.0
  0
LINE
  5
279
330
1F
100
AcDbEntity
  8
1
  6
CONTINUOUS
 62
     7
100
AcDbLine
 10
109.6959953883794
 20
148.2862855764761
 30
0.0
 11
109.5663953883794
 21
148.568843716011
 31
0.0
  0
LINE
  5
27A
330
1F
100
AcDbEntity
  8
1
  6
CONTINUOUS
 62
     7
100
AcDbLine
 10
109.8543953883794
 20
148.118843716011
 30
0.0
 11
109.6959953883794
 21
148.2862855764761
 31
0.0
  0
LINE
  5
27B
330
1F
100
AcDbEntity
  8
1
  6
CONTINUOUS
 62
     7
100
AcDbLine
 10
110.0487953883794
 20
148.0665181346157
 30
0.0
 11
109.8543953883794
 21
148.118843716011
 31
0.0
  0
LINE
  5
27C
330
1F
100
AcDbEntity
  8
1
  6
CONTINUOUS
 62
     7
100
AcDbLine
 10
110.2431953883794
 20
148.118843716011
 30
0.0
 11
110.0487953883794
 21
148.0665181346157
 31
0.0
  0
LINE
  5
27D
330
1F
100
AcDbEntity
  8
1
  6
CONTINUOUS
 62
     7
100
AcDbLine
 10
110.4087953883794
 20
148.2862855764761
 30
0.0
 11
110.2431953883794
 21
148.118843716011
 31
0.0
  0
LINE
  5
27E
330
1F
100
AcDbEntity
  8
1
  6
CONTINUOUS
 62
     7
100
AcDbLine
 10
110.5383953883794
 20
148.568843716011
 30
0.0
 11
110.4087953883794
 21
148.2862855764761
 31
0.0
  0
LINE
  5
27F
330
1F
100
AcDbEntity
  8
1
  6
CONTINUOUS
 62
     7
100
AcDbLine
 10
110.5815953883794
 20
148.9560530183366
 30
0.0
 11
110.5383953883794
 21
148.568843716011
 31
0.0
  0
LINE
  5
280
330
1F
100
AcDbEntity
  8
1
  6
CONTINUOUS
 62
     7
100
AcDbLine
 10
110.5383953883794
 20
149.3327972043831
 30
0.0
 11
110.5815953883794
 21
148.9560530183366
 31
0.0
  0
LINE
  5
281
330
1F
100
AcDbEntity
  8
1
  6
CONTINUOUS
 62
     7
100
AcDbLine
 10
110.4087953883794
 20
149.6362855764761
 30
0.0
 11
110.5383953883794
 21
149.3327972043831
 31
0.0
  0
LINE
  5
282
330
1F
100
AcDbEntity
  8
1
  6
CONTINUOUS
 62
     7
100
AcDbLine
 10
110.2431953883794
 20
149.7932623206622
 30
0.0
 11
110.4087953883794
 21
149.6362855764761
 31
0.0
  0
LINE
  5
283
330
1F
100
AcDbEntity
  8
1
  6
CONTINUOUS
 62
     7
100
AcDbLine
 10
110.0487953883794
 20
149.8455879020575
 30
0.0
 11
110.2431953883794
 21
149.7932623206622
 31
0.0
  0
LINE
  5
284
330
1F
100
AcDbEntity
  8
1
  6
CONTINUOUS
 62
     7
100
AcDbLine
 10
109.8543953883794
 20
149.7932623206622
 30
0.0
 11
110.0487953883794
 21
149.8455879020575
 31
0.0
  0
LINE
  5
285
330
1F
100
AcDbEntity
  8
1
  6
CONTINUOUS
 62
     7
100
AcDbLine
 10
109.6959953883794
 20
149.6362855764761
 30
0.0
 11
109.8543953883794
 21
149.7932623206622
 31
0.0
  0
LINE
  5
286
330
1F
100
AcDbEntity
  8
1
  6
CONTINUOUS
 62
     7
100
AcDbLine
 10
109.5663953883794
 20
149.3327972043831
 30
0.0
 11
109.6959953883794
 21
149.6362855764761
 31
0.0
  0
LINE
  5
287
330
1F
100
AcDbEntity
  8
1
  6
CONTINUOUS
 62
     7
100
AcDbLine
 10
109.5231953883794
 20
148.9560530183366
 30
0.0
 11
109.5663953883794
 21
149.3327972043831
 31
0.0
  0
LINE
  5
288
330
1F
100
AcDbEntity
  8
1
  6
CONTINUOUS
 62
     7
100
AcDbLine
 10
108.1695953883794
 20
148.0769832508947
 30
0.0
 11
108.1695953883794
 21
149.8246576694994
 31
0.0
  0
LINE
  5
289
330
1F
100
AcDbEntity
  8
1
  6
CONTINUOUS
 62
     7
100
AcDbLine
 10
108.3351953883794
 20
148.0769832508947
 30
0.0
 11
108.1695953883794
 21
148.0769832508947
 31
0.0
  0
LINE
  5
28A
330
1F
100
AcDbEntity
  8
1
  6
CONTINUOUS
 62
     7
100
AcDbLine
 10
108.3351953883794
 20
149.4165181346156
 30
0.0
 11
108.3351953883794
 21
148.0769832508947
 31
0.0
  0
LINE
  5
28B
330
1F
100
AcDbEntity
  8
1
  6
CONTINUOUS
 62
     7
100
AcDbLine
 10
108.6519953883794
 20
148.0769832508947
 30
0.0
 11
108.3351953883794
 21
149.4165181346156
 31
0.0
  0
LINE
  5
28C
330
1F
100
AcDbEntity
  8
1
  6
CONTINUOUS
 62
     7
100
AcDbLine
 10
108.7671953883794
 20
148.0769832508947
 30
0.0
 11
108.6519953883794
 21
148.0769832508947
 31
0.0
  0
LINE
  5
28D
330
1F
100
AcDbEntity
  8
1
  6
CONTINUOUS
 62
     7
100
AcDbLine
 10
109.0839953883794
 20
149.4165181346156
 30
0.0
 11
108.7671953883794
 21
148.0769832508947
 31
0.0
  0
LINE
  5
28E
330
1F
100
AcDbEntity
  8
1
  6
CONTINUOUS
 62
     7
100
AcDbLine
 10
109.0839953883794
 20
148.0769832508947
 30
0.0
 11
109.0839953883794
 21
149.4165181346156
 31
0.0
  0
LINE
  5
28F
330
1F
100
AcDbEntity
  8
1
  6
CONTINUOUS
 62
     7
100
AcDbLine
 10
109.2495953883794
 20
148.0769832508947
 30
0.0
 11
109.0839953883794
 21
148.0769832508947
 31
0.0
  0
LINE
  5
290
330
1F
100
AcDbEntity
  8
1
  6
CONTINUOUS
 62
     7
100
AcDbLine
 10
109.2495953883794
 20
149.8246576694994
 30
0.0
 11
109.2495953883794
 21
148.0769832508947
 31
0.0
  0
LINE
  5
291
330
1F
100
AcDbEntity
  8
1
  6
CONTINUOUS
 62
     7
100
AcDbLine
 10
109.0335953883794
 20
149.8246576694994
 30
0.0
 11
109.2495953883794
 21
149.8246576694994
 31
0.0
  0
LINE
  5
292
330
1F
100
AcDbEntity
  8
1
  6
CONTINUOUS
 62
     7
100
AcDbLine
 10
108.7095953883794
 20
148.4746576694994
 30
0.0
 11
109.0335953883794
 21
149.8246576694994
 31
0.0
  0
LINE
  5
293
330
1F
100
AcDbEntity
  8
1
  6
CONTINUOUS
 62
     7
100
AcDbLine
 10
108.3855953883794
 20
149.8246576694994
 30
0.0
 11
108.7095953883794
 21
148.4746576694994
 31
0.0
  0
LINE
  5
294
330
1F
100
AcDbEntity
  8
1
  6
CONTINUOUS
 62
     7
100
AcDbLine
 10
108.1695953883794
 20
149.8246576694994
 30
0.0
 11
108.3855953883794
 21
149.8246576694994
 31
0.0
  0
LINE
  5
295
330
1F
100
AcDbEntity
  8
1
  6
CONTINUOUS
 62
     7
100
AcDbLine
 10
113.1963953883792
 20
139.4472447123711
 30
0.0
 11
113.3483953883792
 21
139.5532912239991
 31
0.0
  0
LINE
  5
296
330
1F
100
AcDbEntity
  8
1
  6
CONTINUOUS
 62
     7
100
AcDbLine
 10
113.0291953883792
 20
139.4118958751618
 30
0.0
 11
113.1963953883792
 21
139.4472447123711
 31
0.0
  0
LINE
  5
297
330
1F
100
AcDbEntity
  8
1
  6
CONTINUOUS
 62
     7
100
AcDbLine
 10
112.8923953883792
 20
139.4118958751618
 30
0.0
 11
113.0291953883792
 21
139.4118958751618
 31
0.0
  0
LINE
  5
298
330
1F
100
AcDbEntity
  8
1
  6
CONTINUOUS
 62
     7
100
AcDbLine
 10
112.8923953883792
 20
139.1821284333014
 30
0.0
 11
112.8923953883792
 21
139.4118958751618
 31
0.0
  0
LINE
  5
299
330
1F
100
AcDbEntity
  8
1
  6
CONTINUOUS
 62
     7
100
AcDbLine
 10
113.3331953883792
 20
139.1821284333014
 30
0.0
 11
112.8923953883792
 21
139.1821284333014
 31
0.0
  0
LINE
  5
29A
330
1F
100
AcDbEntity
  8
1
  6
CONTINUOUS
 62
     7
100
AcDbLine
 10
113.3331953883792
 20
136.9021284333014
 30
0.0
 11
113.3331953883792
 21
139.1821284333014
 31
0.0
  0
LINE
  5
29B
330
1F
100
AcDbEntity
  8
1
  6
CONTINUOUS
 62
     7
100
AcDbLine
 10
113.6827953883792
 20
136.9021284333014
 30
0.0
 11
113.3331953883792
 21
136.9021284333014
 31
0.0
  0
LINE
  5
29C
330
1F
100
AcDbEntity
  8
1
  6
CONTINUOUS
 62
     7
100
AcDbLine
 10
113.6827953883792
 20
139.8891051774874
 30
0.0
 11
113.6827953883792
 21
136.9021284333014
 31
0.0
  0
LINE
  5
29D
330
1F
100
AcDbEntity
  8
1
  6
CONTINUOUS
 62
     7
100
AcDbLine
 10
113.5003953883792
 20
139.8891051774874
 30
0.0
 11
113.6827953883792
 21
139.8891051774874
 31
0.0
  0
LINE
  5
29E
330
1F
100
AcDbEntity
  8
1
  6
CONTINUOUS
 62
     7
100
AcDbLine
 10
113.4547953883792
 20
139.7123609914409
 30
0.0
 11
113.5003953883792
 21
139.8891051774874
 31
0.0
  0
LINE
  5
29F
330
1F
100
AcDbEntity
  8
1
  6
CONTINUOUS
 62
     7
100
AcDbLine
 10
113.3483953883792
 20
139.5532912239991
 30
0.0
 11
113.4547953883792
 21
139.7123609914409
 31
0.0
  0
LINE
  5
2A0
330
1F
100
AcDbEntity
  8
1
  6
DOT_CENTER
 62
     7
100
AcDbLine
 10
132.736623159917
 20
175.5887888911399
 30
0.0
 11
95.73662315991699
 21
175.5887888911399
 31
0.0
  0
LINE
  5
2A1
330
1F
100
AcDbEntity
  8
1
  6
CONTINUOUS
 62
     7
100
AcDbLine
 10
218.2983088031
 20
210.1684624337
 30
0.0
 11
218.2983088031
 21
209.0489754461
 31
0.0
  0
LINE
  5
2A2
330
1F
100
AcDbEntity
  8
1
  6
CONTINUOUS
 62
     7
100
AcDbLine
 10
165.8264082115
 20
123.748973199
 30
0.0
 11
165.8264082115
 21
125.7489735269
 31
0.0
  0
LINE
  5
2A3
330
1F
100
AcDbEntity
  8
1
  6
CONTINUOUS
 62
     7
100
AcDbLine
 10
165.8264082115
 20
212.7489747488
 30
0.0
 11
165.8264082115
 21
210.7489744209
 31
0.0
  0
LINE
  5
2A4
330
1F
100
AcDbEntity
  8
1
  6
CONTINUOUS
 62
     7
100
AcDbLine
 10
105.9367114788673
 20
210.749050126339
 30
0.0
 11
105.9367114788673
 21
207.7315190815
 31
0.0
  0
LINE
  5
2A5
330
1F
100
AcDbEntity
  8
1
  6
CONTINUOUS
 62
     7
100
AcDbLine
 10
105.9367114788673
 20
125.748897821461
 30
0.0
 11
105.9367114788673
 21
129.2664298796
 31
0.0
  0
LINE
  5
2A6
330
1F
100
AcDbEntity
  8
1
  6
CONTINUOUS
 62
     7
100
AcDbLine
 10
126.4367114788203
 20
210.749050126339
 30
0.0
 11
126.4367114788203
 21
125.748897821461
 31
0.0
  0
LINE
  5
2E4
330
1F
100
AcDbEntity
  8
0
  6
CONTINUOUS
 62
     7
100
AcDbLine
 10
162.8962496951
 20
212.0489740752
 30
0.0
 11
162.8962496951
 21
210.7490489267
 31
0.0
  0
LINE
  5
2E5
330
1F
100
AcDbEntity
  8
0
  6
CONTINUOUS
 62
     7
100
AcDbLine
 10
162.8962496951
 20
125.7488990211
 30
0.0
 11
162.8962496951
 21
210.7490489267
 31
0.0
  0
LINE
  5
2E6
330
1F
100
AcDbEntity
  8
0
  6
CONTINUOUS
 62
     7
100
AcDbLine
 10
162.8962496951
 20
125.7488990211
 30
0.0
 11
162.8962496951
 21
124.4489738726
 31
0.0
  0
LINE
  5
2E7
330
1F
100
AcDbEntity
  8
0
  6
CONTINUOUS
 62
     7
100
AcDbLine
 10
163.5962496701
 20
212.7489747488
 30
0.0
 11
162.8962496951
 21
212.0489740752
 31
0.0
  0
LINE
  5
2E8
330
1F
100
AcDbEntity
  8
0
  6
CONTINUOUS
 62
     7
100
AcDbLine
 10
162.8962496951
 20
124.4489738726
 30
0.0
 11
163.5962496701
 21
123.748973199
 31
0.0
  0
LINE
  5
2E9
330
1F
100
AcDbEntity
  8
0
  6
CONTINUOUS
 62
     7
100
AcDbLine
 10
165.8264082115
 20
210.7489744209
 30
0.0
 11
217.7886890903
 21
210.7489744209
 31
0.0
  0
LINE
  5
2EA
330
1F
100
AcDbEntity
  8
0
  6
CONTINUOUS
 62
     7
100
AcDbLine
 10
217.7886890903
 20
210.7489744209
 30
0.0
 11
217.7893521919
 21
210.7489744209
 31
0.0
  0
LINE
  5
2EB
330
1F
100
AcDbEntity
  8
0
  6
CONTINUOUS
 62
     7
100
AcDbLine
 10
218.2874495819
 20
210.2925518536
 30
0.0
 11
218.2983088031
 21
210.1684624337
 31
0.0
  0
LINE
  5
2EC
330
1F
100
AcDbEntity
  8
0
  6
CONTINUOUS
 62
     7
100
AcDbLine
 10
165.8264082115
 20
125.7489735269
 30
0.0
 11
232.3962489798
 21
125.7489735269
 31
0.0
  0
LINE
  5
2ED
330
1F
100
AcDbEntity
  8
0
  6
CONTINUOUS
 62
     7
100
AcDbLine
 10
218.2983088031
 20
209.0489754461
 30
0.0
 11
232.3962489798
 21
209.0489754461
 31
0.0
  0
LINE
  5
2EE
330
1F
100
AcDbEntity
  8
0
  6
CONTINUOUS
 62
     7
100
AcDbLine
 10
232.8962499931
 20
126.2489745401
 30
0.0
 11
232.8962499931
 21
208.5489744329
 31
0.0
  0
LINE
  5
2EF
330
1F
100
AcDbEntity
  8
0
  6
CONTINUOUS
 62
     7
100
AcDbLine
 10
165.8264082115
 20
212.7489747488
 30
0.0
 11
163.5962496701
 21
212.7489747488
 31
0.0
  0
LINE
  5
2F0
330
1F
100
AcDbEntity
  8
0
  6
CONTINUOUS
 62
     7
100
AcDbLine
 10
163.5962496701
 20
123.748973199
 30
0.0
 11
165.8264082115
 21
123.748973199
 31
0.0
  0
LINE
  5
2F1
330
1F
100
AcDbEntity
  8
0
  6
CONTINUOUS
 62
     7
100
AcDbLine
 10
183.2462495848
 20
128.9489755415
 30
0.0
 11
189.2462505683
 21
128.9489755415
 31
0.0
  0
LINE
  5
2F2
330
1F
100
AcDbEntity
  8
0
  6
CONTINUOUS
 62
     7
100
AcDbLine
 10
189.2462505683
 20
131.5489748501
 30
0.0
 11
183.2462495848
 21
131.5489748501
 31
0.0
  0
LINE
  5
2F3
330
1F
100
AcDbEntity
  8
0
  6
CONTINUOUS
 62
     7
100
AcDbLine
 10
179.4667674884
 20
133.2489738249
 30
0.0
 11
225.8962507083
 21
133.2489738249
 31
0.0
  0
LINE
  5
2F4
330
1F
100
AcDbEntity
  8
0
  6
CONTINUOUS
 62
     7
100
AcDbLine
 10
179.4667674884
 20
133.2489738249
 30
0.0
 11
177.8962493598
 21
134.7714217388
 31
0.0
  0
LINE
  5
2F5
330
1F
100
AcDbEntity
  8
0
  6
CONTINUOUS
 62
     7
100
AcDbLine
 10
177.8962493598
 20
203.2489741229
 30
0.0
 11
177.8962493598
 21
134.7714217388
 31
0.0
  0
LINE
  5
2F6
330
1F
100
AcDbEntity
  8
0
  6
CONTINUOUS
 62
     7
100
AcDbLine
 10
225.8962507083
 20
203.2489741229
 30
0.0
 11
177.8962493598
 21
203.2489741229
 31
0.0
  0
LINE
  5
2F7
330
1F
100
AcDbEntity
  8
0
  6
CONTINUOUS
 62
     7
100
AcDbLine
 10
225.8962507083
 20
133.2489738249
 30
0.0
 11
225.8962507083
 21
203.2489741229
 31
0.0
  0
LINE
  5
2F8
330
1F
100
AcDbEntity
  8
0
  6
CONTINUOUS
 62
     7
100
AcDbLine
 10
228.5462508633
 20
134.648975172
 30
0.0
 11
230.0462464526
 21
134.648975172
 31
0.0
  0
LINE
  5
2F9
330
1F
100
AcDbEntity
  8
0
  6
CONTINUOUS
 62
     7
100
AcDbLine
 10
228.5462508633
 20
138.2489746444
 30
0.0
 11
228.5462508633
 21
134.648975172
 31
0.0
  0
LINE
  5
2FA
330
1F
100
AcDbEntity
  8
0
  6
CONTINUOUS
 62
     7
100
AcDbLine
 10
230.0462464526
 20
138.2489746444
 30
0.0
 11
228.5462508633
 21
138.2489746444
 31
0.0
  0
LINE
  5
2FB
330
1F
100
AcDbEntity
  8
0
  6
CONTINUOUS
 62
     7
100
AcDbLine
 10
230.0462464526
 20
134.648975172
 30
0.0
 11
230.0462464526
 21
138.2489746444
 31
0.0
  0
LINE
  5
2FC
330
1F
100
AcDbEntity
  8
0
  6
CONTINUOUS
 62
     7
100
AcDbLine
 10
162.0462496838
 20
141.1642117434
 30
0.0
 11
162.0462496838
 21
142.7489744507
 31
0.0
  0
LINE
  5
2FD
330
1F
100
AcDbEntity
  8
0
  6
CONTINUOUS
 62
     7
100
AcDbLine
 10
162.0462496838
 20
142.7489744507
 30
0.0
 11
162.0462496838
 21
144.3337352954
 31
0.0
  0
LINE
  5
2FE
330
1F
100
AcDbEntity
  8
0
  6
CONTINUOUS
 62
     7
100
AcDbLine
 10
162.0462496838
 20
131.6642129802
 30
0.0
 11
162.0462496838
 21
133.2489738249
 31
0.0
  0
LINE
  5
2FF
330
1F
100
AcDbEntity
  8
0
  6
CONTINUOUS
 62
     7
100
AcDbLine
 10
162.0462496838
 20
133.2489738249
 30
0.0
 11
162.0462496838
 21
134.8337346696
 31
0.0
  0
LINE
  5
300
330
1F
100
AcDbEntity
  8
0
  6
CONTINUOUS
 62
     7
100
AcDbLine
 10
162.0462496838
 20
150.6642123692
 30
0.0
 11
162.0462496838
 21
152.2489732139
 31
0.0
  0
LINE
  5
301
330
1F
100
AcDbEntity
  8
0
  6
CONTINUOUS
 62
     7
100
AcDbLine
 10
162.0462496838
 20
152.2489732139
 30
0.0
 11
162.0462496838
 21
153.83373499
 31
0.0
  0
LINE
  5
302
330
1F
100
AcDbEntity
  8
0
  6
CONTINUOUS
 62
     7
100
AcDbLine
 10
162.0462496838
 20
160.1642120638
 30
0.0
 11
162.0462496838
 21
161.7489738398
 31
0.0
  0
LINE
  5
303
330
1F
100
AcDbEntity
  8
0
  6
CONTINUOUS
 62
     7
100
AcDbLine
 10
162.0462496838
 20
161.7489738398
 30
0.0
 11
162.0462496838
 21
163.3337356158
 31
0.0
  0
LINE
  5
304
330
1F
100
AcDbEntity
  8
0
  6
CONTINUOUS
 62
     7
100
AcDbLine
 10
218.8962514236
 20
210.0489737474
 30
0.0
 11
223.0962480142
 21
210.0489737474
 31
0.0
  0
LINE
  5
305
330
1F
100
AcDbEntity
  8
0
  6
CONTINUOUS
 62
     7
100
AcDbLine
 10
223.0962480142
 20
210.0489737474
 30
0.0
 11
223.0962480142
 21
209.0489754461
 31
0.0
  0
LINE
  5
306
330
1F
100
AcDbEntity
  8
0
  6
CONTINUOUS
 62
     7
100
AcDbLine
 10
223.0962480142
 20
210.0489737474
 30
0.0
 11
223.8962503805
 21
210.0489737474
 31
0.0
  0
LINE
  5
307
330
1F
100
AcDbEntity
  8
0
  6
CONTINUOUS
 62
     7
100
AcDbLine
 10
223.5962490275
 20
209.7489723944
 30
0.0
 11
223.5962490275
 21
209.0489754461
 31
0.0
  0
LINE
  5
308
330
1F
100
AcDbEntity
  8
0
  6
CONTINUOUS
 62
     7
100
AcDbLine
 10
223.8962503805
 20
210.0489737474
 30
0.0
 11
232.296247287
 21
210.0489737474
 31
0.0
  0
LINE
  5
309
330
1F
100
AcDbEntity
  8
0
  6
CONTINUOUS
 62
     7
100
AcDbLine
 10
232.3962489798
 20
209.0489754461
 30
0.0
 11
232.5962523654
 21
209.0489754461
 31
0.0
  0
LINE
  5
30A
330
1F
100
AcDbEntity
  8
0
  6
CONTINUOUS
 62
     7
100
AcDbLine
 10
232.5962523654
 20
209.7489723944
 30
0.0
 11
232.5962523654
 21
209.0489754461
 31
0.0
  0
LINE
  5
30B
330
1F
100
AcDbEntity
  8
0
  6
CONTINUOUS
 62
     7
100
AcDbLine
 10
154.0962497427
 20
173.2487368405
 30
0.0
 11
154.0962497427
 21
173.2472723358
 31
0.0
  0
LINE
  5
30C
330
1F
100
AcDbEntity
  8
0
  6
CONTINUOUS
 62
     7
100
AcDbLine
 10
162.3962496713
 20
173.2487368405
 30
0.0
 11
154.0962497427
 21
173.2487368405
 31
0.0
  0
LINE
  5
30D
330
1F
100
AcDbEntity
  8
0
  6
CONTINUOUS
 62
     7
100
AcDbLine
 10
154.0962497427
 20
165.3137935334
 30
0.0
 11
154.0962497427
 21
165.2492112022
 31
0.0
  0
LINE
  5
30E
330
1F
100
AcDbEntity
  8
0
  6
CONTINUOUS
 62
     7
100
AcDbLine
 10
162.3962496713
 20
165.2492112022
 30
0.0
 11
154.0962497427
 21
165.2492112022
 31
0.0
  0
LINE
  5
30F
330
1F
100
AcDbEntity
  8
0
  6
CONTINUOUS
 62
     7
100
AcDbLine
 10
154.0962497427
 20
173.2472723358
 30
0.0
 11
154.0962497427
 21
173.1522751049
 31
0.0
  0
LINE
  5
310
330
1F
100
AcDbEntity
  8
0
  6
CONTINUOUS
 62
     7
100
AcDbLine
 10
154.0962497427
 20
173.2472723358
 30
0.0
 11
162.3962496713
 21
173.2472723358
 31
0.0
  0
LINE
  5
311
330
1F
100
AcDbEntity
  8
0
  6
CONTINUOUS
 62
     7
100
AcDbLine
 10
154.0962497427
 20
165.3275582482
 30
0.0
 11
154.0962497427
 21
165.3137935334
 31
0.0
  0
LINE
  5
312
330
1F
100
AcDbEntity
  8
0
  6
CONTINUOUS
 62
     7
100
AcDbLine
 10
154.0962497427
 20
165.3137935334
 30
0.0
 11
162.3962496713
 21
165.3137935334
 31
0.0
  0
LINE
  5
313
330
1F
100
AcDbEntity
  8
0
  6
CONTINUOUS
 62
     7
100
AcDbLine
 10
154.0962497427
 20
173.1522751049
 30
0.0
 11
154.0962497427
 21
173.1356458746
 31
0.0
  0
LINE
  5
314
330
1F
100
AcDbEntity
  8
0
  6
CONTINUOUS
 62
     7
100
AcDbLine
 10
162.3962496713
 20
173.1522751049
 30
0.0
 11
154.0962497427
 21
173.1522751049
 31
0.0
  0
LINE
  5
315
330
1F
100
AcDbEntity
  8
0
  6
CONTINUOUS
 62
     7
100
AcDbLine
 10
154.0962497427
 20
165.5488977682
 30
0.0
 11
154.0962497427
 21
165.3275582482
 31
0.0
  0
LINE
  5
316
330
1F
100
AcDbEntity
  8
0
  6
CONTINUOUS
 62
     7
100
AcDbLine
 10
162.3962496713
 20
165.3275582482
 30
0.0
 11
154.0962497427
 21
165.3275582482
 31
0.0
  0
LINE
  5
317
330
1F
100
AcDbEntity
  8
0
  6
CONTINUOUS
 62
     7
100
AcDbLine
 10
154.0962497427
 20
173.1356458746
 30
0.0
 11
154.0962497427
 21
172.8852202193
 31
0.0
  0
LINE
  5
318
330
1F
100
AcDbEntity
  8
0
  6
CONTINUOUS
 62
     7
100
AcDbLine
 10
154.0962497427
 20
173.1356458746
 30
0.0
 11
162.3962496713
 21
173.1356458746
 31
0.0
  0
LINE
  5
319
330
1F
100
AcDbEntity
  8
0
  6
CONTINUOUS
 62
     7
100
AcDbLine
 10
154.0962497427
 20
165.5772900683
 30
0.0
 11
154.0962497427
 21
165.5488977682
 31
0.0
  0
LINE
  5
31A
330
1F
100
AcDbEntity
  8
0
  6
CONTINUOUS
 62
     7
100
AcDbLine
 10
154.0962497427
 20
165.5488977682
 30
0.0
 11
162.3962496713
 21
165.5488977682
 31
0.0
  0
LINE
  5
31B
330
1F
100
AcDbEntity
  8
0
  6
CONTINUOUS
 62
     7
100
AcDbLine
 10
154.0962497427
 20
172.8852202193
 30
0.0
 11
154.0962497427
 21
172.8541526951
 31
0.0
  0
LINE
  5
31C
330
1F
100
AcDbEntity
  8
0
  6
CONTINUOUS
 62
     7
100
AcDbLine
 10
162.3962496713
 20
172.8852202193
 30
0.0
 11
154.0962497427
 21
172.8852202193
 31
0.0
  0
LINE
  5
31D
330
1F
100
AcDbEntity
  8
0
  6
CONTINUOUS
 62
     7
100
AcDbLine
 10
154.0962497427
 20
165.9457131297
 30
0.0
 11
154.0962497427
 21
165.5772900683
 31
0.0
  0
LINE
  5
31E
330
1F
100
AcDbEntity
  8
0
  6
CONTINUOUS
 62
     7
100
AcDbLine
 10
162.3962496713
 20
165.5772900683
 30
0.0
 11
154.0962497427
 21
165.5772900683
 31
0.0
  0
LINE
  5
31F
330
1F
100
AcDbEntity
  8
0
  6
CONTINUOUS
 62
     7
100
AcDbLine
 10
154.0962497427
 20
172.8541526951
 30
0.0
 11
154.0962497427
 21
172.4592439838
 31
0.0
  0
LINE
  5
320
330
1F
100
AcDbEntity
  8
0
  6
CONTINUOUS
 62
     7
100
AcDbLine
 10
154.0962497427
 20
172.8541526951
 30
0.0
 11
162.3962496713
 21
172.8541526951
 31
0.0
  0
LINE
  5
321
330
1F
100
AcDbEntity
  8
0
  6
CONTINUOUS
 62
     7
100
AcDbLine
 10
154.0962497427
 20
165.9874920276
 30
0.0
 11
154.0962497427
 21
165.9457131297
 31
0.0
  0
LINE
  5
322
330
1F
100
AcDbEntity
  8
0
  6
CONTINUOUS
 62
     7
100
AcDbLine
 10
154.0962497427
 20
165.9457131297
 30
0.0
 11
162.3962496713
 21
165.9457131297
 31
0.0
  0
LINE
  5
323
330
1F
100
AcDbEntity
  8
0
  6
CONTINUOUS
 62
     7
100
AcDbLine
 10
154.0962497427
 20
172.4592439838
 30
0.0
 11
154.0962497427
 21
172.4150960342
 31
0.0
  0
LINE
  5
324
330
1F
100
AcDbEntity
  8
0
  6
CONTINUOUS
 62
     7
100
AcDbLine
 10
162.3962496713
 20
172.4592439838
 30
0.0
 11
154.0962497427
 21
172.4592439838
 31
0.0
  0
LINE
  5
325
330
1F
100
AcDbEntity
  8
0
  6
CONTINUOUS
 62
     7
100
AcDbLine
 10
154.0962497427
 20
166.4868969944
 30
0.0
 11
154.0962497427
 21
165.9874920276
 31
0.0
  0
LINE
  5
326
330
1F
100
AcDbEntity
  8
0
  6
CONTINUOUS
 62
     7
100
AcDbLine
 10
162.3962496713
 20
165.9874920276
 30
0.0
 11
154.0962497427
 21
165.9874920276
 31
0.0
  0
LINE
  5
327
330
1F
100
AcDbEntity
  8
0
  6
CONTINUOUS
 62
     7
100
AcDbLine
 10
154.0962497427
 20
172.4150960342
 30
0.0
 11
154.0962497427
 21
171.8929637697
 31
0.0
  0
LINE
  5
328
330
1F
100
AcDbEntity
  8
0
  6
CONTINUOUS
 62
     7
100
AcDbLine
 10
154.0962497427
 20
172.4150960342
 30
0.0
 11
162.3962496713
 21
172.4150960342
 31
0.0
  0
LINE
  5
329
330
1F
100
AcDbEntity
  8
0
  6
CONTINUOUS
 62
     7
100
AcDbLine
 10
154.0962497427
 20
166.5402365158
 30
0.0
 11
154.0962497427
 21
166.4868969944
 31
0.0
  0
LINE
  5
32A
330
1F
100
AcDbEntity
  8
0
  6
CONTINUOUS
 62
     7
100
AcDbLine
 10
154.0962497427
 20
166.4868969944
 30
0.0
 11
162.3962496713
 21
166.4868969944
 31
0.0
  0
LINE
  5
32B
330
1F
100
AcDbEntity
  8
0
  6
CONTINUOUS
 62
     7
100
AcDbLine
 10
154.0962497427
 20
171.8929637697
 30
0.0
 11
154.0962497427
 21
171.837664862
 31
0.0
  0
LINE
  5
32C
330
1F
100
AcDbEntity
  8
0
  6
CONTINUOUS
 62
     7
100
AcDbLine
 10
162.3962496713
 20
171.8929637697
 30
0.0
 11
154.0962497427
 21
171.8929637697
 31
0.0
  0
LINE
  5
32D
330
1F
100
AcDbEntity
  8
0
  6
CONTINUOUS
 62
     7
100
AcDbLine
 10
154.0962497427
 20
167.0750396567
 30
0.0
 11
154.0962497427
 21
166.5402365158
 31
0.0
  0
LINE
  5
32E
330
1F
100
AcDbEntity
  8
0
  6
CONTINUOUS
 62
     7
100
AcDbLine
 10
162.3962496713
 20
166.5402365158
 30
0.0
 11
154.0962497427
 21
166.5402365158
 31
0.0
  0
LINE
  5
32F
330
1F
100
AcDbEntity
  8
0
  6
CONTINUOUS
 62
     7
100
AcDbLine
 10
154.0962497427
 20
171.837664862
 30
0.0
 11
154.0962497427
 21
171.3062445175
 31
0.0
  0
LINE
  5
330
330
1F
100
AcDbEntity
  8
0
  6
CONTINUOUS
 62
     7
100
AcDbLine
 10
154.0962497427
 20
171.837664862
 30
0.0
 11
162.3962496713
 21
171.837664862
 31
0.0
  0
LINE
  5
331
330
1F
100
AcDbEntity
  8
0
  6
CONTINUOUS
 62
     7
100
AcDbLine
 10
154.0962497427
 20
167.1487967957
 30
0.0
 11
154.0962497427
 21
167.0750396567
 31
0.0
  0
LINE
  5
332
330
1F
100
AcDbEntity
  8
0
  6
CONTINUOUS
 62
     7
100
AcDbLine
 10
162.7962496976
 20
167.0750396567
 30
0.0
 11
154.0962497427
 21
167.0750396567
 31
0.0
  0
LINE
  5
333
330
1F
100
AcDbEntity
  8
0
  6
CONTINUOUS
 62
     7
100
AcDbLine
 10
154.0962497427
 20
167.2113657239
 30
0.0
 11
154.0962497427
 21
167.1487967957
 31
0.0
  0
LINE
  5
334
330
1F
100
AcDbEntity
  8
0
  6
CONTINUOUS
 62
     7
100
AcDbLine
 10
154.0962497427
 20
167.1487967957
 30
0.0
 11
162.3962496713
 21
167.1487967957
 31
0.0
  0
LINE
  5
335
330
1F
100
AcDbEntity
  8
0
  6
CONTINUOUS
 62
     7
100
AcDbLine
 10
154.0962497427
 20
167.7191471805
 30
0.0
 11
154.0962497427
 21
167.2113657239
 31
0.0
  0
LINE
  5
336
330
1F
100
AcDbEntity
  8
0
  6
CONTINUOUS
 62
     7
100
AcDbLine
 10
162.3962496713
 20
167.2113657239
 30
0.0
 11
154.0962497427
 21
167.2113657239
 31
0.0
  0
LINE
  5
337
330
1F
100
AcDbEntity
  8
0
  6
CONTINUOUS
 62
     7
100
AcDbLine
 10
154.0962497427
 20
171.3062445175
 30
0.0
 11
154.0962497427
 21
171.211128543
 31
0.0
  0
LINE
  5
338
330
1F
100
AcDbEntity
  8
0
  6
CONTINUOUS
 62
     7
100
AcDbLine
 10
162.7962496976
 20
171.3062445175
 30
0.0
 11
154.0962497427
 21
171.3062445175
 31
0.0
  0
LINE
  5
339
330
1F
100
AcDbEntity
  8
0
  6
CONTINUOUS
 62
     7
100
AcDbLine
 10
154.0962497427
 20
171.211128543
 30
0.0
 11
154.0962497427
 21
171.1470952266
 31
0.0
  0
LINE
  5
33A
330
1F
100
AcDbEntity
  8
0
  6
CONTINUOUS
 62
     7
100
AcDbLine
 10
162.3962496713
 20
171.211128543
 30
0.0
 11
154.0962497427
 21
171.211128543
 31
0.0
  0
LINE
  5
33B
330
1F
100
AcDbEntity
  8
0
  6
CONTINUOUS
 62
     7
100
AcDbLine
 10
154.0962497427
 20
171.1470952266
 30
0.0
 11
154.0962497427
 21
170.6470634796
 31
0.0
  0
LINE
  5
33C
330
1F
100
AcDbEntity
  8
0
  6
CONTINUOUS
 62
     7
100
AcDbLine
 10
154.0962497427
 20
171.1470952266
 30
0.0
 11
162.3962496713
 21
171.1470952266
 31
0.0
  0
LINE
  5
33D
330
1F
100
AcDbEntity
  8
0
  6
CONTINUOUS
 62
     7
100
AcDbLine
 10
154.0962497427
 20
167.9024843449
 30
0.0
 11
154.0962497427
 21
167.7191471805
 31
0.0
  0
LINE
  5
33E
330
1F
100
AcDbEntity
  8
0
  6
CONTINUOUS
 62
     7
100
AcDbLine
 10
162.7962496976
 20
167.7191471805
 30
0.0
 11
154.0962497427
 21
167.7191471805
 31
0.0
  0
LINE
  5
33F
330
1F
100
AcDbEntity
  8
0
  6
CONTINUOUS
 62
     7
100
AcDbLine
 10
154.0962497427
 20
168.4301154871
 30
0.0
 11
154.0962497427
 21
167.9715481711
 31
0.0
  0
LINE
  5
340
330
1F
100
AcDbEntity
  8
0
  6
CONTINUOUS
 62
     7
100
AcDbLine
 10
154.0962497427
 20
167.9715481711
 30
0.0
 11
154.0962497427
 21
167.9024843449
 31
0.0
  0
LINE
  5
341
330
1F
100
AcDbEntity
  8
0
  6
CONTINUOUS
 62
     7
100
AcDbLine
 10
154.0962497427
 20
167.9024843449
 30
0.0
 11
162.3962496713
 21
167.9024843449
 31
0.0
  0
LINE
  5
342
330
1F
100
AcDbEntity
  8
0
  6
CONTINUOUS
 62
     7
100
AcDbLine
 10
162.3962496713
 20
167.9715481711
 30
0.0
 11
154.0962497427
 21
167.9715481711
 31
0.0
  0
LINE
  5
343
330
1F
100
AcDbEntity
  8
0
  6
CONTINUOUS
 62
     7
100
AcDbLine
 10
154.0962497427
 20
170.6470634796
 30
0.0
 11
154.0962497427
 21
170.4435375993
 31
0.0
  0
LINE
  5
344
330
1F
100
AcDbEntity
  8
0
  6
CONTINUOUS
 62
     7
100
AcDbLine
 10
162.7962496976
 20
170.6470634796
 30
0.0
 11
154.0962497427
 21
170.6470634796
 31
0.0
  0
LINE
  5
345
330
1F
100
AcDbEntity
  8
0
  6
CONTINUOUS
 62
     7
100
AcDbLine
 10
154.0962497427
 20
170.4435375993
 30
0.0
 11
154.0962497427
 21
170.3735687312
 31
0.0
  0
LINE
  5
346
330
1F
100
AcDbEntity
  8
0
  6
CONTINUOUS
 62
     7
100
AcDbLine
 10
162.3962496713
 20
170.4435375993
 30
0.0
 11
154.0962497427
 21
170.4435375993
 31
0.0
  0
LINE
  5
347
330
1F
100
AcDbEntity
  8
0
  6
CONTINUOUS
 62
     7
100
AcDbLine
 10
154.0962497427
 20
170.3735687312
 30
0.0
 11
154.0962497427
 21
169.9267794153
 31
0.0
  0
LINE
  5
348
330
1F
100
AcDbEntity
  8
0
  6
CONTINUOUS
 62
     7
100
AcDbLine
 10
154.0962497427
 20
170.3735687312
 30
0.0
 11
162.3962496713
 21
170.3735687312
 31
0.0
  0
LINE
  5
349
330
1F
100
AcDbEntity
  8
0
  6
CONTINUOUS
 62
     7
100
AcDbLine
 10
154.0962497427
 20
169.1768718426
 30
0.0
 11
154.0962497427
 21
168.7875603217
 31
0.0
  0
LINE
  5
34A
330
1F
100
AcDbEntity
  8
0
  6
CONTINUOUS
 62
     7
100
AcDbLine
 10
154.0962497427
 20
169.9267794153
 30
0.0
 11
154.0962497427
 21
169.6237384583
 31
0.0
  0
LINE
  5
34B
330
1F
100
AcDbEntity
  8
0
  6
CONTINUOUS
 62
     7
100
AcDbLine
 10
162.7962496976
 20
169.9267794153
 30
0.0
 11
154.0962497427
 21
169.9267794153
 31
0.0
  0
LINE
  5
34C
330
1F
100
AcDbEntity
  8
0
  6
CONTINUOUS
 62
     7
100
AcDbLine
 10
154.0962497427
 20
168.7150199847
 30
0.0
 11
154.0962497427
 21
168.4301154871
 31
0.0
  0
LINE
  5
34D
330
1F
100
AcDbEntity
  8
0
  6
CONTINUOUS
 62
     7
100
AcDbLine
 10
162.7962496976
 20
168.4301154871
 30
0.0
 11
154.0962497427
 21
168.4301154871
 31
0.0
  0
LINE
  5
34E
330
1F
100
AcDbEntity
  8
0
  6
CONTINUOUS
 62
     7
100
AcDbLine
 10
154.0962497427
 20
168.7875603217
 30
0.0
 11
154.0962497427
 21
168.7150199847
 31
0.0
  0
LINE
  5
34F
330
1F
100
AcDbEntity
  8
0
  6
CONTINUOUS
 62
     7
100
AcDbLine
 10
154.0962497427
 20
168.7150199847
 30
0.0
 11
162.3962496713
 21
168.7150199847
 31
0.0
  0
LINE
  5
350
330
1F
100
AcDbEntity
  8
0
  6
CONTINUOUS
 62
     7
100
AcDbLine
 10
162.3962496713
 20
168.7875603217
 30
0.0
 11
154.0962497427
 21
168.7875603217
 31
0.0
  0
LINE
  5
351
330
1F
100
AcDbEntity
  8
0
  6
CONTINUOUS
 62
     7
100
AcDbLine
 10
154.0962497427
 20
169.6237384583
 30
0.0
 11
154.0962497427
 21
169.5508920363
 31
0.0
  0
LINE
  5
352
330
1F
100
AcDbEntity
  8
0
  6
CONTINUOUS
 62
     7
100
AcDbLine
 10
162.3962496713
 20
169.6237384583
 30
0.0
 11
154.0962497427
 21
169.6237384583
 31
0.0
  0
LINE
  5
353
330
1F
100
AcDbEntity
  8
0
  6
CONTINUOUS
 62
     7
100
AcDbLine
 10
154.0962497427
 20
169.5508920363
 30
0.0
 11
154.0962497427
 21
169.1768718426
 31
0.0
  0
LINE
  5
354
330
1F
100
AcDbEntity
  8
0
  6
CONTINUOUS
 62
     7
100
AcDbLine
 10
162.7962496976
 20
169.1768718426
 30
0.0
 11
154.0962497427
 21
169.1768718426
 31
0.0
  0
LINE
  5
355
330
1F
100
AcDbEntity
  8
0
  6
CONTINUOUS
 62
     7
100
AcDbLine
 10
154.0962497427
 20
169.5508920363
 30
0.0
 11
162.3962496713
 21
169.5508920363
 31
0.0
  0
LINE
  5
356
330
1F
100
AcDbEntity
  8
0
  6
CONTINUOUS
 62
     7
100
AcDbLine
 10
153.796249321
 20
172.4989742049
 30
0.0
 11
153.796249321
 21
165.9989740708
 31
0.0
  0
LINE
  5
357
330
1F
100
AcDbEntity
  8
0
  6
CONTINUOUS
 62
     7
100
AcDbLine
 10
162.3962496713
 20
171.211128543
 30
0.0
 11
162.7962496976
 21
171.3062445175
 31
0.0
  0
LINE
  5
358
330
1F
100
AcDbEntity
  8
0
  6
CONTINUOUS
 62
     7
100
AcDbLine
 10
162.3962496713
 20
171.1470952266
 30
0.0
 11
162.3962496713
 21
171.211128543
 31
0.0
  0
LINE
  5
359
330
1F
100
AcDbEntity
  8
0
  6
CONTINUOUS
 62
     7
100
AcDbLine
 10
162.7962496976
 20
170.6470634796
 30
0.0
 11
162.3962496713
 21
171.1470952266
 31
0.0
  0
LINE
  5
35A
330
1F
100
AcDbEntity
  8
0
  6
CONTINUOUS
 62
     7
100
AcDbLine
 10
162.3962496713
 20
170.4435375993
 30
0.0
 11
162.7962496976
 21
170.6470634796
 31
0.0
  0
LINE
  5
35B
330
1F
100
AcDbEntity
  8
0
  6
CONTINUOUS
 62
     7
100
AcDbLine
 10
162.3962496713
 20
170.3735687312
 30
0.0
 11
162.3962496713
 21
170.4435375993
 31
0.0
  0
LINE
  5
35C
330
1F
100
AcDbEntity
  8
0
  6
CONTINUOUS
 62
     7
100
AcDbLine
 10
162.7962496976
 20
169.9267794153
 30
0.0
 11
162.3962496713
 21
170.3735687312
 31
0.0
  0
LINE
  5
35D
330
1F
100
AcDbEntity
  8
0
  6
CONTINUOUS
 62
     7
100
AcDbLine
 10
162.3962496713
 20
169.6237384583
 30
0.0
 11
162.7962496976
 21
169.9267794153
 31
0.0
  0
LINE
  5
35E
330
1F
100
AcDbEntity
  8
0
  6
CONTINUOUS
 62
     7
100
AcDbLine
 10
162.3962496713
 20
169.5508920363
 30
0.0
 11
162.3962496713
 21
169.6237384583
 31
0.0
  0
LINE
  5
35F
330
1F
100
AcDbEntity
  8
0
  6
CONTINUOUS
 62
     7
100
AcDbLine
 10
162.7962496976
 20
169.1768718426
 30
0.0
 11
162.3962496713
 21
169.5508920363
 31
0.0
  0
LINE
  5
360
330
1F
100
AcDbEntity
  8
0
  6
CONTINUOUS
 62
     7
100
AcDbLine
 10
162.3962496713
 20
168.7875603217
 30
0.0
 11
162.7962496976
 21
169.1768718426
 31
0.0
  0
LINE
  5
361
330
1F
100
AcDbEntity
  8
0
  6
CONTINUOUS
 62
     7
100
AcDbLine
 10
162.3962496713
 20
168.7150199847
 30
0.0
 11
162.3962496713
 21
168.7875603217
 31
0.0
  0
LINE
  5
362
330
1F
100
AcDbEntity
  8
0
  6
CONTINUOUS
 62
     7
100
AcDbLine
 10
162.7962496976
 20
168.4301154871
 30
0.0
 11
162.3962496713
 21
168.7150199847
 31
0.0
  0
LINE
  5
363
330
1F
100
AcDbEntity
  8
0
  6
CONTINUOUS
 62
     7
100
AcDbLine
 10
162.3962496713
 20
167.9715481711
 30
0.0
 11
162.7962496976
 21
168.4301154871
 31
0.0
  0
LINE
  5
364
330
1F
100
AcDbEntity
  8
0
  6
CONTINUOUS
 62
     7
100
AcDbLine
 10
162.3962496713
 20
167.9024843449
 30
0.0
 11
162.3962496713
 21
167.9715481711
 31
0.0
  0
LINE
  5
365
330
1F
100
AcDbEntity
  8
0
  6
CONTINUOUS
 62
     7
100
AcDbLine
 10
162.7962496976
 20
167.7191471805
 30
0.0
 11
162.3962496713
 21
167.9024843449
 31
0.0
  0
LINE
  5
366
330
1F
100
AcDbEntity
  8
0
  6
CONTINUOUS
 62
     7
100
AcDbLine
 10
162.3962496713
 20
167.2113657239
 30
0.0
 11
162.7962496976
 21
167.7191471805
 31
0.0
  0
LINE
  5
367
330
1F
100
AcDbEntity
  8
0
  6
CONTINUOUS
 62
     7
100
AcDbLine
 10
162.3962496713
 20
167.1487967957
 30
0.0
 11
162.3962496713
 21
167.2113657239
 31
0.0
  0
LINE
  5
368
330
1F
100
AcDbEntity
  8
0
  6
CONTINUOUS
 62
     7
100
AcDbLine
 10
162.7962496976
 20
167.0750396567
 30
0.0
 11
162.3962496713
 21
167.1487967957
 31
0.0
  0
LINE
  5
369
330
1F
100
AcDbEntity
  8
0
  6
CONTINUOUS
 62
     7
100
AcDbLine
 10
162.3962496713
 20
166.5402365158
 30
0.0
 11
162.7962496976
 21
167.0750396567
 31
0.0
  0
LINE
  5
36A
330
1F
100
AcDbEntity
  8
0
  6
CONTINUOUS
 62
     7
100
AcDbLine
 10
162.3962496713
 20
166.4868969944
 30
0.0
 11
162.3962496713
 21
166.5402365158
 31
0.0
  0
LINE
  5
36B
330
1F
100
AcDbEntity
  8
0
  6
CONTINUOUS
 62
     7
100
AcDbLine
 10
162.7962496976
 20
166.5259435082
 30
0.0
 11
162.3962496713
 21
166.4868969944
 31
0.0
  0
LINE
  5
36C
330
1F
100
AcDbEntity
  8
0
  6
CONTINUOUS
 62
     7
100
AcDbLine
 10
162.3962496713
 20
165.9874920276
 30
0.0
 11
162.7962496976
 21
166.5259435082
 31
0.0
  0
LINE
  5
36D
330
1F
100
AcDbEntity
  8
0
  6
CONTINUOUS
 62
     7
100
AcDbLine
 10
162.3962496713
 20
165.9457131297
 30
0.0
 11
162.3962496713
 21
165.9874920276
 31
0.0
  0
LINE
  5
36E
330
1F
100
AcDbEntity
  8
0
  6
CONTINUOUS
 62
     7
100
AcDbLine
 10
162.7962496976
 20
166.0958567642
 30
0.0
 11
162.3962496713
 21
165.9457131297
 31
0.0
  0
LINE
  5
36F
330
1F
100
AcDbEntity
  8
0
  6
CONTINUOUS
 62
     7
100
AcDbLine
 10
162.3962496713
 20
165.5772900683
 30
0.0
 11
162.7962496976
 21
166.0958567642
 31
0.0
  0
LINE
  5
370
330
1F
100
AcDbEntity
  8
0
  6
CONTINUOUS
 62
     7
100
AcDbLine
 10
162.3962496713
 20
165.5488977682
 30
0.0
 11
162.3962496713
 21
165.5772900683
 31
0.0
  0
LINE
  5
371
330
1F
100
AcDbEntity
  8
0
  6
CONTINUOUS
 62
     7
100
AcDbLine
 10
162.7962496976
 20
165.803576541
 30
0.0
 11
162.3962496713
 21
165.5488977682
 31
0.0
  0
LINE
  5
372
330
1F
100
AcDbEntity
  8
0
  6
CONTINUOUS
 62
     7
100
AcDbLine
 10
162.3962496713
 20
165.3275582482
 30
0.0
 11
162.7962496976
 21
165.803576541
 31
0.0
  0
LINE
  5
373
330
1F
100
AcDbEntity
  8
0
  6
CONTINUOUS
 62
     7
100
AcDbLine
 10
162.3962496713
 20
165.3137935334
 30
0.0
 11
162.3962496713
 21
165.3275582482
 31
0.0
  0
LINE
  5
374
330
1F
100
AcDbEntity
  8
0
  6
CONTINUOUS
 62
     7
100
AcDbLine
 10
162.7962496976
 20
165.6618765098
 30
0.0
 11
162.3962496713
 21
165.3137935334
 31
0.0
  0
LINE
  5
375
330
1F
100
AcDbEntity
  8
0
  6
CONTINUOUS
 62
     7
100
AcDbLine
 10
162.3962496713
 20
165.2492112022
 30
0.0
 11
162.7962496976
 21
165.6618765098
 31
0.0
  0
LINE
  5
376
330
1F
100
AcDbEntity
  8
0
  6
CONTINUOUS
 62
     7
100
AcDbLine
 10
162.3962496713
 20
173.2487368405
 30
0.0
 11
162.4462723747
 21
173.197130394
 31
0.0
  0
LINE
  5
377
330
1F
100
AcDbEntity
  8
0
  6
CONTINUOUS
 62
     7
100
AcDbLine
 10
162.3962496713
 20
173.2472723358
 30
0.0
 11
162.3962496713
 21
173.2487368405
 31
0.0
  0
LINE
  5
378
330
1F
100
AcDbEntity
  8
0
  6
CONTINUOUS
 62
     7
100
AcDbLine
 10
162.7962496976
 20
172.8209980772
 30
0.0
 11
162.3962496713
 21
173.2472723358
 31
0.0
  0
LINE
  5
379
330
1F
100
AcDbEntity
  8
0
  6
CONTINUOUS
 62
     7
100
AcDbLine
 10
162.3962496713
 20
173.1522751049
 30
0.0
 11
162.7962496976
 21
172.8209980772
 31
0.0
  0
LINE
  5
37A
330
1F
100
AcDbEntity
  8
0
  6
CONTINUOUS
 62
     7
100
AcDbLine
 10
162.3962496713
 20
173.1356458746
 30
0.0
 11
162.3962496713
 21
173.1522751049
 31
0.0
  0
LINE
  5
37B
330
1F
100
AcDbEntity
  8
0
  6
CONTINUOUS
 62
     7
100
AcDbLine
 10
162.7962496976
 20
172.6498098121
 30
0.0
 11
162.3962496713
 21
173.1356458746
 31
0.0
  0
LINE
  5
37C
330
1F
100
AcDbEntity
  8
0
  6
CONTINUOUS
 62
     7
100
AcDbLine
 10
162.3962496713
 20
172.8852202193
 30
0.0
 11
162.7962496976
 21
172.6498098121
 31
0.0
  0
LINE
  5
37D
330
1F
100
AcDbEntity
  8
0
  6
CONTINUOUS
 62
     7
100
AcDbLine
 10
162.3962496713
 20
172.8541526951
 30
0.0
 11
162.3962496713
 21
172.8852202193
 31
0.0
  0
LINE
  5
37E
330
1F
100
AcDbEntity
  8
0
  6
CONTINUOUS
 62
     7
100
AcDbLine
 10
162.7962496976
 20
172.3299889833
 30
0.0
 11
162.3962496713
 21
172.8541526951
 31
0.0
  0
LINE
  5
37F
330
1F
100
AcDbEntity
  8
0
  6
CONTINUOUS
 62
     7
100
AcDbLine
 10
162.3962496713
 20
172.4592439838
 30
0.0
 11
162.7962496976
 21
172.3299889833
 31
0.0
  0
LINE
  5
380
330
1F
100
AcDbEntity
  8
0
  6
CONTINUOUS
 62
     7
100
AcDbLine
 10
162.3962496713
 20
172.4150960342
 30
0.0
 11
162.3962496713
 21
172.4592439838
 31
0.0
  0
LINE
  5
381
330
1F
100
AcDbEntity
  8
0
  6
CONTINUOUS
 62
     7
100
AcDbLine
 10
162.7962496976
 20
171.8755128801
 30
0.0
 11
162.3962496713
 21
172.4150960342
 31
0.0
  0
LINE
  5
382
330
1F
100
AcDbEntity
  8
0
  6
CONTINUOUS
 62
     7
100
AcDbLine
 10
162.3962496713
 20
171.8929637697
 30
0.0
 11
162.7962496976
 21
171.8755128801
 31
0.0
  0
LINE
  5
383
330
1F
100
AcDbEntity
  8
0
  6
CONTINUOUS
 62
     7
100
AcDbLine
 10
162.3962496713
 20
171.837664862
 30
0.0
 11
162.3962496713
 21
171.8929637697
 31
0.0
  0
LINE
  5
384
330
1F
100
AcDbEntity
  8
0
  6
CONTINUOUS
 62
     7
100
AcDbLine
 10
162.7962496976
 20
171.3062445175
 30
0.0
 11
162.3962496713
 21
171.837664862
 31
0.0
  0
LINE
  5
385
330
1F
100
AcDbEntity
  8
0
  6
CONTINUOUS
 62
     7
100
AcDbLine
 10
162.0462496838
 20
141.1642117434
 30
0.0
 11
162.8962496951
 21
141.1345304929
 31
0.0
  0
LINE
  5
386
330
1F
100
AcDbEntity
  8
0
  6
CONTINUOUS
 62
     7
100
AcDbLine
 10
162.8962496951
 20
144.3634184085
 30
0.0
 11
162.0462496838
 21
144.3337352954
 31
0.0
  0
LINE
  5
387
330
1F
100
AcDbEntity
  8
0
  6
CONTINUOUS
 62
     7
100
AcDbLine
 10
162.0462496838
 20
131.6642129802
 30
0.0
 11
162.8962496951
 21
131.6345298671
 31
0.0
  0
LINE
  5
388
330
1F
100
AcDbEntity
  8
0
  6
CONTINUOUS
 62
     7
100
AcDbLine
 10
162.8962496951
 20
134.8634177827
 30
0.0
 11
162.0462496838
 21
134.8337346696
 31
0.0
  0
LINE
  5
389
330
1F
100
AcDbEntity
  8
0
  6
CONTINUOUS
 62
     7
100
AcDbLine
 10
162.0462496838
 20
150.6642123692
 30
0.0
 11
162.8962496951
 21
150.6345292561
 31
0.0
  0
LINE
  5
38A
330
1F
100
AcDbEntity
  8
0
  6
CONTINUOUS
 62
     7
100
AcDbLine
 10
162.8962496951
 20
153.8634181031
 30
0.0
 11
162.0462496838
 21
153.83373499
 31
0.0
  0
LINE
  5
38B
330
1F
100
AcDbEntity
  8
0
  6
CONTINUOUS
 62
     7
100
AcDbLine
 10
162.0462496838
 20
160.1642120638
 30
0.0
 11
162.8962496951
 21
160.134529882
 31
0.0
  0
LINE
  5
38C
330
1F
100
AcDbEntity
  8
0
  6
CONTINUOUS
 62
     7
100
AcDbLine
 10
162.8962496951
 20
163.3634182633
 30
0.0
 11
162.0462496838
 21
163.3337356158
 31
0.0
  0
LINE
  5
38D
330
1F
100
AcDbEntity
  8
0
  6
CONTINUOUS
 62
     7
100
AcDbLine
 10
218.5962500706
 20
209.7489723944
 30
0.0
 11
218.5962500706
 21
209.0489754461
 31
0.0
  0
LINE
  5
38E
330
1F
100
AcDbEntity
  8
0
  6
CONTINUOUS
 62
     7
100
AcDbLine
 10
153.796249321
 20
165.9989740708
 30
0.0
 11
154.0962497427
 21
165.9989740708
 31
0.0
  0
LINE
  5
38F
330
1F
100
AcDbEntity
  8
0
  6
CONTINUOUS
 62
     7
100
AcDbLine
 10
154.0962497427
 20
172.4989742049
 30
0.0
 11
153.796249321
 21
172.4989742049
 31
0.0
  0
LINE
  5
390
330
1F
100
AcDbEntity
  8
0
  6
CONTINUOUS
 62
     7
100
AcDbLine
 10
162.8962496951
 20
172.7489737802
 30
0.0
 11
162.4471829462
 21
173.1980407619
 31
0.0
  0
LINE
  5
391
330
1F
100
AcDbEntity
  8
0
  6
CONTINUOUS
 62
     7
100
AcDbLine
 10
162.4471829462
 20
165.2999072809
 30
0.0
 11
162.8962496951
 21
165.7489740298
 31
0.0
  0
LINE
  5
392
330
1F
100
AcDbEntity
  8
0
  6
CONTINUOUS
 62
     7
100
AcDbLine
 10
104.9367114788933
 20
211.8021549665
 30
0.0
 11
104.9367114788933
 21
212.5726455831
 31
0.0
  0
LINE
  5
393
330
1F
100
AcDbEntity
  8
0
  6
CONTINUOUS
 62
     7
100
AcDbLine
 10
104.9367114788933
 20
207.7489757918
 30
0.0
 11
104.9367114788933
 21
211.8021549665
 31
0.0
  0
LINE
  5
394
330
1F
100
AcDbEntity
  8
0
  6
CONTINUOUS
 62
     7
100
AcDbLine
 10
104.9367114788933
 20
123.9253023647
 30
0.0
 11
104.9367114788933
 21
124.6957929813
 31
0.0
  0
LINE
  5
395
330
1F
100
AcDbEntity
  8
0
  6
CONTINUOUS
 62
     7
100
AcDbLine
 10
104.9367114788933
 20
124.6957929813
 30
0.0
 11
104.9367114788933
 21
129.2489731692
 31
0.0
  0
LINE
  5
396
330
1F
100
AcDbEntity
  8
0
  6
CONTINUOUS
 62
     7
100
AcDbLine
 10
127.4367123728933
 20
212.5726455831
 30
0.0
 11
127.4367123728933
 21
211.8021549665
 31
0.0
  0
LINE
  5
397
330
1F
100
AcDbEntity
  8
0
  6
CONTINUOUS
 62
     7
100
AcDbLine
 10
127.4367123728933
 20
211.8021549665
 30
0.0
 11
127.4367123728933
 21
124.6957929813
 31
0.0
  0
LINE
  5
398
330
1F
100
AcDbEntity
  8
0
  6
CONTINUOUS
 62
     7
100
AcDbLine
 10
127.4367123728933
 20
124.6957929813
 30
0.0
 11
127.4367123728933
 21
123.9253023647
 31
0.0
  0
LINE
  5
399
330
1F
100
AcDbEntity
  8
0
  6
CONTINUOUS
 62
     7
100
AcDbLine
 10
105.3498873839933
 20
212.6455010854
 30
0.0
 11
105.9367115263933
 21
212.7489747488
 31
0.0
  0
LINE
  5
39A
330
1F
100
AcDbEntity
  8
0
  6
CONTINUOUS
 62
     7
100
AcDbLine
 10
105.3498873839933
 20
123.8524468624
 30
0.0
 11
105.9367115263933
 21
123.748973199
 31
0.0
  0
LINE
  5
39B
330
1F
100
AcDbEntity
  8
0
  6
CONTINUOUS
 62
     7
100
AcDbLine
 10
105.9367115263933
 20
212.7489747488
 30
0.0
 11
126.4367122089933
 21
212.7489747488
 31
0.0
  0
LINE
  5
39C
330
1F
100
AcDbEntity
  8
0
  6
CONTINUOUS
 62
     7
100
AcDbLine
 10
127.0235348379933
 20
212.6455010854
 30
0.0
 11
126.4367122089933
 21
212.7489747488
 31
0.0
  0
LINE
  5
39D
330
1F
100
AcDbEntity
  8
0
  6
CONTINUOUS
 62
     7
100
AcDbLine
 10
126.4367122089933
 20
123.748973199
 30
0.0
 11
105.9367115263933
 21
123.748973199
 31
0.0
  0
LINE
  5
39E
330
1F
100
AcDbEntity
  8
0
  6
CONTINUOUS
 62
     7
100
AcDbLine
 10
127.0235348379933
 20
123.8524468624
 30
0.0
 11
126.4367122089933
 21
123.748973199
 31
0.0
  0
LINE
  5
39F
330
1F
100
AcDbEntity
  8
0
  6
CONTINUOUS
 62
     7
100
AcDbLine
 10
127.0235348379933
 20
124.4918333375
 30
0.0
 11
126.4367122089933
 21
124.4489738726
 31
0.0
  0
LINE
  5
3A0
330
1F
100
AcDbEntity
  8
0
  6
CONTINUOUS
 62
     7
100
AcDbLine
 10
127.0235348379933
 20
212.0061146103
 30
0.0
 11
126.4367122089933
 21
212.0489740752
 31
0.0
  0
LINE
  5
3A1
330
1F
100
AcDbEntity
  8
0
  6
CONTINUOUS
 62
     7
100
AcDbLine
 10
105.3498873839933
 20
212.0061146103
 30
0.0
 11
105.9367115263933
 21
212.0489740752
 31
0.0
  0
LINE
  5
3A2
330
1F
100
AcDbEntity
  8
0
  6
CONTINUOUS
 62
     7
100
AcDbLine
 10
105.3498873839933
 20
207.7417636298
 30
0.0
 11
105.9367115263933
 21
207.7315190815
 31
0.0
  0
LINE
  5
3A3
330
1F
100
AcDbEntity
  8
0
  6
CONTINUOUS
 62
     7
100
AcDbLine
 10
126.4367122089933
 20
212.0489740752
 30
0.0
 11
105.9367115263933
 21
212.0489740752
 31
0.0
  0
LINE
  5
3A4
330
1F
100
AcDbEntity
  8
0
  6
CONTINUOUS
 62
     7
100
AcDbLine
 10
105.9367115263933
 20
129.2664298796
 30
0.0
 11
105.3498873839933
 21
129.2561853313
 31
0.0
  0
LINE
  5
3A5
330
1F
100
AcDbEntity
  8
0
  6
CONTINUOUS
 62
     7
100
AcDbLine
 10
105.3498873839933
 20
124.4918333375
 30
0.0
 11
105.9367115263933
 21
124.4489738726
 31
0.0
  0
LINE
  5
3A6
330
1F
100
AcDbEntity
  8
0
  6
CONTINUOUS
 62
     7
100
AcDbLine
 10
105.9367115263933
 20
124.4489738726
 30
0.0
 11
126.4367122089933
 21
124.4489738726
 31
0.0
  0
LINE
  5
3A7
330
1F
100
AcDbEntity
  8
0
  6
CONTINUOUS
 62
     7
100
AcDbLine
 10
125.9367875641933
 20
211.2489754342
 30
0.0
 11
106.4366353562933
 21
211.2489754342
 31
0.0
  0
LINE
  5
3A8
330
1F
100
AcDbEntity
  8
0
  6
CONTINUOUS
 62
     7
100
AcDbLine
 10
106.4366353562933
 20
125.2489725136
 30
0.0
 11
125.9367875641933
 21
125.2489725136
 31
0.0
  0
LINE
  5
3A9
330
1F
100
AcDbEntity
  8
0
  6
CONTINUOUS
 62
     7
100
AcDbLine
 10
104.9367114788933
 20
207.5280288242
 30
0.0
 11
104.9367114788933
 21
207.7489757918
 31
0.0
  0
LINE
  5
3AA
330
1F
100
AcDbEntity
  8
0
  6
CONTINUOUS
 62
     7
100
AcDbLine
 10
104.9367114788933
 20
129.2489731692
 30
0.0
 11
104.9367114788933
 21
129.4699201368
 31
0.0
  0
LINE
  5
3AB
330
1F
100
AcDbEntity
  8
0
  6
CONTINUOUS
 62
     7
100
AcDbLine
 10
104.9367114788933
 20
129.4699201368
 30
0.0
 11
104.9367114788933
 21
207.5280288242
 31
0.0
  0
LINE
  5
3AC
330
1F
100
AcDbEntity
  8
0
  6
CONTINUOUS
 62
     7
100
AcDbLine
 10
105.4279853010933
 20
207.5366044425
 30
0.0
 11
105.9367115263933
 21
207.5454818093
 31
0.0
  0
LINE
  5
3AD
330
1F
100
AcDbEntity
  8
0
  6
CONTINUOUS
 62
     7
100
AcDbLine
 10
105.9367115263933
 20
207.5454818093
 30
0.0
 11
105.9367115263933
 21
129.4524634265
 31
0.0
  0
LINE
  5
3AE
330
1F
100
AcDbEntity
  8
0
  6
CONTINUOUS
 62
     7
100
AcDbLine
 10
105.4279853010933
 20
129.4613445186
 30
0.0
 11
105.9367115263933
 21
129.4524634265
 31
0.0
  0
LINE
  5
3AF
330
1F
100
AcDbEntity
  8
0
  6
CONTINUOUS
 62
     7
100
AcDbLine
 10
119.1409686466933
 20
171.3062445175
 30
0.0
 11
119.6723896896933
 21
171.211128543
 31
0.0
  0
LINE
  5
3B0
330
1F
100
AcDbEntity
  8
0
  6
CONTINUOUS
 62
     7
100
AcDbLine
 10
119.2360855525933
 20
171.837664862
 30
0.0
 11
119.1409686466933
 21
171.3062445175
 31
0.0
  0
LINE
  5
3B1
330
1F
100
AcDbEntity
  8
0
  6
CONTINUOUS
 62
     7
100
AcDbLine
 10
118.6486808469933
 20
171.8755128801
 30
0.0
 11
119.1882640009933
 21
171.8929637697
 31
0.0
  0
LINE
  5
3B2
330
1F
100
AcDbEntity
  8
0
  6
CONTINUOUS
 62
     7
100
AcDbLine
 10
118.6312297245933
 20
172.4150960342
 30
0.0
 11
118.6486808469933
 21
171.8755128801
 31
0.0
  0
LINE
  5
3B3
330
1F
100
AcDbEntity
  8
0
  6
CONTINUOUS
 62
     7
100
AcDbLine
 10
118.0487926935933
 20
172.3299889833
 30
0.0
 11
118.5729568710933
 21
172.4592439838
 31
0.0
  0
LINE
  5
3B4
330
1F
100
AcDbEntity
  8
0
  6
CONTINUOUS
 62
     7
100
AcDbLine
 10
117.9195372274933
 20
172.8541526951
 30
0.0
 11
118.0487926935933
 21
172.3299889833
 31
0.0
  0
LINE
  5
3B5
330
1F
100
AcDbEntity
  8
0
  6
CONTINUOUS
 62
     7
100
AcDbLine
 10
117.3675227796933
 20
172.6498098121
 30
0.0
 11
117.8533583766933
 21
172.8852202193
 31
0.0
  0
LINE
  5
3B6
330
1F
100
AcDbEntity
  8
0
  6
CONTINUOUS
 62
     7
100
AcDbLine
 10
117.1321123724933
 20
173.1356458746
 30
0.0
 11
117.3675227796933
 21
172.6498098121
 31
0.0
  0
LINE
  5
3B7
330
1F
100
AcDbEntity
  8
0
  6
CONTINUOUS
 62
     7
100
AcDbLine
 10
116.6346454879933
 20
172.8209980772
 30
0.0
 11
117.0609202122933
 21
173.1522751049
 31
0.0
  0
LINE
  5
3B8
330
1F
100
AcDbEntity
  8
0
  6
CONTINUOUS
 62
     7
100
AcDbLine
 10
116.3033684602933
 20
173.2472723358
 30
0.0
 11
116.6346454879933
 21
172.8209980772
 31
0.0
  0
LINE
  5
3B9
330
1F
100
AcDbEntity
  8
0
  6
CONTINUOUS
 62
     7
100
AcDbLine
 10
115.8821917956933
 20
172.836071533
 30
0.0
 11
116.2302745392933
 21
173.2487368405
 31
0.0
  0
LINE
  5
3BA
330
1F
100
AcDbEntity
  8
0
  6
CONTINUOUS
 62
     7
100
AcDbLine
 10
115.4695264881933
 20
173.1841542766
 30
0.0
 11
115.8821917956933
 21
172.836071533
 31
0.0
  0
LINE
  5
3BB
330
1F
100
AcDbEntity
  8
0
  6
CONTINUOUS
 62
     7
100
AcDbLine
 10
115.1430467030933
 20
172.694371269
 30
0.0
 11
115.3977252429933
 21
173.1703897946
 31
0.0
  0
LINE
  5
3BC
330
1F
100
AcDbEntity
  8
0
  6
CONTINUOUS
 62
     7
100
AcDbLine
 10
114.6670281773933
 20
172.9490502745
 30
0.0
 11
115.1430467030933
 21
172.694371269
 31
0.0
  0
LINE
  5
3BD
330
1F
100
AcDbEntity
  8
0
  6
CONTINUOUS
 62
     7
100
AcDbLine
 10
114.4495149960933
 20
172.4020910457
 30
0.0
 11
114.5996581649933
 21
172.9206579745
 31
0.0
  0
LINE
  5
3BE
330
1F
100
AcDbEntity
  8
0
  6
CONTINUOUS
 62
     7
100
AcDbLine
 10
113.9309480672933
 20
172.5522346803
 30
0.0
 11
114.4495149960933
 21
172.4020910457
 31
0.0
  0
LINE
  5
3BF
330
1F
100
AcDbEntity
  8
0
  6
CONTINUOUS
 62
     7
100
AcDbLine
 10
113.8319065680933
 20
171.9720044181
 30
0.0
 11
113.8709531983933
 21
172.5104560152
 31
0.0
  0
LINE
  5
3C0
330
1F
100
AcDbEntity
  8
0
  6
CONTINUOUS
 62
     7
100
AcDbLine
 10
113.2934549709933
 20
172.0110510484
 30
0.0
 11
113.8319065680933
 21
171.9720044181
 31
0.0
  0
LINE
  5
3C1
330
1F
100
AcDbEntity
  8
0
  6
CONTINUOUS
 62
     7
100
AcDbLine
 10
113.3172148725933
 20
171.4229082697
 30
0.0
 11
113.2434578499933
 21
171.9577114106
 31
0.0
  0
LINE
  5
3C2
330
1F
100
AcDbEntity
  8
0
  6
CONTINUOUS
 62
     7
100
AcDbLine
 10
112.7824121972933
 20
171.3491512471
 30
0.0
 11
113.3172148725933
 21
171.4229082697
 31
0.0
  0
LINE
  5
3C3
330
1F
100
AcDbEntity
  8
0
  6
CONTINUOUS
 62
     7
100
AcDbLine
 10
112.9279341435933
 20
170.7788006876
 30
0.0
 11
112.7445967754933
 21
171.2865822025
 31
0.0
  0
LINE
  5
3C4
330
1F
100
AcDbEntity
  8
0
  6
CONTINUOUS
 62
     7
100
AcDbLine
 10
112.4201523957933
 20
170.5954635524
 30
0.0
 11
112.9279341435933
 21
170.7788006876
 31
0.0
  0
LINE
  5
3C5
330
1F
100
AcDbEntity
  8
0
  6
CONTINUOUS
 62
     7
100
AcDbLine
 10
112.6810773162933
 20
170.0678324102
 30
0.0
 11
112.3961727021933
 21
170.526399697
 31
0.0
  0
LINE
  5
3C6
330
1F
100
AcDbEntity
  8
0
  6
CONTINUOUS
 62
     7
100
AcDbLine
 10
112.2225099129933
 20
169.7829279125
 30
0.0
 11
112.6810773162933
 21
170.0678324102
 31
0.0
  0
LINE
  5
3C7
330
1F
100
AcDbEntity
  8
0
  6
CONTINUOUS
 62
     7
100
AcDbLine
 10
112.5874337626933
 20
169.3210760838
 30
0.0
 11
112.2134132197933
 21
169.7103876629
 31
0.0
  0
LINE
  5
3C8
330
1F
100
AcDbEntity
  8
0
  6
CONTINUOUS
 62
     7
100
AcDbLine
 10
112.1981218343933
 20
168.9470559483
 30
0.0
 11
112.5874337626933
 21
169.3210760838
 31
0.0
  0
LINE
  5
3C9
330
1F
100
AcDbEntity
  8
0
  6
CONTINUOUS
 62
     7
100
AcDbLine
 10
112.6510957142933
 20
168.5711685693
 30
0.0
 11
112.2043062819933
 21
168.8742095263
 31
0.0
  0
LINE
  5
3CA
330
1F
100
AcDbEntity
  8
0
  6
CONTINUOUS
 62
     7
100
AcDbLine
 10
112.3480545243933
 20
168.1243792097
 30
0.0
 11
112.6510957142933
 21
168.5711685693
 31
0.0
  0
LINE
  5
3CB
330
1F
100
AcDbEntity
  8
0
  6
CONTINUOUS
 62
     7
100
AcDbLine
 10
112.8692813104933
 20
167.8508843594
 30
0.0
 11
112.3692490978933
 21
168.054410429
 31
0.0
  0
LINE
  5
3CC
330
1F
100
AcDbEntity
  8
0
  6
CONTINUOUS
 62
     7
100
AcDbLine
 10
112.6657547315933
 20
167.3508526416
 30
0.0
 11
112.8692813104933
 21
167.8508843594
 31
0.0
  0
LINE
  5
3CD
330
1F
100
AcDbEntity
  8
0
  6
CONTINUOUS
 62
     7
100
AcDbLine
 10
113.2324542736933
 20
167.1917034088
 30
0.0
 11
112.7010336963933
 21
167.2868194998
 31
0.0
  0
LINE
  5
3CE
330
1F
100
AcDbEntity
  8
0
  6
CONTINUOUS
 62
     7
100
AcDbLine
 10
113.1373373678933
 20
166.6602831808
 30
0.0
 11
113.2324542736933
 21
167.1917034088
 31
0.0
  0
LINE
  5
3CF
330
1F
100
AcDbEntity
  8
0
  6
CONTINUOUS
 62
     7
100
AcDbLine
 10
113.7247420733933
 20
166.6224350462
 30
0.0
 11
113.1851589193933
 21
166.6049841567
 31
0.0
  0
LINE
  5
3D0
330
1F
100
AcDbEntity
  8
0
  6
CONTINUOUS
 62
     7
100
AcDbLine
 10
113.7421931958933
 20
166.0828517758
 30
0.0
 11
113.7247420733933
 21
166.6224350462
 31
0.0
  0
LINE
  5
3D1
330
1F
100
AcDbEntity
  8
0
  6
CONTINUOUS
 62
     7
100
AcDbLine
 10
114.3246302267933
 20
166.1679590595
 30
0.0
 11
113.8004660492933
 21
166.0387038261
 31
0.0
  0
LINE
  5
3D2
330
1F
100
AcDbEntity
  8
0
  6
CONTINUOUS
 62
     7
100
AcDbLine
 10
114.4538856929933
 20
165.6437951148
 30
0.0
 11
114.3246302267933
 21
166.1679590595
 31
0.0
  0
LINE
  5
3D3
330
1F
100
AcDbEntity
  8
0
  6
CONTINUOUS
 62
     7
100
AcDbLine
 10
115.0059001406933
 20
165.8481379979
 30
0.0
 11
114.5200645437933
 21
165.6127275907
 31
0.0
  0
LINE
  5
3D4
330
1F
100
AcDbEntity
  8
0
  6
CONTINUOUS
 62
     7
100
AcDbLine
 10
115.2413105478933
 20
165.3623021681
 30
0.0
 11
115.0059001406933
 21
165.8481379979
 31
0.0
  0
LINE
  5
3D5
330
1F
100
AcDbEntity
  8
0
  6
CONTINUOUS
 62
     7
100
AcDbLine
 10
115.7387774324933
 20
165.6769499656
 30
0.0
 11
115.3125027081933
 21
165.3456729379
 31
0.0
  0
LINE
  5
3D6
330
1F
100
AcDbEntity
  8
0
  6
CONTINUOUS
 62
     7
100
AcDbLine
 10
116.0700544601933
 20
165.2506754742
 30
0.0
 11
115.7387774324933
 21
165.6769499656
 31
0.0
  0
LINE
  5
3D7
330
1F
100
AcDbEntity
  8
0
  6
CONTINUOUS
 62
     7
100
AcDbLine
 10
116.4912311246933
 20
165.6618765098
 30
0.0
 11
116.1431483810933
 21
165.2492112022
 31
0.0
  0
LINE
  5
3D8
330
1F
100
AcDbEntity
  8
0
  6
CONTINUOUS
 62
     7
100
AcDbLine
 10
116.9038964322933
 20
165.3137935334
 30
0.0
 11
116.4912311246933
 21
165.6618765098
 31
0.0
  0
LINE
  5
3D9
330
1F
100
AcDbEntity
  8
0
  6
CONTINUOUS
 62
     7
100
AcDbLine
 10
117.2303762173933
 20
165.803576541
 30
0.0
 11
116.9756976774933
 21
165.3275582482
 31
0.0
  0
LINE
  5
3DA
330
1F
100
AcDbEntity
  8
0
  6
CONTINUOUS
 62
     7
100
AcDbLine
 10
117.7063947430933
 20
165.5488977682
 30
0.0
 11
117.2303762173933
 21
165.803576541
 31
0.0
  0
LINE
  5
3DB
330
1F
100
AcDbEntity
  8
0
  6
CONTINUOUS
 62
     7
100
AcDbLine
 10
117.9239079242933
 20
166.0958567642
 30
0.0
 11
117.7737647554933
 21
165.5772900683
 31
0.0
  0
LINE
  5
3DC
330
1F
100
AcDbEntity
  8
0
  6
CONTINUOUS
 62
     7
100
AcDbLine
 10
118.4424748530933
 20
165.9457131297
 30
0.0
 11
117.9239079242933
 21
166.0958567642
 31
0.0
  0
LINE
  5
3DD
330
1F
100
AcDbEntity
  8
0
  6
CONTINUOUS
 62
     7
100
AcDbLine
 10
118.5415163522933
 20
166.5259435082
 30
0.0
 11
118.5024697220933
 21
165.9874920276
 31
0.0
  0
LINE
  5
3DE
330
1F
100
AcDbEntity
  8
0
  6
CONTINUOUS
 62
     7
100
AcDbLine
 10
119.0799679493933
 20
166.4868969944
 30
0.0
 11
118.5415163522933
 21
166.5259435082
 31
0.0
  0
LINE
  5
3DF
330
1F
100
AcDbEntity
  8
0
  6
CONTINUOUS
 62
     7
100
AcDbLine
 10
119.0562080478933
 20
167.0750396567
 30
0.0
 11
119.1299650704933
 21
166.5402365158
 31
0.0
  0
LINE
  5
3E0
330
1F
100
AcDbEntity
  8
0
  6
CONTINUOUS
 62
     7
100
AcDbLine
 10
119.5910107230933
 20
167.1487967957
 30
0.0
 11
119.0562080478933
 21
167.0750396567
 31
0.0
  0
LINE
  5
3E1
330
1F
100
AcDbEntity
  8
0
  6
CONTINUOUS
 62
     7
100
AcDbLine
 10
119.4454887768933
 20
167.7191471805
 30
0.0
 11
119.6288261449933
 21
167.2113657239
 31
0.0
  0
LINE
  5
3E2
330
1F
100
AcDbEntity
  8
0
  6
CONTINUOUS
 62
     7
100
AcDbLine
 10
119.9532700589933
 20
167.9024843449
 30
0.0
 11
119.4454887768933
 21
167.7191471805
 31
0.0
  0
LINE
  5
3E3
330
1F
100
AcDbEntity
  8
0
  6
CONTINUOUS
 62
     7
100
AcDbLine
 10
119.6923460697933
 20
168.4301154871
 30
0.0
 11
119.9772497525933
 21
167.9715481711
 31
0.0
  0
LINE
  5
3E4
330
1F
100
AcDbEntity
  8
0
  6
CONTINUOUS
 62
     7
100
AcDbLine
 10
120.1509125417933
 20
168.7150199847
 30
0.0
 11
119.6923460697933
 21
168.4301154871
 31
0.0
  0
LINE
  5
3E5
330
1F
100
AcDbEntity
  8
0
  6
CONTINUOUS
 62
     7
100
AcDbLine
 10
119.7859896233933
 20
169.1768718426
 30
0.0
 11
120.1600097006933
 21
168.7875603217
 31
0.0
  0
LINE
  5
3E6
330
1F
100
AcDbEntity
  8
0
  6
CONTINUOUS
 62
     7
100
AcDbLine
 10
120.1753010859933
 20
169.5508920363
 30
0.0
 11
119.7859896233933
 21
169.1768718426
 31
0.0
  0
LINE
  5
3E7
330
1F
100
AcDbEntity
  8
0
  6
CONTINUOUS
 62
     7
100
AcDbLine
 10
119.7223272061933
 20
169.9267794153
 30
0.0
 11
120.1691171040933
 21
169.6237384583
 31
0.0
  0
LINE
  5
3E8
330
1F
100
AcDbEntity
  8
0
  6
CONTINUOUS
 62
     7
100
AcDbLine
 10
120.0253683960933
 20
170.3735687312
 30
0.0
 11
119.7223272061933
 21
169.9267794153
 31
0.0
  0
LINE
  5
3E9
330
1F
100
AcDbEntity
  8
0
  6
CONTINUOUS
 62
     7
100
AcDbLine
 10
119.5041416099933
 20
170.6470634796
 30
0.0
 11
120.0041733568933
 21
170.4435375993
 31
0.0
  0
LINE
  5
3EA
330
1F
100
AcDbEntity
  8
0
  6
CONTINUOUS
 62
     7
100
AcDbLine
 10
119.7076681887933
 20
171.1470952266
 30
0.0
 11
119.5041416099933
 21
170.6470634796
 31
0.0
  0
LINE
  5
3EB
330
1F
100
AcDbEntity
  8
1
  6
DOT_CENTER
 62
     7
100
AcDbLine
 10
95.73662315991699
 20
175.5887888911399
 30
0.0
 11
93.4614705074754
 21
175.5887888911399
 31
0.0
  0
LINE
  5
3EC
330
1F
100
AcDbEntity
  8
1
  6
CONTINUOUS
 62
     7
100
AcDbLine
 10
125.7867122089933
 20
209.8989754342
 30
0.0
 11
125.7867122089933
 21
126.5989725136001
 31
0.0
  0
LINE
  5
3ED
330
1F
100
AcDbEntity
  8
1
  6
CONTINUOUS
 62
     7
100
AcDbLine
 10
125.3867122089932
 20
209.8989754342
 30
0.0
 11
125.3867122089932
 21
126.5989725136001
 31
0.0
  0
LINE
  5
3EE
330
1F
100
AcDbEntity
  8
1
  6
CONTINUOUS
 62
     7
100
AcDbLine
 10
125.0867122089932
 20
125.8989725135999
 30
0.0
 11
107.2867115263934
 21
125.8989725135999
 31
0.0
  0
LINE
  5
3EF
330
1F
100
AcDbEntity
  8
1
  6
CONTINUOUS
 62
     7
100
AcDbLine
 10
125.0867122089932
 20
126.2989725136
 30
0.0
 11
107.2867115263933
 21
126.2989725136
 31
0.0
  0
LINE
  5
3F0
330
1F
100
AcDbEntity
  8
1
  6
CONTINUOUS
 62
     7
100
AcDbLine
 10
106.9867115263933
 20
126.5989725136001
 30
0.0
 11
106.9867115263933
 21
209.8989754342
 31
0.0
  0
LINE
  5
3F1
330
1F
100
AcDbEntity
  8
1
  6
CONTINUOUS
 62
     7
100
AcDbLine
 10
106.5867115263935
 20
126.5989725136001
 30
0.0
 11
106.5867115263935
 21
209.8989754342
 31
0.0
  0
LINE
  5
3F2
330
1F
100
AcDbEntity
  8
1
  6
CONTINUOUS
 62
     7
100
AcDbLine
 10
125.0867122089932
 20
210.5989754342001
 30
0.0
 11
107.2867115263934
 21
210.5989754342001
 31
0.0
  0
LINE
  5
3F3
330
1F
100
AcDbEntity
  8
1
  6
CONTINUOUS
 62
     7
100
AcDbLine
 10
107.2867115263933
 20
210.1989754342
 30
0.0
 11
125.0867122089932
 21
210.1989754342
 31
0.0
  0
LINE
  5
40C
330
1F
100
AcDbEntity
  8
1
  6
CONTINUOUS
 62
     7
100
AcDbLine
 10
109.6640995300192
 20
145.1489739739
 30
0.0
 11
108.8888629625532
 21
145.1489739739
 31
0.0
  0
LINE
  5
40D
330
1F
100
AcDbEntity
  8
1
  6
CONTINUOUS
 62
     7
100
AcDbLine
 10
110.6888629625532
 20
146.4014626136631
 30
0.0
 11
109.6640995300192
 21
145.1489739739
 31
0.0
  0
LINE
  5
40E
330
1F
100
AcDbEntity
  8
1
  6
CONTINUOUS
 62
     7
100
AcDbLine
 10
111.7136263950861
 20
145.1489739739
 30
0.0
 11
110.6888629625532
 21
146.4014626136631
 31
0.0
  0
LINE
  5
40F
330
1F
100
AcDbEntity
  8
1
  6
CONTINUOUS
 62
     7
100
AcDbLine
 10
112.4888629625534
 20
145.1489739739
 30
0.0
 11
111.7136263950861
 21
145.1489739739
 31
0.0
  0
LINE
  5
410
330
1F
100
AcDbEntity
  8
1
  6
CONTINUOUS
 62
     7
100
AcDbLine
 10
110.6888629625532
 20
147.3489739739
 30
0.0
 11
112.4888629625534
 21
145.1489739739
 31
0.0
  0
LINE
  5
411
330
1F
100
AcDbEntity
  8
1
  6
CONTINUOUS
 62
     7
100
AcDbLine
 10
110.6888629625532
 20
147.3489739739
 30
0.0
 11
108.8888629625532
 21
145.1489739739
 31
0.0
  0
LINE
  5
412
330
1F
100
AcDbEntity
  8
1
  6
CONTINUOUS
 62
     7
100
AcDbLine
 10
108.8888629625532
 20
130.8489739739
 30
0.0
 11
110.6888629625532
 21
128.6489739739
 31
0.0
  0
LINE
  5
413
330
1F
100
AcDbEntity
  8
1
  6
CONTINUOUS
 62
     7
100
AcDbLine
 10
112.4888629625534
 20
130.8489739739
 30
0.0
 11
110.6888629625532
 21
128.6489739739
 31
0.0
  0
LINE
  5
414
330
1F
100
AcDbEntity
  8
1
  6
CONTINUOUS
 62
     7
100
AcDbLine
 10
111.7136263950861
 20
130.8489739739
 30
0.0
 11
112.4888629625534
 21
130.8489739739
 31
0.0
  0
LINE
  5
415
330
1F
100
AcDbEntity
  8
1
  6
CONTINUOUS
 62
     7
100
AcDbLine
 10
110.6888629625532
 20
129.5964853341368
 30
0.0
 11
111.7136263950861
 21
130.8489739739
 31
0.0
  0
LINE
  5
416
330
1F
100
AcDbEntity
  8
1
  6
CONTINUOUS
 62
     7
100
AcDbLine
 10
109.6640995300192
 20
130.8489739739
 30
0.0
 11
110.6888629625532
 21
129.5964853341368
 31
0.0
  0
LINE
  5
417
330
1F
100
AcDbEntity
  8
1
  6
CONTINUOUS
 62
     7
100
AcDbLine
 10
108.8888629625532
 20
130.8489739739
 30
0.0
 11
109.6640995300192
 21
130.8489739739
 31
0.0
  0
LINE
  5
418
330
1F
100
AcDbEntity
  8
1
  6
CONTINUOUS
 62
     7
100
AcDbLine
 10
108.6867114788933
 20
201.9489739739
 30
0.0
 11
108.6867114788933
 21
177.4489739739
 31
0.0
  0
LINE
  5
419
330
1F
100
AcDbEntity
  8
1
  6
CONTINUOUS
 62
     7
100
AcDbLine
 10
123.6867114788933
 20
177.4489739739
 30
0.0
 11
123.6867114788933
 21
201.9489739739
 31
0.0
  0
LINE
  5
41A
330
1F
100
AcDbEntity
  8
1
  6
CONTINUOUS
 62
     7
100
AcDbLine
 10
109.1867114788933
 20
176.9489739739
 30
0.0
 11
123.1867114788933
 21
176.9489739739
 31
0.0
  0
LINE
  5
41B
330
1F
100
AcDbEntity
  8
1
  6
CONTINUOUS
 62
     7
100
AcDbLine
 10
123.1867114788933
 20
202.4489739739
 30
0.0
 11
109.1867114788933
 21
202.4489739739
 31
0.0
  0
LINE
  5
41C
330
1F
100
AcDbEntity
  8
1
  6
CONTINUOUS
 62
     7
100
AcDbLine
 10
106.1867115263934
 20
210.2989754342
 30
0.0
 11
106.1867115263934
 21
126.1989725136
 31
0.0
  0
LINE
  5
41D
330
1F
100
AcDbEntity
  8
1
  6
CONTINUOUS
 62
     7
100
AcDbLine
 10
126.1867122089934
 20
126.1989725136
 30
0.0
 11
126.1867122089934
 21
210.2989754342
 31
0.0
  0
LINE
  5
41E
330
1F
100
AcDbEntity
  8
1
  6
CONTINUOUS
 62
     7
100
AcDbLine
 10
106.8867115263933
 20
125.4989725136
 30
0.0
 11
125.4867122089933
 21
125.4989725136
 31
0.0
  0
LINE
  5
41F
330
1F
100
AcDbEntity
  8
1
  6
CONTINUOUS
 62
     7
100
AcDbLine
 10
125.4867122089933
 20
210.9989754342
 30
0.0
 11
106.8867115263933
 21
210.9989754342
 31
0.0
  0
LINE
  5
420
330
1F
100
AcDbEntity
  8
1
  6
CONTINUOUS
 62
     7
100
AcDbLine
 10
114.1367113633933
 20
131.49897511305
 30
0.0
 11
114.3367113633934
 21
131.49897511305
 31
0.0
  0
LINE
  5
421
330
1F
100
AcDbEntity
  8
1
  6
CONTINUOUS
 62
     7
100
AcDbLine
 10
114.3367113633934
 20
131.19897511305
 30
0.0
 11
114.3367113633934
 21
131.49897511305
 31
0.0
  0
LINE
  5
422
330
1F
100
AcDbEntity
  8
1
  6
CONTINUOUS
 62
     7
100
AcDbLine
 10
114.1367113633933
 20
131.19897511305
 30
0.0
 11
114.3367113633934
 21
131.19897511305
 31
0.0
  0
LINE
  5
423
330
1F
100
AcDbEntity
  8
1
  6
CONTINUOUS
 62
     7
100
AcDbLine
 10
113.6367113633933
 20
136.0989751130501
 30
0.0
 11
113.3367113633934
 21
136.0989751130501
 31
0.0
  0
LINE
  5
424
330
1F
100
AcDbEntity
  8
1
  6
CONTINUOUS
 62
     7
100
AcDbLine
 10
113.6367113633933
 20
131.99897511305
 30
0.0
 11
113.6367113633933
 21
136.0989751130501
 31
0.0
  0
LINE
  5
425
330
1F
100
AcDbEntity
  8
1
  6
CONTINUOUS
 62
     7
100
AcDbLine
 10
113.3367113633934
 20
136.0989751130501
 30
0.0
 11
113.3367113633934
 21
131.99897511305
 31
0.0
  0
LINE
  5
426
330
1F
100
AcDbEntity
  8
1
  6
CONTINUOUS
 62
     7
100
AcDbLine
 10
113.3367113633933
 20
144.7989750251499
 30
0.0
 11
113.3367113633934
 21
140.6989750251499
 31
0.0
  0
LINE
  5
427
330
1F
100
AcDbEntity
  8
1
  6
CONTINUOUS
 62
     7
100
AcDbLine
 10
113.6367113633933
 20
140.6989750251499
 30
0.0
 11
113.6367113633933
 21
144.7989750251499
 31
0.0
  0
LINE
  5
428
330
1F
100
AcDbEntity
  8
1
  6
CONTINUOUS
 62
     7
100
AcDbLine
 10
113.3367113633934
 20
140.6989750251499
 30
0.0
 11
113.6367113633933
 21
140.6989750251499
 31
0.0
  0
LINE
  5
429
330
1F
100
AcDbEntity
  8
1
  6
CONTINUOUS
 62
     7
100
AcDbLine
 10
114.3367113633934
 20
145.5989750251499
 30
0.0
 11
114.1367113633933
 21
145.5989750251499
 31
0.0
  0
LINE
  5
42A
330
1F
100
AcDbEntity
  8
1
  6
CONTINUOUS
 62
     7
100
AcDbLine
 10
114.3367113633933
 20
145.2989750251499
 30
0.0
 11
114.3367113633934
 21
145.5989750251499
 31
0.0
  0
LINE
  5
42B
330
1F
100
AcDbEntity
  8
1
  6
CONTINUOUS
 62
     7
100
AcDbLine
 10
114.3367113633933
 20
145.2989750251499
 30
0.0
 11
114.1367113633933
 21
145.2989750251499
 31
0.0
  0
LINE
  5
42C
330
1F
100
AcDbEntity
  8
1
  6
CONTINUOUS
 62
     7
100
AcDbLine
 10
118.2665955422617
 20
146.2469659053286
 30
0.0
 11
119.1890896226093
 21
144.6491592884852
 31
0.0
  0
LINE
  5
42D
330
1F
100
AcDbEntity
  8
1
  6
CONTINUOUS
 62
     7
100
AcDbLine
 10
118.2185850416418
 20
145.744619418416
 30
0.0
 11
118.2665955422617
 21
146.2469659053286
 31
0.0
  0
LINE
  5
42E
330
1F
100
AcDbEntity
  8
1
  6
CONTINUOUS
 62
     7
100
AcDbLine
 10
116.0736665012157
 20
138.6952910094851
 30
0.0
 11
116.2367113633933
 21
138.9776929946898
 31
0.0
  0
LINE
  5
42F
330
1F
100
AcDbEntity
  8
1
  6
CONTINUOUS
 62
     7
100
AcDbLine
 10
118.2665955422617
 20
138.7469660729786
 30
0.0
 11
119.1890896226093
 21
137.1491594561353
 31
0.0
  0
LINE
  5
430
330
1F
100
AcDbEntity
  8
1
  6
CONTINUOUS
 62
     7
100
AcDbLine
 10
118.2185850416418
 20
138.244619586066
 30
0.0
 11
118.2665955422617
 21
138.7469660729786
 31
0.0
  0
LINE
  5
431
330
1F
100
AcDbEntity
  8
1
  6
CONTINUOUS
 62
     7
100
AcDbLine
 10
116.0736665012157
 20
131.1952911771352
 30
0.0
 11
116.2367113633933
 21
131.4776931623398
 31
0.0
  0
LINE
  5
432
330
1F
100
AcDbEntity
  8
1
  6
CONTINUOUS
 62
     7
100
AcDbLine
 10
124.4367113633933
 20
139.2989743092
 30
0.0
 11
120.6367113633933
 21
139.2989743092
 31
0.0
  0
LINE
  5
433
330
1F
100
AcDbEntity
  8
1
  6
CONTINUOUS
 62
     7
100
AcDbLine
 10
120.1367113633933
 20
138.7989743092
 30
0.0
 11
120.1367113633933
 21
137.1989743092
 31
0.0
  0
LINE
  5
434
330
1F
100
AcDbEntity
  8
1
  6
CONTINUOUS
 62
     7
100
AcDbLine
 10
120.6367113633933
 20
136.6989743092
 30
0.0
 11
124.4367113633933
 21
136.6989743092
 31
0.0
  0
LINE
  5
435
330
1F
100
AcDbEntity
  8
1
  6
CONTINUOUS
 62
     7
100
AcDbLine
 10
124.9367113633933
 20
137.1989743092
 30
0.0
 11
124.9367113633933
 21
138.7989743092
 31
0.0
  0
LINE
  5
436
330
1F
100
AcDbEntity
  8
0
  6
CONTINUOUS
 62
     7
100
AcDbLine
 10
261.8962499931
 20
159.8888041499398
 30
0.0
 11
262.8962499931
 21
157.8888041499398
 31
0.0
  0
LINE
  5
437
330
1F
100
AcDbEntity
  8
0
  6
CONTINUOUS
 62
     7
100
AcDbLine
 10
261.2962499931
 20
158.7888041499398
 30
0.0
 11
261.2962499931
 21
157.8888041499398
 31
0.0
  0
LINE
  5
438
330
1F
100
AcDbEntity
  8
0
  6
DOTTED
 62
     7
100
AcDbLine
 10
260.8962499931
 20
159.8888041499398
 30
0.0
 11
260.8962499931
 21
158.7888041499398
 31
0.0
  0
LINE
  5
439
330
1F
100
AcDbEntity
  8
0
  6
CONTINUOUS
 62
     7
100
AcDbLine
 10
259.4962499931
 20
158.7888041499398
 30
0.0
 11
261.2962499931
 21
158.7888041499398
 31
0.0
  0
LINE
  5
43A
330
1F
100
AcDbEntity
  8
0
  6
CONTINUOUS
 62
     7
100
AcDbLine
 10
262.8962499931
 20
193.2888041499398
 30
0.0
 11
261.8962499931
 21
191.2888041499398
 31
0.0
  0
LINE
  5
43B
330
1F
100
AcDbEntity
  8
0
  6
CONTINUOUS
 62
     7
100
AcDbLine
 10
260.8962499931
 20
159.8888041499398
 30
0.0
 11
261.8962499931
 21
159.8888041499398
 31
0.0
  0
LINE
  5
43C
330
1F
100
AcDbEntity
  8
0
  6
CONTINUOUS
 62
     7
100
AcDbLine
 10
260.8962499931
 20
193.2888041499398
 30
0.0
 11
260.8962499931
 21
191.2888041499398
 31
0.0
  0
LINE
  5
43D
330
1F
100
AcDbEntity
  8
0
  6
CONTINUOUS
 62
     7
100
AcDbLine
 10
256.8962499931
 20
140.5888041499398
 30
0.0
 11
262.8962499931
 21
140.5888041499398
 31
0.0
  0
LINE
  5
43E
330
1F
100
AcDbEntity
  8
0
  6
CONTINUOUS
 62
     7
100
AcDbLine
 10
260.8962499931
 20
191.2888041499398
 30
0.0
 11
261.8962499931
 21
191.2888041499398
 31
0.0
  0
LINE
  5
43F
330
1F
100
AcDbEntity
  8
0
  6
CONTINUOUS
 62
     7
100
AcDbLine
 10
234.8962499931
 20
152.4888041499398
 30
0.0
 11
236.8962499931
 21
150.4888041499398
 31
0.0
  0
LINE
  5
440
330
1F
100
AcDbEntity
  8
0
  6
CONTINUOUS
 62
     7
100
AcDbLine
 10
236.8962499931
 20
200.6888041499398
 30
0.0
 11
234.8962499931
 21
198.6888031499398
 31
0.0
  0
LINE
  5
441
330
1F
100
AcDbEntity
  8
0
  6
CONTINUOUS
 62
     7
100
AcDbLine
 10
259.5962499931001
 20
139.5888041499398
 30
0.0
 11
259.5962499931001
 21
135.5888041499398
 31
0.0
  0
LINE
  5
442
330
1F
100
AcDbEntity
  8
0
  6
CONTINUOUS
 62
     7
100
AcDbLine
 10
246.3962499931
 20
141.5888041499398
 30
0.0
 11
248.3962499931
 21
139.5888041499398
 31
0.0
  0
LINE
  5
443
330
1F
100
AcDbEntity
  8
0
  6
CONTINUOUS
 62
     7
100
AcDbLine
 10
256.8962499931
 20
150.4888041499398
 30
0.0
 11
256.8962499931
 21
139.5888041499398
 31
0.0
  0
LINE
  5
444
330
1F
100
AcDbEntity
  8
0
  6
CONTINUOUS
 62
     7
100
AcDbLine
 10
248.3962499931
 20
211.5888041499398
 30
0.0
 11
246.3962499931
 21
209.5888031499398
 31
0.0
  0
LINE
  5
445
330
1F
100
AcDbEntity
  8
0
  6
CONTINUOUS
 62
     7
100
AcDbLine
 10
246.3962499931
 20
209.5888031499398
 30
0.0
 11
246.3962499931
 21
200.6888041499398
 31
0.0
  0
LINE
  5
446
330
1F
100
AcDbEntity
  8
0
  6
CONTINUOUS
 62
     7
100
AcDbLine
 10
234.8962499931
 20
198.6888031499398
 30
0.0
 11
234.8962499931
 21
152.4888041499398
 31
0.0
  0
LINE
  5
447
330
1F
100
AcDbEntity
  8
0
  6
CONTINUOUS
 62
     7
100
AcDbLine
 10
236.8962499931
 20
150.4888041499398
 30
0.0
 11
256.8962499931
 21
150.4888041499398
 31
0.0
  0
LINE
  5
448
330
1F
100
AcDbEntity
  8
0
  6
CONTINUOUS
 62
     7
100
AcDbLine
 10
236.8962499931
 20
200.6888041499398
 30
0.0
 11
246.3962499931
 21
200.6888041499398
 31
0.0
  0
LINE
  5
449
330
1F
100
AcDbEntity
  8
0
  6
CONTINUOUS
 62
     7
100
AcDbLine
 10
262.8962499931
 20
211.5888041499398
 30
0.0
 11
262.8962499931
 21
193.2888041499398
 31
0.0
  0
LINE
  5
44A
330
1F
100
AcDbEntity
  8
0
  6
CONTINUOUS
 62
     7
100
AcDbLine
 10
262.8962499931
 20
157.8888041499398
 30
0.0
 11
262.8962499931
 21
135.5888041499398
 31
0.0
  0
LINE
  5
44B
330
1F
100
AcDbEntity
  8
0
  6
CONTINUOUS
 62
     7
100
AcDbLine
 10
259.4962499931
 20
193.2888041499398
 30
0.0
 11
259.4962499931
 21
157.8888041499398
 31
0.0
  0
LINE
  5
44C
330
1F
100
AcDbEntity
  8
0
  6
CONTINUOUS
 62
     7
100
AcDbLine
 10
259.4962499931
 20
157.8888041499398
 30
0.0
 11
262.8962499931
 21
157.8888041499398
 31
0.0
  0
LINE
  5
44D
330
1F
100
AcDbEntity
  8
0
  6
CONTINUOUS
 62
     7
100
AcDbLine
 10
259.4962499931
 20
193.2888041499398
 30
0.0
 11
262.8962499931
 21
193.2888041499398
 31
0.0
  0
LINE
  5
44E
330
1F
100
AcDbEntity
  8
0
  6
CONTINUOUS
 62
     7
100
AcDbLine
 10
248.3962499931
 20
139.5888041499398
 30
0.0
 11
262.8962499931
 21
139.5888041499398
 31
0.0
  0
LINE
  5
44F
330
1F
100
AcDbEntity
  8
0
  6
CONTINUOUS
 62
     7
100
AcDbLine
 10
246.3962499931
 20
150.4888041499398
 30
0.0
 11
246.3962499931
 21
141.5888041499398
 31
0.0
  0
LINE
  5
450
330
1F
100
AcDbEntity
  8
0
  6
CONTINUOUS
 62
     7
100
AcDbLine
 10
259.5962499931001
 20
135.5888041499398
 30
0.0
 11
262.8962499931
 21
135.5888041499398
 31
0.0
  0
LINE
  5
451
330
1F
100
AcDbEntity
  8
0
  6
CONTINUOUS
 62
     7
100
AcDbLine
 10
248.3962499931
 20
211.5888041499398
 30
0.0
 11
262.8962499931
 21
211.5888041499398
 31
0.0
  0
LINE
  5
452
330
1F
100
AcDbEntity
  8
0
  6
CONTINUOUS
 62
     7
100
AcDbLine
 10
259.5962499931001
 20
138.5888041499398
 30
0.0
 11
262.8962499931
 21
138.5888041499398
 31
0.0
  0
LINE
  5
453
330
1F
100
AcDbEntity
  8
0
  6
CONTINUOUS
 62
     7
100
AcDbLine
 10
259.4962499931
 20
190.7888041499398
 30
0.0
 11
259.7962499931
 21
189.2888041499398
 31
0.0
  0
LINE
  5
454
330
1F
100
AcDbEntity
  8
0
  6
CONTINUOUS
 62
     7
100
AcDbLine
 10
259.7962499931
 20
189.2888041499398
 30
0.0
 11
259.4962499931
 21
187.7888041499398
 31
0.0
  0
LINE
  5
455
330
1F
100
AcDbEntity
  8
0
  6
DOTTED
 62
     7
100
AcDbLine
 10
259.8962499931
 20
193.0887888911399
 30
0.0
 11
260.8962499931
 21
193.0887888911399
 31
0.0
  0
LINE
  5
456
330
1F
100
AcDbEntity
  8
0
  6
DOTTED
 62
     7
100
AcDbLine
 10
259.8962499931
 20
158.0888041499399
 30
0.0
 11
260.8962499931
 21
158.0888041499399
 31
0.0
  0
LINE
  5
457
330
1F
100
AcDbEntity
  8
0
  6
DOTTED
 62
     7
100
AcDbLine
 10
266.1962530449001
 20
163.8888072017404
 30
0.0
 11
266.1962530449001
 21
187.2888010981402
 31
0.0
  0
LINE
  5
458
330
1F
100
AcDbEntity
  8
0
  6
DOTTED
 62
     7
100
AcDbLine
 10
267.1962530449001
 20
162.8888072017404
 30
0.0
 11
267.1962530449001
 21
188.2888010981402
 31
0.0
  0
LINE
  5
459
330
1F
100
AcDbEntity
  8
0
  6
DOTTED
 62
     7
100
AcDbLine
 10
260.6962683037001
 20
163.0887888911399
 30
0.0
 11
265.3962499931
 21
163.0887888911399
 31
0.0
  0
LINE
  5
45A
330
1F
100
AcDbEntity
  8
0
  6
DOTTED
 62
     7
100
AcDbLine
 10
261.6962683037001
 20
162.0887888911399
 30
0.0
 11
266.3962499931
 21
162.0887888911399
 31
0.0
  0
LINE
  5
45B
330
1F
100
AcDbEntity
  8
0
  6
DOTTED
 62
     7
100
AcDbLine
 10
260.8962499931
 20
158.0888041499399
 30
0.0
 11
260.8962499931
 21
161.2888010981402
 31
0.0
  0
LINE
  5
45C
330
1F
100
AcDbEntity
  8
0
  6
DOTTED
 62
     7
100
AcDbLine
 10
260.6962683037001
 20
188.0887888911399
 30
0.0
 11
265.3962499931
 21
188.0887888911399
 31
0.0
  0
LINE
  5
45D
330
1F
100
AcDbEntity
  8
0
  6
DOTTED
 62
     7
100
AcDbLine
 10
261.6962683037001
 20
189.0887888911399
 30
0.0
 11
266.3962499931
 21
189.0887888911399
 31
0.0
  0
LINE
  5
45E
330
1F
100
AcDbEntity
  8
0
  6
DOTTED
 62
     7
100
AcDbLine
 10
260.8962499931
 20
189.8888072017404
 30
0.0
 11
260.8962499931
 21
193.0888041499399
 31
0.0
  0
LINE
  5
45F
330
1F
100
AcDbEntity
  8
0
  6
CONTINUOUS
 62
     7
100
AcDbLine
 10
232.8962499931
 20
192.5888041499398
 30
0.0
 11
234.8962499931
 21
192.5888041499398
 31
0.0
  0
LINE
  5
460
330
1F
100
AcDbEntity
  8
0
  6
CONTINUOUS
 62
     7
100
AcDbLine
 10
232.8962499931
 20
189.5888041499398
 30
0.0
 11
234.8962499931
 21
189.5888041499398
 31
0.0
  0
LINE
  5
461
330
1F
100
AcDbEntity
  8
0
  6
CONTINUOUS
 62
     7
100
AcDbLine
 10
232.8962499931
 20
161.5888041499398
 30
0.0
 11
234.8962499931
 21
161.5888041499398
 31
0.0
  0
LINE
  5
462
330
1F
100
AcDbEntity
  8
0
  6
CONTINUOUS
 62
     7
100
AcDbLine
 10
232.8962499931
 20
158.5888041499398
 30
0.0
 11
234.8962499931
 21
158.5888041499398
 31
0.0
  0
LINE
  5
463
330
1F
100
AcDbEntity
  8
0
  6
CONTINUOUS
 62
     7
100
AcDbLine
 10
232.8962499931
 20
192.5888041499398
 30
0.0
 11
232.8962499931
 21
158.5888041499398
 31
0.0
  0
LINE
  5
464
330
1F
100
AcDbEntity
  8
1
  6
DOT_CENTER
 62
     7
100
AcDbLine
 10
257.98610776574
 20
175.5887888911399
 30
0.0
 11
268.98610776574
 21
175.5887888911399
 31
0.0
  0
LINE
  5
465
330
1F
100
AcDbEntity
  8
1
  6
DOTTED
 62
     7
100
AcDbLine
 10
97.42467511044259
 20
193.0887888911399
 30
0.0
 11
104.9367114788933
 21
193.0887888911399
 31
0.0
  0
LINE
  5
466
330
1F
100
AcDbEntity
  8
1
  6
DOTTED
 62
     7
100
AcDbLine
 10
96.45582160223677
 20
188.0887888911399
 30
0.0
 11
104.9367114788933
 21
188.0887888911399
 31
0.0
  0
LINE
  5
467
330
1F
100
AcDbEntity
  8
1
  6
DOTTED
 62
     7
100
AcDbLine
 10
94.57972068406053
 20
163.0887888911399
 30
0.0
 11
104.9367114788933
 21
163.0887888911399
 31
0.0
  0
LINE
  5
468
330
1F
100
AcDbEntity
  8
1
  6
DOTTED
 62
     7
100
AcDbLine
 10
96.0460983001314
 20
158.0888041499399
 30
0.0
 11
104.9367114788933
 21
158.0888041499399
 31
0.0
  0
LINE
  5
469
330
1F
100
AcDbEntity
  8
1
  6
DOTTED
 62
     7
100
AcDbLine
 10
131.4551089468568
 20
158.0888041499399
 30
0.0
 11
127.4367123728933
 21
158.0888041499399
 31
0.0
  0
LINE
  5
46A
330
1F
100
AcDbEntity
  8
1
  6
DOTTED
 62
     7
100
AcDbLine
 10
129.9887313307859
 20
163.0887888911399
 30
0.0
 11
127.4367123728933
 21
163.0887888911399
 31
0.0
  0
LINE
  5
46B
330
1F
100
AcDbEntity
  8
1
  6
DOTTED
 62
     7
100
AcDbLine
 10
131.8648322489622
 20
188.0887888911399
 30
0.0
 11
127.4367123728933
 21
188.0887888911399
 31
0.0
  0
LINE
  5
46C
330
1F
100
AcDbEntity
  8
1
  6
DOTTED
 62
     7
100
AcDbLine
 10
132.833685757168
 20
193.0887888911399
 30
0.0
 11
127.4367123728933
 21
193.0887888911399
 31
0.0
  0
ARC
  5
46D
330
1F
100
AcDbEntity
  8
0
  6
CONTINUOUS
 62
     7
100
AcDbCircle
 10
217.7893533801
 20
210.2489739739
 30
0.0
 40
0.5000000000001331
100
AcDbArc
 50
5.00000000001808
 51
90.0
  0
ARC
  5
46E
330
1F
100
AcDbEntity
  8
0
  6
CONTINUOUS
 62
     7
100
AcDbCircle
 10
232.3962496951
 20
126.2489739739
 30
0.0
 40
0.5
100
AcDbArc
 50
270.0
 51
270.8639705361873
  0
ARC
  5
46F
330
1F
100
AcDbEntity
  8
0
  6
CONTINUOUS
 62
     7
100
AcDbCircle
 10
232.3962496951
 20
208.5489739739
 30
0.0
 40
0.5000000000000207
100
AcDbArc
 50
89.13602946381269
 51
90.0
  0
ARC
  5
470
330
1F
100
AcDbEntity
  8
0
  6
CONTINUOUS
 62
     7
100
AcDbCircle
 10
232.3962496951
 20
126.2489739739
 30
0.0
 40
0.5000000000000209
100
AcDbArc
 50
359.136029463811
 51
0.0
  0
ARC
  5
471
330
1F
100
AcDbEntity
  8
0
  6
CONTINUOUS
 62
     7
100
AcDbCircle
 10
232.3962496951
 20
208.5489739739
 30
0.0
 40
0.5
100
AcDbArc
 50
0.0
 51
0.86397053619058
  0
ARC
  5
472
330
1F
100
AcDbEntity
  8
0
  6
CONTINUOUS
 62
     7
100
AcDbCircle
 10
232.3962496951
 20
126.2489739739
 30
0.0
 40
0.5000000000000207
100
AcDbArc
 50
270.8639705361873
 51
359.136029463811
  0
ARC
  5
473
330
1F
100
AcDbEntity
  8
0
  6
CONTINUOUS
 62
     7
100
AcDbCircle
 10
232.3962496951
 20
208.5489739739
 30
0.0
 40
0.500000000000021
100
AcDbArc
 50
0.86397053619058
 51
89.13602946381269
  0
ARC
  5
474
330
1F
100
AcDbEntity
  8
0
  6
CONTINUOUS
 62
     7
100
AcDbCircle
 10
183.2462496951
 20
130.2489739739
 30
0.0
 40
1.299999999999983
100
AcDbArc
 50
90.0
 51
270.0
  0
ARC
  5
475
330
1F
100
AcDbEntity
  8
0
  6
CONTINUOUS
 62
     7
100
AcDbCircle
 10
189.2462496951
 20
130.2489739739
 30
0.0
 40
1.300000000000011
100
AcDbArc
 50
270.0
 51
90.0
  0
ARC
  5
476
330
1F
100
AcDbEntity
  8
0
  6
CONTINUOUS
 62
     7
100
AcDbCircle
 10
223.8962496951
 20
209.7489739739
 30
0.0
 40
0.2999999999999829
100
AcDbArc
 50
90.0
 51
180.0
  0
ARC
  5
477
330
1F
100
AcDbEntity
  8
0
  6
CONTINUOUS
 62
     7
100
AcDbCircle
 10
232.2962496951
 20
209.7489739739
 30
0.0
 40
0.3000000000000114
100
AcDbArc
 50
0.0
 51
90.0
  0
ARC
  5
478
330
1F
100
AcDbEntity
  8
0
  6
CONTINUOUS
 62
     7
100
AcDbCircle
 10
218.8962496951
 20
209.7489739739
 30
0.0
 40
0.2999999999999829
100
AcDbArc
 50
90.0
 51
180.0
  0
ARC
  5
479
330
1F
100
AcDbEntity
  8
0
  6
CONTINUOUS
 62
     7
100
AcDbCircle
 10
159.2143052506
 20
169.2489739739
 30
0.0
 40
6.318055555556101
100
AcDbArc
 50
149.0427236691981
 51
210.9572763308021
  0
ARC
  5
47A
330
1F
100
AcDbEntity
  8
0
  6
CONTINUOUS
 62
     7
100
AcDbCircle
 10
116.1867114788933
 20
169.2489739739
 30
0.0
 40
3.999999999999858
100
AcDbArc
 50
28.32877405140112
 51
29.37598985249281
  0
ARC
  5
47B
330
1F
100
AcDbEntity
  8
0
  6
CONTINUOUS
 62
     7
100
AcDbCircle
 10
116.1867114788933
 20
169.2489739739
 30
0.0
 40
3.99999999999997
100
AcDbArc
 50
40.32877405140218
 51
41.37598985250277
  0
ARC
  5
47C
330
1F
100
AcDbEntity
  8
0
  6
CONTINUOUS
 62
     7
100
AcDbCircle
 10
116.1867114788933
 20
169.2489739739
 30
0.0
 40
4.000000000000222
100
AcDbArc
 50
52.3287740514048
 51
53.37598985250325
  0
ARC
  5
47D
330
1F
100
AcDbEntity
  8
0
  6
CONTINUOUS
 62
     7
100
AcDbCircle
 10
116.1867114788933
 20
169.2489739739
 30
0.0
 40
4.000000000000135
100
AcDbArc
 50
64.32877405140295
 51
65.37598985249822
  0
ARC
  5
47E
330
1F
100
AcDbEntity
  8
0
  6
CONTINUOUS
 62
     7
100
AcDbCircle
 10
116.1867114788933
 20
169.2489739739
 30
0.0
 40
4.000000000000011
100
AcDbArc
 50
76.32877405139928
 51
77.37598985250015
  0
ARC
  5
47F
330
1F
100
AcDbEntity
  8
0
  6
CONTINUOUS
 62
     7
100
AcDbCircle
 10
116.1867114788933
 20
169.2489739739
 30
0.0
 40
3.999999999999661
100
AcDbArc
 50
88.32877405139871
 51
89.37598985249548
  0
ARC
  5
480
330
1F
100
AcDbEntity
  8
0
  6
CONTINUOUS
 62
     7
100
AcDbCircle
 10
116.1867114788933
 20
169.2489739739
 30
0.0
 40
4.000000000000151
100
AcDbArc
 50
100.3287740514034
 51
101.3759898525029
  0
ARC
  5
481
330
1F
100
AcDbEntity
  8
0
  6
CONTINUOUS
 62
     7
100
AcDbCircle
 10
116.1867114788933
 20
169.2489739739
 30
0.0
 40
3.999999999999856
100
AcDbArc
 50
112.328774051394
 51
113.3759898525042
  0
ARC
  5
482
330
1F
100
AcDbEntity
  8
0
  6
CONTINUOUS
 62
     7
100
AcDbCircle
 10
116.1867114788933
 20
169.2489739739
 30
0.0
 40
3.999999999999868
100
AcDbArc
 50
124.3287740514037
 51
125.3759898524975
  0
ARC
  5
483
330
1F
100
AcDbEntity
  8
0
  6
CONTINUOUS
 62
     7
100
AcDbCircle
 10
116.1867114788933
 20
169.2489739739
 30
0.0
 40
4.000000000000185
100
AcDbArc
 50
136.3287740513919
 51
137.3759898525006
  0
ARC
  5
484
330
1F
100
AcDbEntity
  8
0
  6
CONTINUOUS
 62
     7
100
AcDbCircle
 10
116.1867114788933
 20
169.2489739739
 30
0.0
 40
3.999999999999599
100
AcDbArc
 50
148.3287740514027
 51
149.3759898525005
  0
ARC
  5
485
330
1F
100
AcDbEntity
  8
0
  6
CONTINUOUS
 62
     7
100
AcDbCircle
 10
116.1867114788933
 20
169.2489739739
 30
0.0
 40
4.000000000000137
100
AcDbArc
 50
160.3287740514006
 51
161.3759898524966
  0
ARC
  5
486
330
1F
100
AcDbEntity
  8
0
  6
CONTINUOUS
 62
     7
100
AcDbCircle
 10
116.1867114788933
 20
169.2489739739
 30
0.0
 40
4.000000000000385
100
AcDbArc
 50
172.3287740514063
 51
173.3759898525044
  0
ARC
  5
487
330
1F
100
AcDbEntity
  8
0
  6
CONTINUOUS
 62
     7
100
AcDbCircle
 10
116.1867114788933
 20
169.2489739739
 30
0.0
 40
4.000000000000048
100
AcDbArc
 50
184.328774051407
 51
185.3759898524968
  0
ARC
  5
488
330
1F
100
AcDbEntity
  8
0
  6
CONTINUOUS
 62
     7
100
AcDbCircle
 10
116.1867114788933
 20
169.2489739739
 30
0.0
 40
3.999999999999941
100
AcDbArc
 50
196.3287740514075
 51
197.3759898524968
  0
ARC
  5
489
330
1F
100
AcDbEntity
  8
0
  6
CONTINUOUS
 62
     7
100
AcDbCircle
 10
116.1867114788933
 20
169.2489739739
 30
0.0
 40
3.999999999999871
100
AcDbArc
 50
208.3287740514015
 51
209.3759898524928
  0
ARC
  5
48A
330
1F
100
AcDbEntity
  8
0
  6
CONTINUOUS
 62
     7
100
AcDbCircle
 10
116.1867114788933
 20
169.2489739739
 30
0.0
 40
3.99999999999997
100
AcDbArc
 50
220.3287740514021
 51
221.375989852503
  0
ARC
  5
48B
330
1F
100
AcDbEntity
  8
0
  6
CONTINUOUS
 62
     7
100
AcDbCircle
 10
116.1867114788933
 20
169.2489739739
 30
0.0
 40
4.000000000000244
100
AcDbArc
 50
232.328774051405
 51
233.3759898525035
  0
ARC
  5
48C
330
1F
100
AcDbEntity
  8
0
  6
CONTINUOUS
 62
     7
100
AcDbCircle
 10
116.1867114788933
 20
169.2489739739
 30
0.0
 40
4.000000000000161
100
AcDbArc
 50
244.3287740514031
 51
245.3759898524982
  0
ARC
  5
48D
330
1F
100
AcDbEntity
  8
0
  6
CONTINUOUS
 62
     7
100
AcDbCircle
 10
116.1867114788933
 20
169.2489739739
 30
0.0
 40
4.000000000000038
100
AcDbArc
 50
256.3287740513994
 51
257.3759898525003
  0
ARC
  5
48E
330
1F
100
AcDbEntity
  8
0
  6
CONTINUOUS
 62
     7
100
AcDbCircle
 10
116.1867114788933
 20
169.2489739739
 30
0.0
 40
3.999999999999661
100
AcDbArc
 50
268.3287740513987
 51
269.3759898524951
  0
ARC
  5
48F
330
1F
100
AcDbEntity
  8
0
  6
CONTINUOUS
 62
     7
100
AcDbCircle
 10
116.1867114788933
 20
169.2489739739
 30
0.0
 40
4.000000000000151
100
AcDbArc
 50
280.3287740514034
 51
281.3759898525029
  0
ARC
  5
490
330
1F
100
AcDbEntity
  8
0
  6
CONTINUOUS
 62
     7
100
AcDbCircle
 10
116.1867114788933
 20
169.2489739739
 30
0.0
 40
3.999999999999856
100
AcDbArc
 50
292.3287740513941
 51
293.3759898525041
  0
ARC
  5
491
330
1F
100
AcDbEntity
  8
0
  6
CONTINUOUS
 62
     7
100
AcDbCircle
 10
116.1867114788933
 20
169.2489739739
 30
0.0
 40
3.999999999999868
100
AcDbArc
 50
304.3287740514036
 51
305.3759898524974
  0
ARC
  5
492
330
1F
100
AcDbEntity
  8
0
  6
CONTINUOUS
 62
     7
100
AcDbCircle
 10
116.1867114788933
 20
169.2489739739
 30
0.0
 40
3.999999999999498
100
AcDbArc
 50
316.3287740514023
 51
317.3759898525003
  0
ARC
  5
493
330
1F
100
AcDbEntity
  8
0
  6
CONTINUOUS
 62
     7
100
AcDbCircle
 10
116.1867114788933
 20
169.2489739739
 30
0.0
 40
3.999999999999614
100
AcDbArc
 50
328.3287740514024
 51
329.3759898525005
  0
ARC
  5
494
330
1F
100
AcDbEntity
  8
0
  6
CONTINUOUS
 62
     7
100
AcDbCircle
 10
116.1867114788933
 20
169.2489739739
 30
0.0
 40
4.000000000000137
100
AcDbArc
 50
340.3287740514006
 51
341.3759898524961
  0
ARC
  5
495
330
1F
100
AcDbEntity
  8
0
  6
CONTINUOUS
 62
     7
100
AcDbCircle
 10
116.1867114788933
 20
169.2489739739
 30
0.0
 40
4.000000000000389
100
AcDbArc
 50
352.3287740514059
 51
353.3759898525039
  0
ARC
  5
496
330
1F
100
AcDbEntity
  8
0
  6
CONTINUOUS
 62
     7
100
AcDbCircle
 10
116.1867114788933
 20
169.2489739739
 30
0.0
 40
4.000000000000045
100
AcDbArc
 50
4.32877405140663
 51
5.37598985249686
  0
ARC
  5
497
330
1F
100
AcDbEntity
  8
0
  6
CONTINUOUS
 62
     7
100
AcDbCircle
 10
116.1867114788933
 20
169.2489739739
 30
0.0
 40
3.999999999999933
100
AcDbArc
 50
16.32877405140712
 51
17.37598985249675
  0
ARC
  5
498
330
1F
100
AcDbEntity
  8
1
  6
CONTINUOUS
 62
     7
100
AcDbCircle
 10
125.0867122089932
 20
209.8989754342
 30
0.0
 40
0.7000000000000881
100
AcDbArc
 50
0.0
 51
90.0
  0
ARC
  5
499
330
1F
100
AcDbEntity
  8
1
  6
CONTINUOUS
 62
     7
100
AcDbCircle
 10
125.0867122089932
 20
209.8989754342
 30
0.0
 40
0.2999999999999972
100
AcDbArc
 50
0.0
 51
90.0
  0
ARC
  5
49A
330
1F
100
AcDbEntity
  8
1
  6
CONTINUOUS
 62
     7
100
AcDbCircle
 10
125.0867122089932
 20
126.5989725136001
 30
0.0
 40
0.7000000000002018
100
AcDbArc
 50
270.0
 51
0.0
  0
ARC
  5
49B
330
1F
100
AcDbEntity
  8
1
  6
CONTINUOUS
 62
     7
100
AcDbCircle
 10
125.0867122089932
 20
126.5989725136001
 30
0.0
 40
0.3000000000000966
100
AcDbArc
 50
270.0
 51
0.0
  0
ARC
  5
49C
330
1F
100
AcDbEntity
  8
1
  6
CONTINUOUS
 62
     7
100
AcDbCircle
 10
107.2867115263933
 20
126.5989725136001
 30
0.0
 40
0.6999999999998039
100
AcDbArc
 50
180.0
 51
270.0000000000081
  0
ARC
  5
49D
330
1F
100
AcDbEntity
  8
1
  6
CONTINUOUS
 62
     7
100
AcDbCircle
 10
107.2867115263933
 20
126.5989725136001
 30
0.0
 40
0.3000000000000114
100
AcDbArc
 50
180.0
 51
270.0
  0
ARC
  5
49E
330
1F
100
AcDbEntity
  8
1
  6
CONTINUOUS
 62
     7
100
AcDbCircle
 10
107.2867115263933
 20
209.8989754342
 30
0.0
 40
0.3000000000000114
100
AcDbArc
 50
90.0
 51
180.0
  0
ARC
  5
49F
330
1F
100
AcDbEntity
  8
1
  6
CONTINUOUS
 62
     7
100
AcDbCircle
 10
107.2867115263933
 20
209.8989754342
 30
0.0
 40
0.7000000000001023
100
AcDbArc
 50
89.99999999999186
 51
180.0
  0
ARC
  5
4A0
330
1F
100
AcDbEntity
  8
1
  6
CONTINUOUS
 62
     7
100
AcDbCircle
 10
123.1867114788933
 20
201.9489739739
 30
0.0
 40
0.5
100
AcDbArc
 50
0.0
 51
90.0
  0
ARC
  5
4A1
330
1F
100
AcDbEntity
  8
1
  6
CONTINUOUS
 62
     7
100
AcDbCircle
 10
109.1867114788933
 20
201.9489739739
 30
0.0
 40
0.5
100
AcDbArc
 50
90.0
 51
180.0
  0
ARC
  5
4A2
330
1F
100
AcDbEntity
  8
1
  6
CONTINUOUS
 62
     7
100
AcDbCircle
 10
109.1867114788933
 20
177.4489739739
 30
0.0
 40
0.5
100
AcDbArc
 50
180.0
 51
270.0
  0
ARC
  5
4A3
330
1F
100
AcDbEntity
  8
1
  6
CONTINUOUS
 62
     7
100
AcDbCircle
 10
123.1867114788933
 20
177.4489739739
 30
0.0
 40
0.5
100
AcDbArc
 50
270.0
 51
0.0
  0
ARC
  5
4A4
330
1F
100
AcDbEntity
  8
1
  6
CONTINUOUS
 62
     7
100
AcDbCircle
 10
125.4867122089933
 20
126.1989725136
 30
0.0
 40
0.7000000000000028
100
AcDbArc
 50
270.0
 51
0.0
  0
ARC
  5
4A5
330
1F
100
AcDbEntity
  8
1
  6
CONTINUOUS
 62
     7
100
AcDbCircle
 10
106.8867115263933
 20
126.1989725136
 30
0.0
 40
0.6999999999999034
100
AcDbArc
 50
180.0
 51
270.0
  0
ARC
  5
4A6
330
1F
100
AcDbEntity
  8
1
  6
CONTINUOUS
 62
     7
100
AcDbCircle
 10
106.8867115263933
 20
210.2989754342
 30
0.0
 40
0.6999999999999886
100
AcDbArc
 50
90.0
 51
180.0
  0
ARC
  5
4A7
330
1F
100
AcDbEntity
  8
1
  6
CONTINUOUS
 62
     7
100
AcDbCircle
 10
125.4867122089933
 20
210.2989754342
 30
0.0
 40
0.7000000000001023
100
AcDbArc
 50
0.0
 51
90.0
  0
ARC
  5
4A8
330
1F
100
AcDbEntity
  8
1
  6
CONTINUOUS
 62
     7
100
AcDbCircle
 10
114.1367113633933
 20
131.99897511305
 30
0.0
 40
0.5
100
AcDbArc
 50
180.0
 51
270.0
  0
ARC
  5
4A9
330
1F
100
AcDbEntity
  8
1
  6
CONTINUOUS
 62
     7
100
AcDbCircle
 10
114.1367113633933
 20
131.99897511305
 30
0.0
 40
0.7999999999998977
100
AcDbArc
 50
180.0
 51
270.0
  0
ARC
  5
4AA
330
1F
100
AcDbEntity
  8
1
  6
CONTINUOUS
 62
     7
100
AcDbCircle
 10
114.1367113633933
 20
144.79897502515
 30
0.0
 40
0.7999999999998977
100
AcDbArc
 50
90.0
 51
180.0000000000082
  0
ARC
  5
4AB
330
1F
100
AcDbEntity
  8
1
  6
CONTINUOUS
 62
     7
100
AcDbCircle
 10
114.1367113633933
 20
144.79897502515
 30
0.0
 40
0.4999999999998863
100
AcDbArc
 50
90.0
 51
180.000000000013
  0
ARC
  5
4AC
330
1F
100
AcDbEntity
  8
1
  6
CONTINUOUS
 62
     7
100
AcDbCircle
 10
117.8367113633934
 20
141.7489742868
 30
0.0
 40
3.199999999999939
100
AcDbArc
 50
65.00000352355099
 51
239.9999999999984
  0
ARC
  5
4AD
330
1F
100
AcDbEntity
  8
1
  6
CONTINUOUS
 62
     7
100
AcDbCircle
 10
118.0367113633933
 20
141.9489742868001
 30
0.0
 40
3.79999999999987
100
AcDbArc
 50
87.25669033596499
 51
238.896157462054
  0
ARC
  5
4AE
330
1F
100
AcDbEntity
  8
1
  6
CONTINUOUS
 62
     7
100
AcDbCircle
 10
117.8367113633934
 20
134.24897445445
 30
0.0
 40
3.200000000000017
100
AcDbArc
 50
65.00000352355163
 51
239.9999999999984
  0
ARC
  5
4AF
330
1F
100
AcDbEntity
  8
1
  6
CONTINUOUS
 62
     7
100
AcDbCircle
 10
118.0367113633933
 20
134.4489744544501
 30
0.0
 40
3.79999999999987
100
AcDbArc
 50
87.25669033596499
 51
238.8961574620531
  0
ARC
  5
4B0
330
1F
100
AcDbEntity
  8
1
  6
CONTINUOUS
 62
     7
100
AcDbCircle
 10
124.4367113633933
 20
138.7989743092
 30
0.0
 40
0.5
100
AcDbArc
 50
0.0
 51
90.0
  0
ARC
  5
4B1
330
1F
100
AcDbEntity
  8
1
  6
CONTINUOUS
 62
     7
100
AcDbCircle
 10
124.4367113633933
 20
137.1989743092
 30
0.0
 40
0.5
100
AcDbArc
 50
270.0
 51
0.0
  0
ARC
  5
4B2
330
1F
100
AcDbEntity
  8
1
  6
CONTINUOUS
 62
     7
100
AcDbCircle
 10
120.6367113633933
 20
138.7989743092
 30
0.0
 40
0.5
100
AcDbArc
 50
90.0
 51
180.0
  0
ARC
  5
4B3
330
1F
100
AcDbEntity
  8
1
  6
CONTINUOUS
 62
     7
100
AcDbCircle
 10
120.6367113633933
 20
137.1989743092
 30
0.0
 40
0.5
100
AcDbArc
 50
180.0
 51
270.0
  0
ARC
  5
4B4
330
1F
100
AcDbEntity
  8
0
  6
DOTTED
 62
     7
100
AcDbCircle
 10
260.6962683037001
 20
188.8888072017404
 30
0.0
 40
0.8000000119001682
100
AcDbArc
 50
179.999964027805
 51
269.9999460417084
  0
ARC
  5
4B5
330
1F
100
AcDbEntity
  8
0
  6
DOTTED
 62
     7
100
AcDbCircle
 10
260.6962683037001
 20
162.2888010981402
 30
0.0
 40
0.80000001190005
100
AcDbArc
 50
89.99998201392995
 51
179.999964027805
  0
ARC
  5
4B6
330
1F
100
AcDbEntity
  8
0
  6
DOTTED
 62
     7
100
AcDbCircle
 10
266.3962499931
 20
162.8888072017404
 30
0.0
 40
0.80000001190005
100
AcDbArc
 50
270.000017986066
 51
0.0
  0
ARC
  5
4B7
330
1F
100
AcDbEntity
  8
0
  6
DOTTED
 62
     7
100
AcDbCircle
 10
265.3962499931
 20
163.8888072017404
 30
0.0
 40
0.80000001190005
100
AcDbArc
 50
270.000017986066
 51
0.0
  0
ARC
  5
4B8
330
1F
100
AcDbEntity
  8
0
  6
DOTTED
 62
     7
100
AcDbCircle
 10
261.6962683037001
 20
161.2888010981402
 30
0.0
 40
0.80000001190005
100
AcDbArc
 50
89.99998201392995
 51
179.999964027805
  0
ARC
  5
4B9
330
1F
100
AcDbEntity
  8
0
  6
DOTTED
 62
     7
100
AcDbCircle
 10
266.3962499931
 20
188.2888010981402
 30
0.0
 40
0.8000000119000106
100
AcDbArc
 50
0.0
 51
89.99998201393403
  0
ARC
  5
4BA
330
1F
100
AcDbEntity
  8
0
  6
DOTTED
 62
     7
100
AcDbCircle
 10
261.6962683037001
 20
189.8888072017404
 30
0.0
 40
0.8000000119001682
100
AcDbArc
 50
179.999964027805
 51
269.9999460417084
  0
ARC
  5
4BB
330
1F
100
AcDbEntity
  8
0
  6
DOTTED
 62
     7
100
AcDbCircle
 10
265.3962499931
 20
187.2888010981402
 30
0.0
 40
0.8000000119000106
100
AcDbArc
 50
0.0
 51
89.99998201393403
  0
ARC
  5
4BC
330
1F
100
AcDbEntity
  8
1
  6
DOTTED
 62
     7
100
AcDbCircle
 10
73.5115153924361
 20
195.128590916119
 30
0.0
 40
23.99999999999995
100
AcDbArc
 50
342.9428707572327
 51
355.124449477453
  0
ARC
  5
4BD
330
1F
100
AcDbEntity
  8
1
  6
DOTTED
 62
     7
100
AcDbCircle
 10
73.5115153924361
 20
195.128590916119
 30
0.0
 40
23.99999999999998
100
AcDbArc
 50
337.6251999459304
 51
342.9428707572327
  0
ARC
  5
4BE
330
1F
100
AcDbEntity
  8
1
  6
DOTTED
 62
     7
100
AcDbCircle
 10
103.5794029502833
 20
163.0131641132244
 30
0.0
 40
8.999999999999623
100
AcDbArc
 50
150.6143383496661
 51
179.5185520453277
  0
ARC
  5
4BF
330
1F
100
AcDbEntity
  8
1
  6
DOTTED
 62
     7
100
AcDbCircle
 10
103.5794029502833
 20
163.0131641132244
 30
0.0
 40
8.999999999999957
100
AcDbArc
 50
179.5185520453277
 51
213.1717856860909
  0
ARC
  5
4C0
330
1F
100
AcDbEntity
  8
1
  6
DOTTED
 62
     7
100
AcDbCircle
 10
138.9884135970087
 20
163.0131641132244
 30
0.0
 40
9.0
100
AcDbArc
 50
179.5185520453277
 51
213.1717856860908
  0
ARC
  5
4C1
330
1F
100
AcDbEntity
  8
1
  6
DOTTED
 62
     7
100
AcDbCircle
 10
138.9884135970087
 20
163.0131641132244
 30
0.0
 40
8.999999999999588
100
AcDbArc
 50
150.614338349666
 51
179.5185520453277
  0
ARC
  5
4C2
330
1F
100
AcDbEntity
  8
1
  6
DOTTED
 62
     7
100
AcDbCircle
 10
108.9205260391615
 20
195.128590916119
 30
0.0
 40
24.0
100
AcDbArc
 50
337.6251999459304
 51
342.9428707572327
  0
ARC
  5
4C3
330
1F
100
AcDbEntity
  8
1
  6
DOTTED
 62
     7
100
AcDbCircle
 10
108.9205260391615
 20
195.128590916119
 30
0.0
 40
23.99999999999997
100
AcDbArc
 50
342.9428707572327
 51
355.124449477453
  0
ARC
  5
4C4
330
1F
100
AcDbEntity
  8
1
  6
DOTTED
 62
     7
100
AcDbCircle
 10
104.9517760016187
 20
182.1860249871128
 30
0.0
 40
9.999999999999892
100
AcDbArc
 50
157.6251999459301
 51
206.4664464766157
  0
ARC
  5
4C5
330
1F
100
AcDbEntity
  8
1
  6
DOTTED
 62
     7
100
AcDbCircle
 10
86.15267028636993
 20
172.8268784284303
 30
0.0
 40
10.99999999999993
100
AcDbArc
 50
330.6143383496666
 51
26.4664464766157
  0
ARC
  5
4C6
330
1F
100
AcDbEntity
  8
1
  6
DOTTED
 62
     7
100
AcDbCircle
 10
121.5616809330953
 20
172.8268784284303
 30
0.0
 40
10.99999999999999
100
AcDbArc
 50
330.6143383496668
 51
26.46644647661554
  0
ARC
  5
4C7
330
1F
100
AcDbEntity
  8
1
  6
DOTTED
 62
     7
100
AcDbCircle
 10
140.3607866483441
 20
182.1860249871128
 30
0.0
 40
9.999999999999865
100
AcDbArc
 50
157.6251999459301
 51
206.4664464766158
  0
CIRCLE
  5
4C8
330
1F
100
AcDbEntity
  8
0
  6
CONTINUOUS
 62
     7
100
AcDbCircle
 10
166.8962496951
 20
168.2489739739
 30
0.0
 40
0.549999999999983
  0
CIRCLE
  5
4C9
330
1F
100
AcDbEntity
  8
0
  6
CONTINUOUS
 62
     7
100
AcDbCircle
 10
166.8962496951
 20
130.2489739739
 30
0.0
 40
0.549999999999983
  0
CIRCLE
  5
4CA
330
1F
100
AcDbEntity
  8
0
  6
CONTINUOUS
 62
     7
100
AcDbCircle
 10
166.8962496951
 20
206.2489739739
 30
0.0
 40
0.549999999999983
  0
CIRCLE
  5
4CB
330
1F
100
AcDbEntity
  8
0
  6
CONTINUOUS
 62
     7
100
AcDbCircle
 10
116.1867114788933
 20
169.2489739739
 30
0.0
 40
3.25
  0
CIRCLE
  5
4CC
330
1F
100
AcDbEntity
  8
1
  6
CONTINUOUS
 62
     7
100
AcDbCircle
 10
110.6867114788933
 20
133.2489739739
 30
0.0
 40
1.799999999999997
  0
CIRCLE
  5
4CD
330
1F
100
AcDbEntity
  8
1
  6
CONTINUOUS
 62
     7
100
AcDbCircle
 10
110.6867114788933
 20
142.7489739739
 30
0.0
 40
1.799999999999997
  0
CIRCLE
  5
4CE
330
1F
100
AcDbEntity
  8
1
  6
CONTINUOUS
 62
     7
100
AcDbCircle
 10
110.6867114788933
 20
152.2489739739
 30
0.0
 40
1.799999999999997
  0
CIRCLE
  5
4CF
330
1F
100
AcDbEntity
  8
1
  6
CONTINUOUS
 62
     7
100
AcDbCircle
 10
110.6867114788933
 20
161.7489739739
 30
0.0
 40
1.799999999999997
  0
CIRCLE
  5
4D0
330
1F
100
AcDbEntity
  8
1
  6
CONTINUOUS
 62
     7
100
AcDbCircle
 10
117.8367113633934
 20
134.2489739888
 30
0.0
 40
2.799696459021391
  0
CIRCLE
  5
4D1
330
1F
100
AcDbEntity
  8
1
  6
CONTINUOUS
 62
     7
100
AcDbCircle
 10
117.8367113633934
 20
141.74897428685
 30
0.0
 40
2.799696459021391
  0
SPLINE
  5
4D2
330
1F
100
AcDbEntity
  8
0
  6
CONTINUOUS
 62
     7
100
AcDbSpline
210
0.0
220
0.0
230
1.0
 70
  1064
 71
     3
 72
    19
 73
    15
 74
    13
 42
0.000000001
 43
0.0000000001
 44
0.00000001
 40
0.0
 40
0.0
 40
0.0
 40
0.0
 40
0.0825770564898675
 40
0.1651524710591802
 40
0.2023323129489686
 40
0.2395114997296028
 40
0.2728804415529958
 40
0.3062498163248457
 40
0.3353195961723833
 40
0.3643803932604729
 40
0.3890433165142251
 40
0.4137291174832626
 40
0.4529090955589496
 40
0.4920012273797849
 40
0.4920012273797849
 40
0.4920012273797849
 40
0.4920012273797849
 10
105.3498873900603
 20
212.006114087227
 30
0.0
 10
105.3224698636914
 20
212.0035504463766
 30
0.0
 10
105.2676353560112
 20
211.9984232168486
 30
0.0
 10
105.2012927061824
 20
211.985581729502
 30
0.0
 10
105.1506720410563
 20
211.9723495327398
 30
0.0
 10
105.1164148967617
 20
211.9615202681163
 30
0.0
 10
105.0839762736422
 20
211.9493210695079
 30
0.0
 10
105.0548191487289
 20
211.9362337573173
 30
0.0
 10
105.0278894041041
 20
211.921851742517
 30
0.0
 10
105.0046678295141
 20
211.906894032223
 30
0.0
 10
104.9839948357493
 20
211.8907711478376
 30
0.0
 10
104.9631422964567
 20
211.8699914983175
 30
0.0
 10
104.9422233315686
 20
211.8414528381009
 30
0.0
 10
104.938547383504
 20
211.8152436248796
 30
0.0
 10
104.9367114788933
 20
211.8021537234
 30
0.0
 11
105.3498873900603
 21
212.006114087227
 31
0.0
 11
105.2678055090623
 21
211.9970845009707
 31
0.0
 11
105.1867114788935
 21
211.981513457215
 31
0.0
 11
105.1507566580343
 21
211.9720481785628
 31
0.0
 11
105.1153176740504
 21
211.9608067222703
 31
0.0
 11
105.0841070414847
 21
211.949000677807
 31
0.0
 11
105.0536892573339
 21
211.9352793962371
 31
0.0
 11
105.0280879423176
 21
211.9215089657727
 31
0.0
 11
105.0036987770011
 21
211.9057071139997
 31
0.0
 11
104.9843473367635
 21
211.8904171984929
 31
0.0
 11
104.9668651685002
 21
211.8729884143898
 31
0.0
 11
104.9452691845379
 21
211.8402976753131
 31
0.0
 11
104.9367114788933
 21
211.8021537234
 31
0.0
  0
SPLINE
  5
4D3
330
1F
100
AcDbEntity
  8
0
  6
CONTINUOUS
 62
     7
100
AcDbSpline
210
0.0
220
0.0
230
1.0
 70
  1064
 71
     3
 72
    19
 73
    15
 74
    13
 42
0.000000001
 43
0.0000000001
 44
0.00000001
 40
0.0
 40
0.0
 40
0.0
 40
0.0
 40
0.0390921318208429
 40
0.0782721098965337
 40
0.1029579108656013
 40
0.1276208341194151
 40
0.1566816312076635
 40
0.1857514110553088
 40
0.2191207858271002
 40
0.252489727650401
 40
0.2896689144309388
 40
0.3268487563207583
 40
0.4094241708900629
 40
0.4920012273799335
 40
0.4920012273799335
 40
0.4920012273799335
 40
0.4920012273799335
 10
104.9367114788933
 20
124.6957942244
 30
0.0
 10
104.938547383504
 20
124.6827043229203
 30
0.0
 10
104.9422233315686
 20
124.6564951096991
 30
0.0
 10
104.9631422964567
 20
124.6279564494824
 30
0.0
 10
104.9839948357493
 20
124.6071767999624
 30
0.0
 10
105.0046678295141
 20
124.5910539155768
 30
0.0
 10
105.0278894041041
 20
124.5760962052825
 30
0.0
 10
105.0548191487288
 20
124.561714190482
 30
0.0
 10
105.0839762736421
 20
124.5486268782915
 30
0.0
 10
105.1164148967618
 20
124.5364276796835
 30
0.0
 10
105.1506720410563
 20
124.5255984150602
 30
0.0
 10
105.2012927061824
 20
124.5123662182979
 30
0.0
 10
105.2676353560112
 20
124.4995247309515
 30
0.0
 10
105.3224698636914
 20
124.4943975014234
 30
0.0
 10
105.3498873900603
 20
124.491833860573
 30
0.0
 11
104.9367114788933
 21
124.6957942244
 31
0.0
 11
104.9452691845379
 21
124.6576502724869
 31
0.0
 11
104.9668651685002
 21
124.6249595334102
 31
0.0
 11
104.9843473367635
 21
124.6075307493071
 31
0.0
 11
105.003698777001
 21
124.5922408338002
 31
0.0
 11
105.0280879423176
 21
124.5764389820269
 31
0.0
 11
105.0536892573339
 21
124.5626685515623
 31
0.0
 11
105.0841070414847
 21
124.5489472699925
 31
0.0
 11
105.1153176740504
 21
124.5371412255295
 31
0.0
 11
105.1507566580343
 21
124.5258997692372
 31
0.0
 11
105.1867114788935
 21
124.516434490585
 31
0.0
 11
105.2678055090623
 21
124.5008634468293
 31
0.0
 11
105.3498873900603
 21
124.491833860573
 31
0.0
  0
SPLINE
  5
4D4
330
1F
100
AcDbEntity
  8
0
  6
CONTINUOUS
 62
     7
100
AcDbSpline
210
0.0
220
0.0
230
1.0
 70
  1064
 71
     3
 72
    19
 73
    15
 74
    13
 42
0.000000001
 43
0.0000000001
 44
0.00000001
 40
0.0
 40
0.0
 40
0.0
 40
0.0
 40
0.0390921318208013
 40
0.0782721098965277
 40
0.1029579108655953
 40
0.1276208341193363
 40
0.1566816312073986
 40
0.1857514110549478
 40
0.2191207858267859
 40
0.2524897276501858
 40
0.2896689144307745
 40
0.3268487563206113
 40
0.4094241708899358
 40
0.4920012273797923
 40
0.4920012273797923
 40
0.4920012273797923
 40
0.4920012273797923
 10
127.4367114788933
 20
211.8021537234
 30
0.0
 10
127.4348755742825
 20
211.8152436248796
 30
0.0
 10
127.431199626218
 20
211.841452838101
 30
0.0
 10
127.4102806613299
 20
211.8699914983175
 30
0.0
 10
127.3894281220373
 20
211.8907711478377
 30
0.0
 10
127.3687551282725
 20
211.9068940322231
 30
0.0
 10
127.3455335536825
 20
211.921851742517
 30
0.0
 10
127.3186038090577
 20
211.9362337573173
 30
0.0
 10
127.2894466841445
 20
211.9493210695078
 30
0.0
 10
127.2570080610248
 20
211.9615202681163
 30
0.0
 10
127.2227509167304
 20
211.9723495327399
 30
0.0
 10
127.1721302516042
 20
211.9855817295021
 30
0.0
 10
127.1057876017754
 20
211.9984232168485
 30
0.0
 10
127.0509530940952
 20
212.0035504463766
 30
0.0
 10
127.0235355677263
 20
212.006114087227
 30
0.0
 11
127.4367114788933
 21
211.8021537234
 31
0.0
 11
127.4281537732487
 21
211.8402976753131
 31
0.0
 11
127.4065577892864
 21
211.8729884143898
 31
0.0
 11
127.3890756210231
 21
211.8904171984929
 31
0.0
 11
127.3697241807855
 21
211.9057071139997
 31
0.0
 11
127.345335015469
 21
211.9215089657727
 31
0.0
 11
127.3197337004526
 21
211.935279396237
 31
0.0
 11
127.2893159163019
 21
211.949000677807
 31
0.0
 11
127.2581052837362
 21
211.9608067222703
 31
0.0
 11
127.2226662997523
 21
211.9720481785629
 31
0.0
 11
127.1867114788931
 21
211.981513457215
 31
0.0
 11
127.1056174487243
 21
211.9970845009707
 31
0.0
 11
127.0235355677263
 21
212.006114087227
 31
0.0
  0
SPLINE
  5
4D5
330
1F
100
AcDbEntity
  8
0
  6
CONTINUOUS
 62
     7
100
AcDbSpline
210
0.0
220
0.0
230
1.0
 70
  1064
 71
     3
 72
    19
 73
    15
 74
    13
 42
0.000000001
 43
0.0000000001
 44
0.00000001
 40
0.0
 40
0.0
 40
0.0
 40
0.0
 40
0.0825770564899004
 40
0.1651524710591771
 40
0.2023323129490349
 40
0.2395114997295886
 40
0.272880441553
 40
0.3062498163248439
 40
0.335319596172395
 40
0.3643803932604419
 40
0.389043316514194
 40
0.4137291174832817
 40
0.4529090955590003
 40
0.4920012273798016
 40
0.4920012273798016
 40
0.4920012273798016
 40
0.4920012273798016
 10
127.0235355677263
 20
124.491833860573
 30
0.0
 10
127.0509530940952
 20
124.4943975014234
 30
0.0
 10
127.1057876017754
 20
124.4995247309515
 30
0.0
 10
127.1721302516042
 20
124.5123662182979
 30
0.0
 10
127.2227509167303
 20
124.5255984150602
 30
0.0
 10
127.2570080610249
 20
124.5364276796836
 30
0.0
 10
127.2894466841444
 20
124.5486268782921
 30
0.0
 10
127.3186038090577
 20
124.5617141904827
 30
0.0
 10
127.3455335536824
 20
124.576096205283
 30
0.0
 10
127.3687551282725
 20
124.5910539155769
 30
0.0
 10
127.3894281220373
 20
124.6071767999623
 30
0.0
 10
127.4102806613299
 20
124.6279564494825
 30
0.0
 10
127.431199626218
 20
124.6564951096991
 30
0.0
 10
127.4348755742826
 20
124.6827043229203
 30
0.0
 10
127.4367114788933
 20
124.6957942244
 30
0.0
 11
127.0235355677263
 21
124.491833860573
 31
0.0
 11
127.1056174487243
 21
124.5008634468293
 31
0.0
 11
127.1867114788931
 21
124.516434490585
 31
0.0
 11
127.2226662997523
 21
124.5258997692372
 31
0.0
 11
127.2581052837362
 21
124.5371412255297
 31
0.0
 11
127.2893159163019
 21
124.548947269993
 31
0.0
 11
127.3197337004527
 21
124.562668551563
 31
0.0
 11
127.345335015469
 21
124.5764389820273
 31
0.0
 11
127.3697241807855
 21
124.5922408338003
 31
0.0
 11
127.3890756210231
 21
124.6075307493071
 31
0.0
 11
127.4065577892864
 21
124.6249595334102
 31
0.0
 11
127.4281537732487
 21
124.657650272487
 31
0.0
 11
127.4367114788933
 21
124.6957942244
 31
0.0
  0
SPLINE
  5
4D6
330
1F
100
AcDbEntity
  8
0
  6
CONTINUOUS
 62
     7
100
AcDbSpline
210
0.0
220
0.0
230
1.0
 70
  1064
 71
     3
 72
    21
 73
    17
 74
    15
 42
0.000000001
 43
0.0000000001
 44
0.00000001
 40
0.0
 40
0.0
 40
0.0
 40
0.0
 40
0.0871645475321459
 40
0.1743290839003409
 40
0.2179497874498733
 40
0.2615709762310312
 40
0.3051908185847097
 40
0.3488104695976219
 40
0.3924298329184695
 40
0.4360491968698638
 40
0.4796688505722375
 40
0.523288692972942
 40
0.5669098795679791
 40
0.6105305905099055
 40
0.6976194567042374
 40
0.7847079487127026
 40
0.7847079487127026
 40
0.7847079487127026
 40
0.7847079487127026
 10
106.4366353264543
 20
211.248973973927
 30
0.0
 10
106.4075461092934
 20
211.2475107344763
 30
0.0
 10
106.3493676799769
 20
211.2445842412265
 30
0.0
 10
106.2788061606214
 20
211.2248867523375
 30
0.0
 10
106.2250426907548
 20
211.2027125991109
 30
0.0
 10
106.1862993742697
 20
211.1825230318866
 30
0.0
 10
106.1494684529187
 20
211.1590555858596
 30
0.0
 10
106.1148191041997
 20
211.1324656228966
 30
0.0
 10
106.0826250218786
 20
211.1029526069219
 30
0.0
 10
106.0531218152578
 20
211.0707495332319
 30
0.0
 10
106.0265424106914
 20
211.0360920843409
 30
0.0
 10
106.0030861847602
 20
210.9992540119534
 30
0.0
 10
105.9829084281145
 20
210.9605045559316
 30
0.0
 10
105.9607602318934
 20
210.9067576064207
 30
0.0
 10
105.9410935803847
 20
210.8362415771625
 30
0.0
 10
105.9381721724359
 20
210.778113902081
 30
0.0
 10
105.9367114788673
 20
210.749050126339
 30
0.0
 11
106.4366353264543
 21
211.248973973927
 31
0.0
 11
106.3498024657
 21
211.2413770705019
 31
0.0
 11
106.2656083988992
 21
211.2188156910649
 31
0.0
 11
106.2253089729897
 21
211.2021207183296
 31
0.0
 11
106.1866176625724
 21
211.1819764717717
 31
0.0
 11
106.1498319054034
 21
211.1585350815888
 31
0.0
 11
106.1152282145062
 21
211.1319783764857
 31
0.0
 11
106.0830734933564
 21
211.1025042722847
 31
0.0
 11
106.0536091869543
 21
211.0703405720322
 31
0.0
 11
106.0270630246183
 21
211.035728789219
 31
0.0
 11
106.0036328428888
 21
210.9989358919091
 31
0.0
 11
105.9835003856481
 21
210.9602384482475
 31
0.0
 11
105.9668176882344
 21
210.91993393119
 31
0.0
 11
105.9442951497756
 21
210.8358077984941
 31
0.0
 11
105.9367114788673
 21
210.749050126339
 31
0.0
  0
SPLINE
  5
4D7
330
1F
100
AcDbEntity
  8
0
  6
CONTINUOUS
 62
     7
100
AcDbSpline
210
0.0
220
0.0
230
1.0
 70
  1064
 71
     3
 72
    21
 73
    17
 74
    15
 42
0.000000001
 43
0.0000000001
 44
0.00000001
 40
0.0
 40
0.0
 40
0.0
 40
0.0
 40
0.0871645475323885
 40
0.174329083900771
 40
0.2179497874501065
 40
0.2615709762310693
 40
0.3051908185846836
 40
0.3488104695975758
 40
0.3924298329184426
 40
0.4360491968698369
 40
0.4796688505721828
 40
0.5232886929729429
 40
0.5669098795679477
 40
0.6105305905098818
 40
0.697619456704211
 40
0.7847079487126596
 40
0.7847079487126596
 40
0.7847079487126596
 40
0.7847079487126596
 10
105.9367114788673
 20
125.748897821461
 30
0.0
 10
105.9381747183177
 20
125.7198086043
 30
0.0
 10
105.9411012115667
 20
125.6616301749833
 30
0.0
 10
105.9607987004557
 20
125.5910686556277
 30
0.0
 10
105.9829728536823
 20
125.5373051857613
 30
0.0
 10
106.0031624209067
 20
125.4985618692763
 30
0.0
 10
106.0266298669338
 20
125.4617309479254
 30
0.0
 10
106.0532198298967
 20
125.4270815992064
 30
0.0
 10
106.0827328458714
 20
125.3948875168853
 30
0.0
 10
106.1149359195614
 20
125.3653843102644
 30
0.0
 10
106.1495933684524
 20
125.3388049056981
 30
0.0
 10
106.18643144084
 20
125.3153486797668
 30
0.0
 10
106.2251808968617
 20
125.2951709231212
 30
0.0
 10
106.2789278463726
 20
125.2730227269001
 30
0.0
 10
106.3494438756309
 20
125.2533560753914
 30
0.0
 10
106.4075715507122
 20
125.2504346674426
 30
0.0
 10
106.4366353264543
 20
125.248973973874
 30
0.0
 11
105.9367114788673
 21
125.748897821461
 31
0.0
 11
105.9443083822914
 21
125.6620649607063
 31
0.0
 11
105.9668697617284
 21
125.5778708939053
 31
0.0
 11
105.9835647344637
 21
125.537571467996
 31
0.0
 11
106.0037089810216
 21
125.498880157579
 31
0.0
 11
106.0271503712045
 21
125.4620944004101
 31
0.0
 11
106.0537070763076
 21
125.4274907095129
 31
0.0
 11
106.0831811805086
 21
125.3953359883631
 31
0.0
 11
106.1153448807611
 21
125.365871681961
 31
0.0
 11
106.1499566635743
 21
125.339325519625
 31
0.0
 11
106.1867495608842
 21
125.3158953378955
 31
0.0
 11
106.2254470045458
 21
125.2957628806548
 31
0.0
 11
106.2657515216033
 21
125.2790801832411
 31
0.0
 11
106.3498776542992
 21
125.2565576447823
 31
0.0
 11
106.4366353264543
 21
125.248973973874
 31
0.0
  0
SPLINE
  5
4D8
330
1F
100
AcDbEntity
  8
0
  6
CONTINUOUS
 62
     7
100
AcDbSpline
210
0.0
220
0.0
230
1.0
 70
  1064
 71
     3
 72
    21
 73
    17
 74
    15
 42
0.000000001
 43
0.0000000001
 44
0.00000001
 40
0.0
 40
0.0
 40
0.0
 40
0.0
 40
0.0871645475320654
 40
0.1743290839002346
 40
0.2179497874497299
 40
0.2615709762309135
 40
0.3051908185845997
 40
0.3488104695975232
 40
0.3924298329183891
 40
0.4360491968697728
 40
0.4796688505721214
 40
0.5232886929728662
 40
0.5669098795678402
 40
0.6105305905097798
 40
0.697619456704207
 40
0.784707948712704
 40
0.784707948712704
 40
0.784707948712704
 40
0.784707948712704
 10
125.9367876312323
 20
125.248973973874
 30
0.0
 10
125.9658768483933
 20
125.2504372133244
 30
0.0
 10
126.0240552777097
 20
125.2533637065733
 30
0.0
 10
126.0946167970652
 20
125.2730611954625
 30
0.0
 10
126.1483802669317
 20
125.295235348689
 30
0.0
 10
126.1871235834169
 20
125.3154249159134
 30
0.0
 10
126.2239545047679
 20
125.3388923619404
 30
0.0
 10
126.2586038534869
 20
125.3654823249034
 30
0.0
 10
126.2907979358079
 20
125.3949953408782
 30
0.0
 10
126.3203011424289
 20
125.4271984145682
 30
0.0
 10
126.3468805469952
 20
125.4618558634591
 30
0.0
 10
126.3703367729264
 20
125.4986939358468
 30
0.0
 10
126.3905145295721
 20
125.5374433918683
 30
0.0
 10
126.4126627257932
 20
125.5911903413794
 30
0.0
 10
126.4323293773018
 20
125.6617063706375
 30
0.0
 10
126.4352507852514
 20
125.719834045719
 30
0.0
 10
126.4367114788203
 20
125.748897821461
 30
0.0
 11
125.9367876312323
 21
125.248973973874
 31
0.0
 11
126.0236204919866
 21
125.2565708772982
 31
0.0
 11
126.1078145587874
 21
125.2791322567351
 31
0.0
 11
126.1481139846969
 21
125.2958272294704
 31
0.0
 11
126.1868052951142
 21
125.3159714760283
 31
0.0
 11
126.2235910522832
 21
125.3394128662111
 31
0.0
 11
126.2581947431804
 21
125.3659695713143
 31
0.0
 11
126.2903494643302
 21
125.3954436755154
 31
0.0
 11
126.3198137707323
 21
125.4276073757678
 31
0.0
 11
126.3463599330683
 21
125.462219158581
 31
0.0
 11
126.3697901147977
 21
125.4990120558909
 31
0.0
 11
126.3899225720385
 21
125.5377094995525
 31
0.0
 11
126.4066052694522
 21
125.57801401661
 31
0.0
 11
126.4291278079111
 21
125.662140149306
 31
0.0
 11
126.4367114788203
 21
125.748897821461
 31
0.0
  0
SPLINE
  5
4D9
330
1F
100
AcDbEntity
  8
0
  6
CONTINUOUS
 62
     7
100
AcDbSpline
210
0.0
220
0.0
230
1.0
 70
  1064
 71
     3
 72
    21
 73
    17
 74
    15
 42
0.000000001
 43
0.0000000001
 44
0.00000001
 40
0.0
 40
0.0
 40
0.0
 40
0.0
 40
0.0871645475324807
 40
0.1743290839009264
 40
0.2179497874502356
 40
0.2615709762312171
 40
0.3051908185848063
 40
0.348810469597676
 40
0.3924298329185323
 40
0.4360491968699362
 40
0.4796688505722821
 40
0.5232886929730225
 40
0.5669098795680273
 40
0.6105305905099189
 40
0.6976194567041789
 40
0.784707948712659
 40
0.784707948712659
 40
0.784707948712659
 40
0.784707948712659
 10
126.4367114788203
 20
210.749050126339
 30
0.0
 10
126.4352482393696
 20
210.7781393435
 30
0.0
 10
126.4323217461198
 20
210.8363177728167
 30
0.0
 10
126.4126242572309
 20
210.9068792921723
 30
0.0
 10
126.3904501040043
 20
210.9606427620388
 30
0.0
 10
126.3702605367799
 20
210.9993860785237
 30
0.0
 10
126.3467930907528
 20
211.0362169998746
 30
0.0
 10
126.3202031277899
 20
211.0708663485936
 30
0.0
 10
126.2906901118151
 20
211.1030604309146
 30
0.0
 10
126.2584870381252
 20
211.1325636375356
 30
0.0
 10
126.2238295892342
 20
211.1591430421019
 30
0.0
 10
126.1869915168466
 20
211.1825992680331
 30
0.0
 10
126.1482420608249
 20
211.2027770246787
 30
0.0
 10
126.094495111314
 20
211.2249252208998
 30
0.0
 10
126.0239790820557
 20
211.2445918724078
 30
0.0
 10
125.9658514069743
 20
211.2475132803571
 30
0.0
 10
125.9367876312323
 20
211.248973973926
 30
0.0
 11
126.4367114788203
 21
210.749050126339
 31
0.0
 11
126.4291145753953
 21
210.8358829870937
 31
0.0
 11
126.4065531959582
 21
210.9200770538947
 31
0.0
 11
126.3898582232229
 21
210.960376479804
 31
0.0
 11
126.3697139766651
 21
210.999067790221
 31
0.0
 11
126.3462725864821
 21
211.0358535473899
 31
0.0
 11
126.319715881379
 21
211.0704572382871
 31
0.0
 11
126.2902417771779
 21
211.1026119594369
 31
0.0
 11
126.2580780769255
 21
211.1320762658389
 31
0.0
 11
126.2234662941123
 21
211.158622428175
 31
0.0
 11
126.1866733968024
 21
211.1820526099044
 31
0.0
 11
126.1479759531408
 21
211.2021850671452
 31
0.0
 11
126.1076714360833
 21
211.2188677645588
 31
0.0
 11
126.0235453033874
 21
211.2413903030172
 31
0.0
 11
125.9367876312323
 21
211.248973973926
 31
0.0
  0
SPLINE
  5
4DA
330
1F
100
AcDbEntity
  8
黒地
  6
CONTINUOUS
 62
     7
100
AcDbSpline
210
0.0
220
0.0
230
1.0
 70
  1067
 71
     3
 72
    51
 73
    47
 74
    45
 42
0.000000001
 43
0.0000000001
 44
0.00000001
 40
0.0
 40
0.0
 40
0.0
 40
0.0
 40
0.0529100078344334
 40
0.1340595284585411
 40
0.2185956036623184
 40
0.2719170458824826
 40
0.3281741531932673
 40
0.4623257179149298
 40
0.6224421019850943
 40
0.7565936670596975
 40
0.8128507749964988
 40
0.8696748835774251
 40
1.011735155051902
 40
1.196413508011809
 40
1.381091861026541
 40
1.523152132626642
 40
1.579976241282247
 40
1.632053617998388
 40
1.756238131607198
 40
1.904458357250456
 40
2.028642870245585
 40
2.080720246513516
 40
2.285192250379152
 40
2.502889326536999
 40
2.792492991569275
 40
3.181401441039793
 40
3.473544166514678
 40
3.745239206996402
 40
3.966603600781198
 40
4.137966358949615
 40
4.196033531954231
 40
4.334501405888449
 40
4.49976951313447
 40
4.638237386426158
 40
4.696304559004846
 40
4.747893055615907
 40
4.876864297147907
 40
5.044526911137626
 40
5.21218952474756
 40
5.341160762118764
 40
5.392749254620699
 40
5.449006362553635
 40
5.583157927623321
 40
5.743274311733162
 40
5.877425876749331
 40
5.933682974850089
 40
5.933682974850089
 40
5.933682974850089
 40
5.933682974850089
 10
108.670927926457
 20
206.6359910329422
 30
0.0
 10
108.6637126641853
 20
206.6183835949558
 30
0.0
 10
108.6454311720735
 20
206.5737711410146
 30
0.0
 10
108.5624054389984
 20
206.5759825380112
 30
0.0
 10
108.4837225812965
 20
206.573022083412
 30
0.0
 10
108.4471744383389
 20
206.6367861954692
 30
0.0
 10
108.4586778155723
 20
206.7184373261887
 30
0.0
 10
108.4506655489477
 20
206.8338818567155
 30
0.0
 10
108.4589318336085
 20
206.9824712938866
 30
0.0
 10
108.4431810672005
 20
207.0840859794218
 30
0.0
 10
108.4691009690179
 20
207.1923795396026
 30
0.0
 10
108.3572415844171
 20
207.1655115311286
 30
0.0
 10
108.2458264441251
 20
207.1827015507972
 30
0.0
 10
108.0703357116804
 20
207.1736045106127
 30
0.0
 10
107.8945046575369
 20
207.1828965074136
 30
0.0
 10
107.7837374372514
 20
207.1650766303761
 30
0.0
 10
107.6727136602584
 20
207.1925141577811
 30
0.0
 10
107.6961447686736
 20
207.0913674890124
 30
0.0
 10
107.6826925149951
 20
206.9967296145307
 30
0.0
 10
107.687424475907
 20
206.8595063496386
 30
0.0
 10
107.687273798918
 20
206.7522734564781
 30
0.0
 10
107.6847959778654
 20
206.6256422984617
 30
0.0
 10
107.7231516004503
 20
206.4612862225848
 30
0.0
 10
107.9247035621911
 20
206.3115569456819
 30
0.0
 10
108.2168019928226
 20
206.2390587481144
 30
0.0
 10
108.5406236880539
 20
206.2181980430423
 30
0.0
 10
108.8600625043187
 20
206.2414943567829
 30
0.0
 10
109.1091606124758
 20
206.3184367709911
 30
0.0
 10
109.3136513456386
 20
206.4286765667419
 30
0.0
 10
109.3709518061759
 20
206.5808879892905
 30
0.0
 10
109.3660333849644
 20
206.7035115137486
 30
0.0
 10
109.3667714887583
 20
206.8228482788434
 30
0.0
 10
109.3722676777307
 20
206.976501758665
 30
0.0
 10
109.3557297167517
 20
207.0803939556348
 30
0.0
 10
109.3833474245753
 20
207.190751033898
 30
0.0
 10
109.2803395669103
 20
207.1672238475815
 30
0.0
 10
109.1782371031759
 20
207.1818289771221
 30
0.0
 10
109.0191736718166
 20
207.1741323128525
 30
0.0
 10
108.8599806247287
 20
207.181901525214
 30
0.0
 10
108.7581249344183
 20
207.1670619986427
 30
0.0
 10
108.6555037927575
 20
207.1908012569839
 30
0.0
 10
108.6820531658954
 20
207.0835713992061
 30
0.0
 10
108.6661109682267
 20
206.9826807755528
 30
0.0
 10
108.6720973511799
 20
206.8338845603543
 30
0.0
 10
108.6708305361576
 20
206.7183103938599
 30
0.0
 10
108.6709057155325
 20
206.6547656222513
 30
0.0
 10
108.670927926457
 20
206.6359910329422
 30
0.0
 11
108.670927926457
 21
206.6359910329422
 31
0.0
 11
108.6441984398226
 21
206.5903291978995
 31
0.0
 11
108.5645081996144
 21
206.5750089422795
 31
0.0
 11
108.4813719398493
 21
206.5903291978995
 31
0.0
 11
108.4538369980414
 21
206.6359910329422
 31
0.0
 11
108.4538369980414
 21
206.6922481408765
 31
0.0
 11
108.4538369980414
 21
206.8263997059507
 31
0.0
 11
108.4538369980414
 21
206.9865160900714
 31
0.0
 11
108.4538369980414
 21
207.1206676551456
 31
0.0
 11
108.4538369980414
 21
207.1769247630799
 31
0.0
 11
108.3970128890304
 21
207.1769247630799
 31
0.0
 11
108.254952616503
 21
207.1769247630799
 31
0.0
 11
108.0702742622173
 21
207.1769247630799
 31
0.0
 11
107.8855959079317
 21
207.1769247630799
 31
0.0
 11
107.7435356354043
 21
207.1769247630799
 31
0.0
 11
107.6867115263933
 21
207.1769247630799
 31
0.0
 11
107.6867115263933
 21
207.1248473862398
 31
0.0
 11
107.6867115263933
 21
207.0006628722366
 31
0.0
 11
107.6867115263933
 21
206.8524426458456
 31
0.0
 11
107.6867115263933
 21
206.7282581318423
 31
0.0
 11
107.6867115263933
 21
206.6761807550022
 31
0.0
 11
107.7421156323879
 21
206.4793580265518
 31
0.0
 11
107.9083362540332
 21
206.3387780739159
 31
0.0
 11
108.1853858468217
 21
206.2544346693483
 31
0.0
 11
108.5732768662457
 21
206.2263215851026
 31
0.0
 11
108.8641873461309
 21
206.2531258046912
 31
0.0
 11
109.1237099852339
 21
206.3335384634573
 31
0.0
 11
109.3064984876517
 21
206.458400622675
 31
0.0
 11
109.3673726307138
 21
206.6185865582652
 31
0.0
 11
109.3673726307138
 21
206.676653731566
 31
0.0
 11
109.3673726307138
 21
206.81512160636
 31
0.0
 11
109.3673726307138
 21
206.9803897149851
 31
0.0
 11
109.3673726307138
 21
207.1188575897792
 31
0.0
 11
109.3673726307138
 21
207.1769247630799
 31
0.0
 11
109.3157841341022
 21
207.1769247630799
 31
0.0
 11
109.1868128925732
 21
207.1769247630799
 31
0.0
 11
109.0191502785854
 21
207.1769247630799
 31
0.0
 11
108.8514876645977
 21
207.1769247630799
 31
0.0
 11
108.7225164230686
 21
207.1769247630799
 31
0.0
 11
108.670927926457
 21
207.1769247630799
 31
0.0
 11
108.670927926457
 21
207.1206676551456
 31
0.0
 11
108.670927926457
 21
206.9865160900715
 31
0.0
 11
108.670927926457
 21
206.8263997059507
 31
0.0
 11
108.670927926457
 21
206.6922481408765
 31
0.0
 11
108.670927926457
 21
206.6359910329422
 31
0.0
  0
SPLINE
  5
4DB
330
1F
100
AcDbEntity
  8
黒地
  6
CONTINUOUS
 62
     7
100
AcDbSpline
210
0.0
220
0.0
230
1.0
 70
  1067
 71
     3
 72
    54
 73
    50
 74
    48
 42
0.000000001
 43
0.0000000001
 44
0.00000001
 40
0.0
 40
0.0
 40
0.0
 40
0.0
 40
0.0535206834346688
 40
0.1380268193403612
 40
0.2191451508953279
 40
0.2722559377256174
 40
0.3237391704137734
 40
0.4465068801299877
 40
0.5930360823990098
 40
0.7158037924510551
 40
0.7672870257010515
 40
0.8188755219286462
 40
0.9478467625331318
 40
1.115509375383724
 40
1.283171988298349
 40
1.412143229044332
 40
1.463731725353497
 40
1.510869419935759
 40
1.623274691591561
 40
1.757435822168546
 40
1.869841093583418
 40
1.916978787985911
 40
2.117088756567998
 40
2.320410097342086
 40
2.582082551044486
 40
2.930448099533749
 40
3.319528858638582
 40
3.611206809804344
 40
3.83646035036667
 40
4.056380666957619
 40
4.126219996303643
 40
4.300818319571317
 40
4.527796139602298
 40
4.754773959423385
 40
4.92937228229631
 40
4.999211611450914
 40
5.056035720382564
 40
5.198095992602529
 40
5.382774346031336
 40
5.567452698233279
 40
5.709512967729051
 40
5.76633707526565
 40
5.82329602978643
 40
5.97019017565594
 40
6.171045436334705
 40
6.389887735283107
 40
6.59074299596136
 40
6.737637141827545
 40
6.794596086451062
 40
6.794596086451062
 40
6.794596086451062
 40
6.794596086451062
 10
108.4538369980414
 20
208.3706591521962
 30
0.0
 10
108.4613556098796
 20
208.3883509364206
 30
0.0
 10
108.4807456705546
 20
208.4339770574192
 30
0.0
 10
108.5641092391395
 20
208.4305881995325
 30
0.0
 10
108.642803016547
 20
208.4331505999099
 30
0.0
 10
108.6767304497842
 20
208.3712076563973
 30
0.0
 10
108.6668411979004
 20
208.2953253574402
 30
0.0
 10
108.6736855250418
 20
208.1895145876776
 30
0.0
 10
108.6662848174252
 20
208.0535759744561
 30
0.0
 10
108.6807152552228
 20
207.9606266185039
 30
0.0
 10
108.6569471877049
 20
207.8616101335953
 30
0.0
 10
108.7585818616466
 20
207.8859486069489
 30
0.0
 10
108.8597931787793
 20
207.8704026944226
 30
0.0
 10
109.019086348361
 20
207.8786387081517
 30
0.0
 10
109.1787335816906
 20
207.8702004352679
 30
0.0
 10
109.2792708160882
 20
207.886399798746
 30
0.0
 10
109.3800386307708
 20
207.8614702780037
 30
0.0
 10
109.3588464238918
 20
207.9530566729798
 30
0.0
 10
109.371016425282
 20
208.038736260034
 30
0.0
 10
109.3666803796225
 20
208.162940128868
 30
0.0
 10
109.366975175592
 20
208.2599930669439
 30
0.0
 10
109.3688436271389
 20
208.379642513468
 30
0.0
 10
109.3372774461518
 20
208.5357290286072
 30
0.0
 10
109.1579358810754
 20
208.6864191941144
 30
0.0
 10
108.8932938588148
 20
208.7599002177963
 30
0.0
 10
108.5596943503156
 20
208.778826753389
 30
0.0
 10
108.2160009636622
 20
208.7585321850691
 30
0.0
 10
107.9212218411519
 20
208.6782379135836
 30
0.0
 10
107.7205494317017
 20
208.5132113010707
 30
0.0
 10
107.684304270342
 20
208.3347937572625
 30
0.0
 10
107.6877055816101
 20
208.1806860563217
 30
0.0
 10
107.6858025453983
 20
208.0227962435911
 30
0.0
 10
107.6890408155435
 20
207.8160345449249
 30
0.0
 10
107.6793784626381
 20
207.5969833442942
 30
0.0
 10
107.7020362270555
 20
207.4624908531116
 30
0.0
 10
107.6673340493071
 20
207.3273498963173
 30
0.0
 10
107.782066321487
 20
207.3525747301722
 30
0.0
 10
107.8952983648043
 20
207.3372290615798
 30
0.0
 10
108.0701116304822
 20
207.3454666505156
 30
0.0
 10
108.2458256663115
 20
207.3367204735154
 30
0.0
 10
108.3573427786067
 20
207.353709284829
 30
0.0
 10
108.4692656130506
 20
207.3270083083193
 30
0.0
 10
108.4421213309045
 20
207.4410593634525
 30
0.0
 10
108.4597566512577
 20
207.5583174939093
 30
0.0
 10
108.4518634761136
 20
207.7550787495023
 30
0.0
 10
108.454341533591
 20
207.9594503206221
 30
0.0
 10
108.4537423069631
 20
208.1489137651318
 30
0.0
 10
108.4538437127052
 20
208.283715092126
 30
0.0
 10
108.4538384637668
 20
208.3516713708203
 30
0.0
 10
108.4538369980414
 20
208.3706591521962
 30
0.0
 11
108.4538369980414
 21
208.3706591521962
 31
0.0
 11
108.4813719398493
 21
208.4165534897633
 31
0.0
 11
108.5645081996144
 21
208.4317076721516
 31
0.0
 11
108.6441984398226
 21
208.4165534897633
 31
0.0
 11
108.670927926457
 21
208.3706591521962
 31
0.0
 11
108.670927926457
 21
208.3191759189497
 31
0.0
 11
108.670927926457
 21
208.1964082089002
 31
0.0
 11
108.670927926457
 21
208.0498790065832
 31
0.0
 11
108.670927926457
 21
207.9271112965338
 31
0.0
 11
108.670927926457
 21
207.8756280632872
 31
0.0
 11
108.7225164230686
 21
207.8756280632872
 31
0.0
 11
108.8514876645977
 21
207.8756280632872
 31
0.0
 11
109.0191502785854
 21
207.8756280632872
 31
0.0
 11
109.1868128925731
 21
207.8756280632872
 31
0.0
 11
109.3157841341022
 21
207.8756280632872
 31
0.0
 11
109.3673726307138
 21
207.8756280632872
 31
0.0
 11
109.3673726307138
 21
207.922765757925
 31
0.0
 11
109.3673726307138
 21
208.0351710297537
 31
0.0
 11
109.3673726307138
 21
208.169332160646
 31
0.0
 11
109.3673726307138
 21
208.2817374324747
 31
0.0
 11
109.3673726307138
 21
208.3288751271125
 31
0.0
 11
109.3176918234651
 21
208.5227199549278
 31
0.0
 11
109.1687158310115
 21
208.6610880197097
 31
0.0
 11
108.9205442972921
 21
208.7440540544123
 31
0.0
 11
108.5732768662457
 21
208.7716927919901
 31
0.0
 11
108.1853858468217
 21
208.7412889351054
 31
0.0
 11
107.9083362540332
 21
208.6500773644511
 31
0.0
 11
107.7421156323879
 21
208.4980580800274
 31
0.0
 11
107.6867115263933
 21
208.2852310818343
 31
0.0
 11
107.6867115263933
 21
208.2153917521501
 31
0.0
 11
107.6867115263933
 21
208.0407934279397
 31
0.0
 11
107.6867115263933
 21
207.8138156064662
 31
0.0
 11
107.6867115263933
 21
207.5868377849928
 31
0.0
 11
107.6867115263933
 21
207.4122394607824
 31
0.0
 11
107.6867115263933
 21
207.3424001310982
 31
0.0
 11
107.7435356354043
 21
207.3424001310982
 31
0.0
 11
107.8855959079317
 21
207.3424001310982
 31
0.0
 11
108.0702742622173
 21
207.3424001310982
 31
0.0
 11
108.254952616503
 21
207.3424001310982
 31
0.0
 11
108.3970128890304
 21
207.3424001310982
 31
0.0
 11
108.4538369980414
 21
207.3424001310982
 31
0.0
 11
108.4538369980414
 21
207.3993590856196
 31
0.0
 11
108.4538369980414
 21
207.5462532314908
 31
0.0
 11
108.4538369980414
 21
207.7471084921718
 31
0.0
 11
108.4538369980414
 21
207.9659507911227
 31
0.0
 11
108.4538369980414
 21
208.1668060518036
 31
0.0
 11
108.4538369980414
 21
208.3137001976747
 31
0.0
 11
108.4538369980414
 21
208.3706591521962
 31
0.0
  0
SPLINE
  5
4DC
330
1F
100
AcDbEntity
  8
黒地
  6
CONTINUOUS
 62
     7
100
AcDbSpline
210
0.0
220
0.0
230
1.0
 70
  1067
 71
     3
 72
    43
 73
    39
 74
    37
 42
0.000000001
 43
0.0000000001
 44
0.00000001
 40
0.0
 40
0.0
 40
0.0
 40
0.0
 40
0.0826326035922072
 40
0.1758422129339564
 40
0.270752885702972
 40
0.353539118929261
 40
0.4383298825908056
 40
0.6248695637286502
 40
0.8114092451730229
 40
0.8962000094903985
 40
0.9684091814989543
 40
1.140600284050633
 40
1.34611869689236
 40
1.51830979964292
 40
1.590518971792689
 40
1.673119645157739
 40
1.854841126327285
 40
2.036562606975578
 40
2.119163279734762
 40
2.373535939067948
 40
2.683433390600485
 40
3.144808301836331
 40
3.593604641248372
 40
3.894407336119402
 40
4.138808857900732
 40
4.224139359735124
 40
4.411866463429793
 40
4.599593566560604
 40
4.684924067801806
 40
4.757140149004916
 40
4.929347727258294
 40
5.134885804343843
 40
5.307093378685384
 40
5.379309454516975
 40
5.464100218853848
 40
5.650639900397583
 40
5.837179581937083
 40
5.921970336277757
 40
5.921970336277757
 40
5.921970336277757
 40
5.921970336277757
 10
110.4486422273552
 20
206.6342638713332
 30
0.0
 10
110.4426242049022
 20
206.6046793394324
 30
0.0
 10
110.4298178647217
 20
206.5417234385659
 30
0.0
 10
110.3282449116125
 20
206.5262199414117
 30
0.0
 10
110.2288769758343
 20
206.540705643395
 30
0.0
 10
110.2024500976859
 20
206.6367358552276
 30
0.0
 10
110.2105348127951
 20
206.751234127153
 30
0.0
 10
110.2121991192077
 20
206.9117119941301
 30
0.0
 10
110.1917924739172
 20
207.0421575812917
 30
0.0
 10
110.2312499096439
 20
207.1962538432833
 30
0.0
 10
110.089400829545
 20
207.1643932973759
 30
0.0
 10
109.959023307448
 20
207.1810517139782
 30
0.0
 10
109.7619990738129
 20
207.1811459226733
 30
0.0
 10
109.631883168512
 20
207.1642166869378
 30
0.0
 10
109.4904813379162
 20
207.1963066976836
 30
0.0
 10
109.5288994429096
 20
207.045862587583
 30
0.0
 10
109.5072488778834
 20
206.9181770114462
 30
0.0
 10
109.515717278401
 20
206.7631261446546
 30
0.0
 10
109.5080656345194
 20
206.591999141395
 30
0.0
 10
109.5874878388789
 20
206.3661423996004
 30
0.0
 10
109.9317946563835
 20
206.2359633647856
 30
0.0
 10
110.3351579944558
 20
206.2122693283213
 30
0.0
 10
110.7350828238506
 20
206.2356044252216
 30
0.0
 10
111.0698224926253
 20
206.359142831829
 30
0.0
 10
111.1486597170904
 20
206.5787420292819
 30
0.0
 10
111.1404585672004
 20
206.7494396550677
 30
0.0
 10
111.1495055577909
 20
206.9097125609872
 30
0.0
 10
111.1267517338187
 20
207.0412898552067
 30
0.0
 10
111.1667710335349
 20
207.1962370098487
 30
0.0
 10
111.0247381076015
 20
207.1644363384436
 30
0.0
 10
110.894294723251
 20
207.1810510668791
 30
0.0
 10
110.697363374892
 20
207.1810738084537
 30
0.0
 10
110.5669672045594
 20
207.1643936983526
 30
0.0
 10
110.4250765708482
 20
207.1962495843546
 30
0.0
 10
110.464688465461
 20
207.0422049876732
 30
0.0
 10
110.4429311285502
 20
206.9112934667497
 30
0.0
 10
110.4492100929172
 20
206.7524042570326
 30
0.0
 10
110.4487774332546
 20
206.6623925328465
 30
0.0
 10
110.4486422273552
 20
206.6342638713332
 30
0.0
 11
110.4486422273552
 21
206.6342638713332
 31
0.0
 11
110.4188486895968
 21
206.5571892845233
 31
0.0
 11
110.3292687884437
 21
206.5314313262941
 31
0.0
 11
110.2379202073733
 21
206.5571892845233
 31
0.0
 11
110.2077031828742
 21
206.6342638713332
 31
0.0
 11
110.2077031828742
 21
206.7190546356686
 31
0.0
 11
110.2077031828742
 21
206.9055943172066
 31
0.0
 11
110.2077031828742
 21
207.0921339987445
 31
0.0
 11
110.2077031828742
 21
207.1769247630799
 31
0.0
 11
110.1354940103175
 21
207.1769247630799
 31
0.0
 11
109.9633029065284
 21
207.1769247630799
 31
0.0
 11
109.7577844923284
 21
207.1769247630799
 31
0.0
 11
109.5855933885393
 21
207.1769247630799
 31
0.0
 11
109.5133842159826
 21
207.1769247630799
 31
0.0
 11
109.5133842159826
 21
207.0943240894869
 31
0.0
 11
109.5133842159826
 21
206.9126026075823
 31
0.0
 11
109.5133842159826
 21
206.7308811256777
 31
0.0
 11
109.5133842159826
 21
206.6482804520847
 31
0.0
 11
109.6050861639847
 21
206.4110122411091
 31
0.0
 11
109.8803101045113
 21
206.2685755359232
 31
0.0
 11
110.3392331823428
 21
206.2210736709823
 31
0.0
 11
110.7857069186608
 21
206.2666736898777
 31
0.0
 11
111.0536777645665
 21
206.4033261259137
 31
0.0
 11
111.1430276235396
 21
206.6308095481147
 31
0.0
 11
111.1430276235396
 21
206.716140050453
 31
0.0
 11
111.1430276235396
 21
206.9038671555973
 31
0.0
 11
111.1430276235396
 21
207.0915942607416
 31
0.0
 11
111.1430276235396
 21
207.1769247630799
 31
0.0
 11
111.0708115423364
 21
207.1769247630799
 31
0.0
 11
110.8986039640827
 21
207.1769247630799
 31
0.0
 11
110.6930658868121
 21
207.1769247630799
 31
0.0
 11
110.5208583085584
 21
207.1769247630799
 31
0.0
 11
110.4486422273552
 21
207.1769247630799
 31
0.0
 11
110.4486422273552
 21
207.0921339987445
 31
0.0
 11
110.4486422273552
 21
206.9055943172065
 31
0.0
 11
110.4486422273552
 21
206.7190546356686
 31
0.0
 11
110.4486422273552
 21
206.6342638713332
 31
0.0
  0
SPLINE
  5
4DD
330
1F
100
AcDbEntity
  8
黒地
  6
CONTINUOUS
 62
     7
100
AcDbSpline
210
0.0
220
0.0
230
1.0
 70
  1067
 71
     3
 72
    44
 73
    40
 74
    38
 42
0.000000001
 43
0.0000000001
 44
0.00000001
 40
0.0
 40
0.0
 40
0.0
 40
0.0
 40
0.0803874930677283
 40
0.1750478236450278
 40
0.2680025091937649
 40
0.3482317740159374
 40
0.4312683891715153
 40
0.613948943596705
 40
0.7966294983253533
 40
0.8796661141348295
 40
0.9518821947826638
 40
1.124089771780882
 40
1.32962784767046
 40
1.501835424866749
 40
1.57405150565547
 40
1.657627859249894
 40
1.841495836906384
 40
2.025363813994014
 40
2.108940166926922
 40
2.301871995409301
 40
2.523674294286052
 40
2.79562543530821
 40
3.096507132053461
 40
3.5578726849482
 40
3.86772152572644
 40
4.122215820406158
 40
4.203072724574699
 40
4.380957913431022
 40
4.558843101774304
 40
4.639700005400446
 40
4.711909177956858
 40
4.884100281748491
 40
5.089618695804237
 40
5.261809795861442
 40
5.334018962889804
 40
5.41705557871764
 40
5.599736133541757
 40
5.782416688365107
 40
5.865453294194754
 40
5.865453294194754
 40
5.865453294194754
 40
5.865453294194754
 10
110.2077031828742
 20
207.8738344723854
 30
0.0
 10
110.2141175185144
 20
207.9024548316474
 30
0.0
 10
110.2280850440248
 20
207.9647771142131
 30
0.0
 10
110.3291377651026
 20
207.9776590539137
 30
0.0
 10
110.4272588571633
 20
207.9647655838531
 30
0.0
 10
110.4539912875205
 20
207.8711559671117
 30
0.0
 10
110.445718173502
 20
207.7592687214395
 30
0.0
 10
110.4443455826358
 20
207.6021838627765
 30
0.0
 10
110.4640656031961
 20
207.474226843113
 30
0.0
 10
110.4256365079698
 20
207.3230227223439
 30
0.0
 10
110.5670978081453
 20
207.3550766811086
 30
0.0
 10
110.6972924905628
 20
207.3382024385403
 30
0.0
 10
110.8943696206844
 20
207.3382280094037
 30
0.0
 10
111.0245954163238
 20
207.3550287416586
 30
0.0
 10
111.166230663384
 20
207.3230421230972
 30
0.0
 10
111.1272422596174
 20
207.4750967067953
 30
0.0
 10
111.1492793436736
 20
207.6041604101018
 30
0.0
 10
111.1406261320112
 20
207.761127682605
 30
0.0
 10
111.1475484562521
 20
207.9128823622106
 30
0.0
 10
111.0982981304885
 20
208.0860870821367
 30
0.0
 10
110.8862822686074
 20
208.2051484837406
 30
0.0
 10
110.6318549217326
 20
208.2726890392379
 30
0.0
 10
110.2844529458172
 20
208.2960421723857
 30
0.0
 10
109.9321868314819
 20
208.2715632935895
 30
0.0
 10
109.5873887739545
 20
208.1422669434571
 30
0.0
 10
109.5081921577967
 20
207.9167929984566
 30
0.0
 10
109.5156304140539
 20
207.7474574196294
 30
0.0
 10
109.5074436508677
 20
207.595739317909
 30
0.0
 10
109.5284197084209
 20
207.470544568727
 30
0.0
 10
109.491016438652
 20
207.3229712772245
 30
0.0
 10
109.632030583816
 20
207.3552524777054
 30
0.0
 10
109.7619194777754
 20
207.3381304616733
 30
0.0
 10
109.9591060828926
 20
207.338228772711
 30
0.0
 10
110.0892438471872
 20
207.3550681809765
 30
0.0
 10
110.230730083816
 20
207.3230319236005
 30
0.0
 10
110.1921394281693
 20
207.4741816792096
 30
0.0
 10
110.2132425586369
 20
207.6025898525224
 30
0.0
 10
110.2071523921699
 20
207.758132822124
 30
0.0
 10
110.2075720423887
 20
207.8462864621676
 30
0.0
 10
110.2077031828742
 20
207.8738344723854
 30
0.0
 11
110.2077031828742
 21
207.8738344723854
 31
0.0
 11
110.2379202073733
 21
207.948326620443
 31
0.0
 11
110.3292687884437
 21
207.9731462649135
 31
0.0
 11
110.4188486895969
 21
207.948326620443
 31
0.0
 11
110.4486422273552
 21
207.8738344723854
 31
0.0
 11
110.4486422273552
 21
207.7907978565593
 31
0.0
 11
110.4486422273552
 21
207.6081173017418
 31
0.0
 11
110.4486422273552
 21
207.4254367469243
 31
0.0
 11
110.4486422273552
 21
207.3424001310982
 31
0.0
 11
110.5208583085584
 21
207.3424001310982
 31
0.0
 11
110.6930658868121
 21
207.3424001310982
 31
0.0
 11
110.8986039640827
 21
207.3424001310982
 31
0.0
 11
111.0708115423364
 21
207.3424001310982
 31
0.0
 11
111.1430276235396
 21
207.3424001310982
 31
0.0
 11
111.1430276235396
 21
207.4259764849272
 31
0.0
 11
111.1430276235396
 21
207.609844463351
 31
0.0
 11
111.1430276235396
 21
207.7937124417747
 31
0.0
 11
111.1430276235396
 21
207.8772887956037
 31
0.0
 11
111.0823112500475
 21
208.0604177481467
 31
0.0
 11
110.9006271346199
 21
208.1876464509155
 31
0.0
 11
110.6390867057525
 21
208.2621718136193
 31
0.0
 11
110.3392331823428
 21
208.2870246727361
 31
0.0
 11
109.8803101045114
 21
208.2396138405297
 31
0.0
 11
109.6050861639847
 21
208.0972829301433
 31
0.0
 11
109.5133842159826
 21
207.8598843209267
 31
0.0
 11
109.5133842159826
 21
207.779027416266
 31
0.0
 11
109.5133842159826
 21
207.6011422260125
 31
0.0
 11
109.5133842159826
 21
207.4232570357589
 31
0.0
 11
109.5133842159826
 21
207.3424001310982
 31
0.0
 11
109.5855933885393
 21
207.3424001310982
 31
0.0
 11
109.7577844923285
 21
207.3424001310982
 31
0.0
 11
109.9633029065284
 21
207.3424001310982
 31
0.0
 11
110.1354940103175
 21
207.3424001310982
 31
0.0
 11
110.2077031828742
 21
207.3424001310982
 31
0.0
 11
110.2077031828742
 21
207.4254367469244
 31
0.0
 11
110.2077031828742
 21
207.6081173017418
 31
0.0
 11
110.2077031828742
 21
207.7907978565593
 31
0.0
 11
110.2077031828742
 21
207.8738344723854
 31
0.0
  0
SPLINE
  5
4DE
330
1F
100
AcDbEntity
  8
黒地
  6
CONTINUOUS
 62
     7
100
AcDbSpline
210
0.0
220
0.0
230
1.0
 70
  1067
 71
     3
 72
    75
 73
    71
 74
    69
 42
0.000000001
 43
0.0000000001
 44
0.00000001
 40
0.0
 40
0.0
 40
0.0
 40
0.0
 40
0.0731661248184934
 40
0.1660894875579277
 40
0.2578476889037555
 40
0.3333777510044286
 40
0.4158642486608471
 40
0.5973345445006487
 40
0.7788048405896802
 40
0.8612913388289144
 40
0.9334521503969114
 40
1.105527931921935
 40
1.310908703559599
 40
1.482984485294233
 40
1.555145297010492
 40
1.637631795207463
 40
1.819102091196933
 40
2.00057238709463
 40
2.083058885182746
 40
2.156271626611755
 40
2.249584140682138
 40
2.341115203525604
 40
2.416500679195471
 40
2.498447439203508
 40
2.678730311336884
 40
2.859013183584912
 40
2.940959943724911
 40
3.013127664005117
 40
3.185219920126747
 40
3.390620354995241
 40
3.56271261136252
 40
3.63488033180831
 40
3.702654152981714
 40
3.864268649469742
 40
4.057163370787825
 40
4.218777866816927
 40
4.286551687696393
 40
4.415600237876267
 40
4.565840152245844
 40
4.740047371569485
 40
4.916054612081066
 40
5.201197987848013
 40
5.440959103282021
 40
5.673336664183977
 40
5.906247806598178
 40
6.158268760790183
 40
6.348879551843752
 40
6.384651725924059
 40
6.420423900006811
 40
6.492626163402478
 40
6.66480079162156
 40
6.870299541632762
 40
7.042474170160646
 40
7.114676433768694
 40
7.18361527737514
 40
7.355962386307795
 40
7.580013627639119
 40
7.804064868373616
 40
7.976411975901528
 40
8.04535081866797
 40
8.117553082567724
 40
8.28972771191765
 40
8.495226463306523
 40
8.667401091796123
 40
8.739603347750858
 40
8.794872519243825
 40
8.926668235879959
 40
9.083972800891843
 40
9.21576851747227
 40
9.27103767908551
 40
9.27103767908551
 40
9.27103767908551
 40
9.27103767908551
 10
111.9832917464073
 20
207.8738344723854
 30
0.0
 10
111.990280620646
 20
207.8994975631722
 30
0.0
 10
112.0061455788429
 20
207.957753621979
 30
0.0
 10
112.1037149252839
 20
207.9658407645941
 30
0.0
 10
112.1990586082813
 20
207.9567825076135
 30
0.0
 10
112.2281203001354
 20
207.8664398879498
 30
0.0
 10
112.2186672578233
 20
207.7564159778582
 30
0.0
 10
112.2180420055651
 20
207.600509905444
 30
0.0
 10
112.2373626195777
 20
207.4733074341524
 30
0.0
 10
112.1992695202486
 20
207.3230252585452
 30
0.0
 10
112.3405086012583
 20
207.3551058739219
 30
0.0
 10
112.4705422163348
 20
207.3381975790433
 30
0.0
 10
112.6675212979179
 20
207.3381979036386
 30
0.0
 10
112.797557126341
 20
207.3551052644087
 30
0.0
 10
112.9387920082202
 20
207.3230261705014
 30
0.0
 10
112.9007185806983
 20
207.4733012793907
 30
0.0
 10
112.9198692613963
 20
207.6005647635692
 30
0.0
 10
112.9198241672642
 20
207.7562625410737
 30
0.0
 10
112.9093714233381
 20
207.8659175219397
 30
0.0
 10
112.9408275809464
 20
207.9547662164621
 30
0.0
 10
113.0360628854516
 20
207.9621737860792
 30
0.0
 10
113.1321394548646
 20
207.9532785730344
 30
0.0
 10
113.1606482738772
 20
207.86309273525
 30
0.0
 10
113.1514279995037
 20
207.7537260124043
 30
0.0
 10
113.1507262770098
 20
207.5988311068519
 30
0.0
 10
113.1698869318444
 20
207.472402376073
 30
0.0
 10
113.132099883313
 20
207.3230110073039
 30
0.0
 10
113.2732459341513
 20
207.3551398245245
 30
0.0
 10
113.4030738424227
 20
207.3383147919137
 30
0.0
 10
113.6008087400144
 20
207.3376389720876
 30
0.0
 10
113.7289566489423
 20
207.3564067758013
 30
0.0
 10
113.8670141508379
 20
207.3226504080408
 30
0.0
 10
113.8362309612736
 20
207.4539048103804
 30
0.0
 10
113.853909615251
 20
207.5768436381045
 30
0.0
 10
113.848144864639
 20
207.7554830582363
 30
0.0
 10
113.8470380957201
 20
207.8950985089016
 30
0.0
 10
113.8520814578891
 20
208.0141512902647
 30
0.0
 10
113.8193902846244
 20
208.1334749819812
 30
0.0
 10
113.6850691798649
 20
208.2193068254931
 30
0.0
 10
113.5278839780596
 20
208.2756468258058
 30
0.0
 10
113.3158178294856
 20
208.2902871527981
 30
0.0
 10
113.0772484718897
 20
208.2986366299933
 30
0.0
 10
112.8534035678243
 20
208.0801782941463
 30
0.0
 10
112.6517448062958
 20
208.2894826347145
 30
0.0
 10
112.3992916820037
 20
208.2757369910211
 30
0.0
 10
112.2090586302267
 20
208.328744724001
 30
0.0
 10
111.9776595748438
 20
208.1401138067895
 30
0.0
 10
111.9823934532407
 20
208.2367940623634
 30
0.0
 10
111.9922085651501
 20
208.29389130492
 30
0.0
 10
111.8593573643314
 20
208.2551473789211
 30
0.0
 10
111.7371987338711
 20
208.2794199114028
 30
0.0
 10
111.5365269344376
 20
208.2772306404053
 30
0.0
 10
111.4087568798837
 20
208.2592515914219
 30
0.0
 10
111.2703815139133
 20
208.2927525098523
 30
0.0
 10
111.3025174794415
 20
208.1562958768887
 30
0.0
 10
111.2822318666338
 20
208.0205473835209
 30
0.0
 10
111.2928864624105
 20
207.8077377231602
 30
0.0
 10
111.282233230436
 20
207.5949258258343
 30
0.0
 10
111.3025144445666
 20
207.4591815929935
 30
0.0
 10
111.2703857423124
 20
207.3227182128333
 30
0.0
 10
111.4087297672652
 20
207.3562481894123
 30
0.0
 10
111.5368157971873
 20
207.337976219305
 30
0.0
 10
111.7360142446778
 20
207.3371527924501
 30
0.0
 10
111.8620923358741
 20
207.3577918652365
 30
0.0
 10
111.9978925322067
 20
207.3221888835642
 30
0.0
 10
111.9741800082176
 20
207.4322687514824
 30
0.0
 10
111.9872369073775
 20
207.5340319757295
 30
0.0
 10
111.9823339698088
 20
207.679222198429
 30
0.0
 10
111.9833715106601
 20
207.7929768833544
 30
0.0
 10
111.9833099374873
 20
207.8553932696549
 30
0.0
 10
111.9832917464073
 20
207.8738344723854
 30
0.0
 11
111.9832917464073
 21
207.8738344723854
 31
0.0
 11
112.0133759123211
 21
207.940529482217
 31
0.0
 11
112.103595195416
 21
207.9627832952584
 31
0.0
 11
112.1924194633652
 21
207.9397655453513
 31
0.0
 11
112.2221050535231
 21
207.8703137198743
 31
0.0
 11
112.2221050535231
 21
207.787827221628
 31
0.0
 11
112.2221050535231
 21
207.6063569254862
 31
0.0
 11
112.2221050535231
 21
207.4248866293445
 31
0.0
 11
112.2221050535231
 21
207.3424001310982
 31
0.0
 11
112.2942658655547
 21
207.3424001310982
 31
0.0
 11
112.4663416480918
 21
207.3424001310982
 31
0.0
 11
112.6717224207974
 21
207.3424001310982
 31
0.0
 11
112.8437982033344
 21
207.3424001310982
 31
0.0
 11
112.9159590153661
 21
207.3424001310982
 31
0.0
 11
112.9159590153661
 21
207.4248866293445
 31
0.0
 11
112.9159590153661
 21
207.6063569254863
 31
0.0
 11
112.9159590153661
 21
207.787827221628
 31
0.0
 11
112.9159590153661
 21
207.8703137198743
 31
0.0
 11
112.946101306911
 21
207.9370336406906
 31
0.0
 11
113.0367274694237
 21
207.9592625427473
 31
0.0
 11
113.1253192348485
 21
207.9362530965019
 31
0.0
 11
113.1547723224821
 21
207.866859396656
 31
0.0
 11
113.1547723224821
 21
207.7849126364126
 31
0.0
 11
113.1547723224821
 21
207.6046297638771
 31
0.0
 11
113.1547723224821
 21
207.4243468913416
 31
0.0
 11
113.1547723224821
 21
207.3424001310982
 31
0.0
 11
113.2269400431602
 21
207.3424001310982
 31
0.0
 11
113.3990323001618
 21
207.3424001310982
 31
0.0
 11
113.604432735938
 21
207.3424001310982
 31
0.0
 11
113.7765249929396
 21
207.3424001310982
 31
0.0
 11
113.8486927136177
 21
207.3424001310982
 31
0.0
 11
113.8486927136177
 21
207.4101739526426
 31
0.0
 11
113.8486927136177
 21
207.5717884501714
 31
0.0
 11
113.8486927136177
 21
207.7646831730284
 31
0.0
 11
113.8486927136177
 21
207.9262976705572
 31
0.0
 11
113.8486927136177
 21
207.9940714921016
 31
0.0
 11
113.8093416613777
 21
208.1169739871858
 31
0.0
 11
113.6909231435482
 21
208.2094352589082
 31
0.0
 11
113.5267431467367
 21
208.2676854449102
 31
0.0
 11
113.3518016045143
 21
208.2870246727361
 31
0.0
 11
113.0687380848247
 21
208.2526475137841
 31
0.0
 11
112.8523861822897
 21
208.1493167490501
 31
0.0
 11
112.6442466010599
 21
208.2526475137842
 31
0.0
 11
112.413886421435
 21
208.2870246727361
 31
0.0
 11
112.1627670878538
 21
208.2657257807768
 31
0.0
 11
111.9832917464073
 21
208.2015301730817
 31
0.0
 11
111.9832917464073
 21
208.2373023471795
 31
0.0
 11
111.9832917464073
 21
208.2730745212774
 31
0.0
 11
111.911089482497
 21
208.2730745212774
 31
0.0
 11
111.7389148531724
 21
208.2730745212774
 31
0.0
 11
111.5334161020431
 21
208.2730745212774
 31
0.0
 11
111.3612414727186
 21
208.2730745212774
 31
0.0
 11
111.2890392088083
 21
208.2730745212774
 31
0.0
 11
111.2890392088083
 21
208.2041356775604
 31
0.0
 11
111.2890392088083
 21
208.031788568268
 31
0.0
 11
111.2890392088083
 21
207.8077373261878
 31
0.0
 11
111.2890392088083
 21
207.5836860841076
 31
0.0
 11
111.2890392088083
 21
207.4113389748152
 31
0.0
 11
111.2890392088083
 21
207.3424001310982
 31
0.0
 11
111.3612414727186
 21
207.3424001310982
 31
0.0
 11
111.5334161020431
 21
207.3424001310982
 31
0.0
 11
111.7389148531725
 21
207.3424001310982
 31
0.0
 11
111.911089482497
 21
207.3424001310982
 31
0.0
 11
111.9832917464073
 21
207.3424001310982
 31
0.0
 11
111.9832917464073
 21
207.3976693025921
 31
0.0
 11
111.9832917464073
 21
207.5294650192313
 31
0.0
 11
111.9832917464073
 21
207.6867695842523
 31
0.0
 11
111.9832917464073
 21
207.8185653008915
 31
0.0
 11
111.9832917464073
 21
207.8738344723854
 31
0.0
  0
SPLINE
  5
4DF
330
1F
100
AcDbEntity
  8
黒地
  6
CONTINUOUS
 62
     7
100
AcDbSpline
210
0.0
220
0.0
230
1.0
 70
  1067
 71
     3
 72
    54
 73
    50
 74
    48
 42
0.000000001
 43
0.0000000001
 44
0.00000001
 40
0.0
 40
0.0
 40
0.0
 40
0.0
 40
0.0752727386809721
 40
0.1675965820651657
 40
0.2618349946026597
 40
0.337378027700513
 40
0.3945401677758616
 40
0.5308498872701681
 40
0.6935421335124123
 40
0.8298518534112167
 40
0.8870139940210355
 40
0.9592646179235691
 40
1.131554567293069
 40
1.337190958582102
 40
1.509480908127674
 40
1.581731532155647
 40
1.650468627498174
 40
1.822311365692616
 40
2.045706924748846
 40
2.269102482515752
 40
2.440945218102872
 40
2.509682312181145
 40
2.591815904748959
 40
2.772509807996588
 40
2.953203709754181
 40
3.035337300618554
 40
3.080334811253992
 40
3.125332321852505
 40
3.339404560213343
 40
3.544777703212582
 40
3.790444532288562
 40
4.007925402922205
 40
4.18395902680258
 40
4.328976641617742
 40
4.393931735109475
 40
4.548824650174253
 40
4.733696838678184
 40
4.888589752916402
 40
4.953544845864342
 40
5.025795470299342
 40
5.198085420884168
 40
5.403721813403378
 40
5.576011760474201
 40
5.648262379385456
 40
5.705424520002324
 40
5.841734239934268
 40
6.004426486301653
 40
6.140736206204095
 40
6.197898336898915
 40
6.197898336898915
 40
6.197898336898915
 40
6.197898336898915
 10
115.8264920440106
 20
206.6272887956038
 30
0.0
 10
115.8199049352481
 20
206.6006439804556
 30
0.0
 10
115.8052385916582
 20
206.5413186459007
 30
0.0
 10
115.7061701361497
 20
206.5316872451702
 30
0.0
 10
115.6105714559619
 20
206.540371629732
 30
0.0
 10
115.5816297451605
 20
206.6220238018714
 30
0.0
 10
115.5886071184773
 20
206.7103783619857
 30
0.0
 10
115.5837335784298
 20
206.8287814272173
 30
0.0
 10
115.5903203114793
 20
206.978748903018
 30
0.0
 10
115.576259013574
 20
207.0838072748315
 30
0.0
 10
115.601048625216
 20
207.1970757698528
 30
0.0
 10
115.4648232347919
 20
207.1617464689631
 30
0.0
 10
115.3383497797835
 20
207.1820761735734
 30
0.0
 10
115.139122677248
 20
207.1813860098603
 30
0.0
 10
115.0109606048884
 20
207.163040315642
 30
0.0
 10
114.8725770794135
 20
207.196628639315
 30
0.0
 10
114.9045762366739
 20
207.0605074007406
 30
0.0
 10
114.8844201646211
 20
206.92514971514
 30
0.0
 10
114.8948706591493
 20
206.7128400364048
 30
0.0
 10
114.8848119631984
 20
206.5011358560616
 30
0.0
 10
114.9037022354665
 20
206.3646253977973
 30
0.0
 10
114.8728491760295
 20
206.2260892522673
 30
0.0
 10
115.0215350176209
 20
206.265156406233
 30
0.0
 10
115.1506892274131
 20
206.2384558764221
 30
0.0
 10
115.2960723083556
 20
206.2633896602307
 30
0.0
 10
115.4126091826823
 20
206.2312441873914
 30
0.0
 10
115.445836016844
 20
206.2833621520355
 30
0.0
 10
115.510585943272
 20
206.3703425550818
 30
0.0
 10
115.6786131135256
 20
206.2072574864063
 30
0.0
 10
115.892744274457
 20
206.2231081550166
 30
0.0
 10
116.1193454680793
 20
206.2313605549894
 30
0.0
 10
116.3218865921074
 20
206.2961213088809
 30
0.0
 10
116.4835516941708
 20
206.3941538731485
 30
0.0
 10
116.5247700743812
 20
206.5258968632811
 30
0.0
 10
116.519615870257
 20
206.6472718161898
 30
0.0
 10
116.5207149487259
 20
206.7810241015975
 30
0.0
 10
116.526093559776
 20
206.9521210774234
 30
0.0
 10
116.5095326239382
 20
207.0703276254263
 30
0.0
 10
116.5386855980183
 20
207.1967911779232
 30
0.0
 10
116.401012589954
 20
207.1626276516128
 30
0.0
 10
116.2734290469715
 20
207.1815646622628
 30
0.0
 10
116.0739865464683
 20
207.1820329527949
 30
0.0
 10
115.9475537657371
 20
207.1617497445297
 30
0.0
 10
115.8113336321384
 20
207.1970763888642
 30
0.0
 10
115.836092756168
 20
207.083802343719
 30
0.0
 10
115.8223351695112
 20
206.9788056447825
 30
0.0
 10
115.8275012188235
 20
206.8285480612135
 30
0.0
 10
115.8264080001204
 20
206.7109172961493
 30
0.0
 10
115.8264728767211
 20
206.6463619605992
 30
0.0
 10
115.8264920440106
 20
206.6272887956038
 30
0.0
 11
115.8264920440106
 21
206.6272887956038
 31
0.0
 11
115.7968977941302
 21
206.5580777763127
 31
0.0
 11
115.7075171808549
 21
206.5349520788051
 31
0.0
 11
115.6161602961229
 21
206.5580777763127
 31
0.0
 11
115.5858851459927
 21
206.6272887956038
 31
0.0
 11
115.5858851459927
 21
206.6844509362213
 31
0.0
 11
115.5858851459927
 21
206.8207606561554
 31
0.0
 11
115.5858851459927
 21
206.9834529025283
 31
0.0
 11
115.5858851459927
 21
207.1197626224624
 31
0.0
 11
115.5858851459927
 21
207.1769247630799
 31
0.0
 11
115.5136345215573
 21
207.1769247630799
 31
0.0
 11
115.3413445709808
 21
207.1769247630799
 31
0.0
 11
115.1357081783571
 21
207.1769247630799
 31
0.0
 11
114.9634182277805
 21
207.1769247630799
 31
0.0
 11
114.8911676033451
 21
207.1769247630799
 31
0.0
 11
114.8911676033451
 21
207.1081876675851
 31
0.0
 11
114.8911676033451
 21
206.9363449288481
 31
0.0
 11
114.8911676033451
 21
206.71294936849
 31
0.0
 11
114.8911676033451
 21
206.4895538081319
 31
0.0
 11
114.8911676033451
 21
206.3177110693948
 31
0.0
 11
114.8911676033451
 21
206.2489739739
 31
0.0
 11
114.9733011959741
 21
206.2489739739
 31
0.0
 11
115.1539950997579
 21
206.2489739739
 31
0.0
 11
115.3346890035417
 21
206.2489739739
 31
0.0
 11
115.4168225961707
 21
206.2489739739
 31
0.0
 11
115.4462839874658
 21
206.2829857717423
 31
0.0
 11
115.475745378761
 21
206.3169975695846
 31
0.0
 11
115.6774081039564
 21
206.245170896895
 31
0.0
 11
115.8813626397483
 21
206.2210736709823
 31
0.0
 11
116.1260217246185
 21
206.2433025730389
 31
0.0
 11
116.3330154005498
 21
206.3100224938553
 31
0.0
 11
116.4741942547774
 21
206.4151717604759
 31
0.0
 11
116.5212095866581
 21
206.5523565534822
 31
0.0
 11
116.5212095866581
 21
206.6173116472804
 31
0.0
 11
116.5212095866581
 21
206.7722045632606
 31
0.0
 11
116.5212095866581
 21
206.9570767533015
 31
0.0
 11
116.5212095866581
 21
207.1119696692817
 31
0.0
 11
116.5212095866581
 21
207.1769247630799
 31
0.0
 11
116.4489589622228
 21
207.1769247630799
 31
0.0
 11
116.2766690116462
 21
207.1769247630799
 31
0.0
 11
116.0710326190225
 21
207.1769247630799
 31
0.0
 11
115.8987426684459
 21
207.1769247630799
 31
0.0
 11
115.8264920440106
 21
207.1769247630799
 31
0.0
 11
115.8264920440106
 21
207.1197626224624
 31
0.0
 11
115.8264920440106
 21
206.9834529025283
 31
0.0
 11
115.8264920440106
 21
206.8207606561554
 31
0.0
 11
115.8264920440106
 21
206.6844509362213
 31
0.0
 11
115.8264920440106
 21
206.6272887956038
 31
0.0
  0
SPLINE
  5
4E0
330
1F
100
AcDbEntity
  8
黒地
  6
CONTINUOUS
 62
     7
100
AcDbSpline
210
0.0
220
0.0
230
1.0
 70
  1067
 71
     3
 72
    59
 73
    55
 74
    53
 42
0.000000001
 43
0.0000000001
 44
0.00000001
 40
0.0
 40
0.0
 40
0.0
 40
0.0
 40
0.0732146163647692
 40
0.1672350157966472
 40
0.2595236012920631
 40
0.3349872554897161
 40
0.3909749257191152
 40
0.5244839862838775
 40
0.6838335105409727
 40
0.8173425714700444
 40
0.8733302421882116
 40
0.9455808661207301
 40
1.117870815571828
 40
1.323507206967358
 40
1.495797156599062
 40
1.568047780659777
 40
1.637092793054217
 40
1.801738591753798
 40
1.998251318970427
 40
2.162897117037398
 40
2.231942128946594
 40
2.358459531697084
 40
2.505974663809516
 40
2.679770424576217
 40
2.860810666210509
 40
3.123755293830344
 40
3.302940950874202
 40
3.358783538177321
 40
3.491946633179751
 40
3.650883232181159
 40
3.784046329089265
 40
3.83988891816442
 40
3.912139542084418
 40
4.084429491656991
 40
4.290065883390696
 40
4.462355833395804
 40
4.53460645762523
 40
4.61252162668363
 40
4.813460746839482
 40
5.088214237494824
 40
5.387572517934657
 40
5.662326007401262
 40
5.863265125701346
 40
5.941180293777464
 40
6.013430918209167
 40
6.185720868811188
 40
6.391357261541316
 40
6.563647209537308
 40
6.635897827516558
 40
6.692251656500204
 40
6.826633864075845
 40
6.987025531178247
 40
7.121407738714524
 40
7.17776155779795
 40
7.17776155779795
 40
7.17776155779795
 40
7.17776155779795
 10
115.5858851459927
 20
207.8842638713331
 30
0.0
 10
115.5929562866483
 20
207.9099202460334
 30
0.0
 10
115.6091079970145
 20
207.9685239090498
 30
0.0
 10
115.7075432315741
 20
207.9760125537616
 30
0.0
 10
115.8030637384799
 20
207.9674767193201
 30
0.0
 10
115.830479888598
 20
207.8862963465069
 30
0.0
 10
115.8239612224083
 20
207.7994153463193
 30
0.0
 10
115.8285298093405
 20
207.6833557601307
 30
0.0
 10
115.8222093238327
 20
207.5365568918972
 30
0.0
 10
115.8358101948986
 20
207.4334952905547
 30
0.0
 10
115.8116754483702
 20
207.3222035282016
 30
0.0
 10
115.9476940940122
 20
207.3577185238962
 30
0.0
 10
116.0739682164438
 20
207.3371875235064
 30
0.0
 10
116.2732629225854
 20
207.3379559044882
 30
0.0
 10
116.4014299883287
 20
207.356278044215
 30
0.0
 10
116.53991551692
 20
207.3226707028056
 30
0.0
 10
116.5083978988399
 20
207.4561074002758
 30
0.0
 10
116.5265657467198
 20
207.5811948813863
 30
0.0
 10
116.5206772364845
 20
207.7632338966054
 30
0.0
 10
116.5194370434097
 20
207.9054844952153
 30
0.0
 10
116.5247585643264
 20
208.0250679105528
 30
0.0
 10
116.4918287314115
 20
208.1432778562156
 30
0.0
 10
116.3562529315486
 20
208.2244674562877
 30
0.0
 10
116.1989584961164
 20
208.2783080424402
 30
0.0
 10
115.9850999992363
 20
208.2825235051496
 30
0.0
 10
115.810067386767
 20
208.3294906444304
 30
0.0
 10
115.5729236237976
 20
208.1521696893651
 30
0.0
 10
115.5908276430882
 20
208.300759337015
 30
0.0
 10
115.5828068281033
 20
208.4056047329011
 30
0.0
 10
115.5904058563453
 20
208.5561186282538
 30
0.0
 10
115.5765817919871
 20
208.6580535036549
 30
0.0
 10
115.6006631767581
 20
208.769193852955
 30
0.0
 10
115.4646702248501
 20
208.733616795226
 30
0.0
 10
115.3383269553294
 20
208.7542907429241
 30
0.0
 10
115.1394864230208
 20
208.753041583676
 30
0.0
 10
115.0100828928328
 20
208.7359585868882
 30
0.0
 10
114.8698203722334
 20
208.7683813892594
 30
0.0
 10
114.9078183684997
 20
208.6134210478731
 30
0.0
 10
114.8828842054957
 20
208.4540470382424
 30
0.0
 10
114.8932565950734
 20
208.1836491291991
 30
0.0
 10
114.8932565755959
 20
207.9077249749552
 30
0.0
 10
114.8828842575013
 20
207.6373270042482
 30
0.0
 10
114.9078182757152
 20
207.4779531465182
 30
0.0
 10
114.8698204999788
 20
207.3229925765957
 30
0.0
 10
115.0100822116129
 20
207.3554162281971
 30
0.0
 10
115.1394937838329
 20
207.3383247884334
 30
0.0
 10
115.3382967892824
 20
207.3371150279611
 30
0.0
 10
115.4647398939196
 20
207.3576841626026
 30
0.0
 10
115.6008033421256
 20
207.3222155469362
 30
0.0
 10
115.5764963846041
 20
207.4341317187129
 30
0.0
 10
115.5899502511735
 20
207.5377497578612
 30
0.0
 10
115.5848982502967
 20
207.6858427687466
 30
0.0
 10
115.5859673348985
 20
207.8018185827958
 30
0.0
 10
115.5859038901343
 20
207.865460561703
 30
0.0
 10
115.5858851459927
 20
207.8842638713331
 30
0.0
 11
115.5858851459927
 21
207.8842638713331
 31
0.0
 11
115.6161602961229
 21
207.9509256665185
 31
0.0
 11
115.7075171808549
 21
207.9731462649135
 31
0.0
 11
115.7968977941302
 21
207.9501617296528
 31
0.0
 11
115.8264920440106
 21
207.8807431188222
 31
0.0
 11
115.8264920440106
 21
207.824755448099
 31
0.0
 11
115.8264920440106
 21
207.6912463871434
 31
0.0
 11
115.8264920440106
 21
207.531896862777
 31
0.0
 11
115.8264920440106
 21
207.3983878018215
 31
0.0
 11
115.8264920440106
 21
207.3424001310982
 31
0.0
 11
115.8987426684459
 21
207.3424001310982
 31
0.0
 11
116.0710326190225
 21
207.3424001310982
 31
0.0
 11
116.2766690116462
 21
207.3424001310982
 31
0.0
 11
116.4489589622228
 21
207.3424001310982
 31
0.0
 11
116.5212095866581
 21
207.3424001310982
 31
0.0
 11
116.5212095866581
 21
207.4114451435869
 31
0.0
 11
116.5212095866581
 21
207.5760909425985
 31
0.0
 11
116.5212095866581
 21
207.772603670451
 31
0.0
 11
116.5212095866581
 21
207.9372494694626
 31
0.0
 11
116.5212095866581
 21
208.0062944819513
 31
0.0
 11
116.4817671941407
 21
208.1265065906827
 31
0.0
 11
116.3635064458812
 21
208.2146831730285
 31
0.0
 11
116.1984130462957
 21
208.2689891197787
 31
0.0
 11
116.0182734119226
 21
208.2870246727361
 31
0.0
 11
115.7559939571742
 21
208.2683331305137
 31
0.0
 11
115.5858851459927
 21
208.2120260013221
 31
0.0
 11
115.5858851459927
 21
208.2678685904702
 31
0.0
 11
115.5858851459927
 21
208.4010316876695
 31
0.0
 11
115.5858851459927
 21
208.5599682875526
 31
0.0
 11
115.5858851459927
 21
208.6931313847519
 31
0.0
 11
115.5858851459927
 21
208.7489739739
 31
0.0
 11
115.5136345215574
 21
208.7489739739
 31
0.0
 11
115.3413445709808
 21
208.7489739739
 31
0.0
 11
115.1357081783571
 21
208.7489739739
 31
0.0
 11
114.9634182277805
 21
208.7489739739
 31
0.0
 11
114.8911676033451
 21
208.7489739739
 31
0.0
 11
114.8911676033451
 21
208.6710588047652
 31
0.0
 11
114.8911676033451
 21
208.4701196843649
 31
0.0
 11
114.8911676033451
 21
208.1953661932054
 31
0.0
 11
114.8911676033451
 21
207.8960079117928
 31
0.0
 11
114.8911676033451
 21
207.6212544206332
 31
0.0
 11
114.8911676033451
 21
207.420315300233
 31
0.0
 11
114.8911676033451
 21
207.3424001310982
 31
0.0
 11
114.9634182277805
 21
207.3424001310982
 31
0.0
 11
115.1357081783571
 21
207.3424001310982
 31
0.0
 11
115.3413445709808
 21
207.3424001310982
 31
0.0
 11
115.5136345215573
 21
207.3424001310982
 31
0.0
 11
115.5858851459927
 21
207.3424001310982
 31
0.0
 11
115.5858851459927
 21
207.3987539600826
 31
0.0
 11
115.5858851459927
 21
207.5331361676609
 31
0.0
 11
115.5858851459927
 21
207.6935278347704
 31
0.0
 11
115.5858851459927
 21
207.8279100423487
 31
0.0
 11
115.5858851459927
 21
207.8842638713331
 31
0.0
  0
SPLINE
  5
4E1
330
1F
100
AcDbEntity
  8
黒地
  6
CONTINUOUS
 62
     7
100
AcDbSpline
210
0.0
220
0.0
230
1.0
 70
  1067
 71
     3
 72
    14
 73
    10
 74
     8
 42
0.000000001
 43
0.0000000001
 44
0.00000001
 40
0.0
 40
0.0
 40
0.0
 40
0.0
 40
0.2575833780417251
 40
0.5117245897125564
 40
0.7035477805220289
 40
1.05979084738341
 40
1.251614038193053
 40
1.505767792576211
 40
1.763327767467675
 40
1.763327767467675
 40
1.763327767467675
 40
1.763327767467675
 10
114.3856406861958
 20
207.6502334732889
 30
0.0
 10
114.3053890061367
 20
207.6388743336273
 30
0.0
 10
114.1459580742081
 20
207.6163078515526
 30
0.0
 10
113.9200427966235
 20
207.2913248758425
 30
0.0
 10
114.3031179255604
 20
207.3631257217641
 30
0.0
 10
114.4681622963929
 20
207.3631235734209
 30
0.0
 10
114.8512474004334
 20
207.2913276969587
 30
0.0
 10
114.6253017679254
 20
207.6162923175227
 30
0.0
 10
114.4658814404291
 20
207.6388696588508
 30
0.0
 10
114.3856406861958
 20
207.6502334732889
 30
0.0
 11
114.3856406861958
 21
207.6502334732889
 31
0.0
 11
114.1436470766937
 21
207.5619821579889
 31
0.0
 11
114.0156959553672
 21
207.3424001310982
 31
0.0
 11
114.2075191491302
 21
207.3424001310982
 31
0.0
 11
114.5637622232614
 21
207.3424001310982
 31
0.0
 11
114.7555854170244
 21
207.3424001310982
 31
0.0
 11
114.6276093847131
 21
207.5619821579889
 31
0.0
 11
114.3856406861958
 21
207.6502334732889
 31
0.0
  0
SPLINE
  5
4E2
330
1F
100
AcDbEntity
  8
黒地
  6
CONTINUOUS
 62
     7
100
AcDbSpline
210
0.0
220
0.0
230
1.0
 70
  1067
 71
     3
 72
    14
 73
    10
 74
     8
 42
0.000000001
 43
0.0000000001
 44
0.00000001
 40
0.0
 40
0.0
 40
0.0
 40
0.0
 40
0.2444594889094334
 40
0.4845350753411392
 40
0.6730515635376516
 40
1.023153610828868
 40
1.211670099025536
 40
1.451759425646972
 40
1.696195359227405
 40
1.696195359227405
 40
1.696195359227405
 40
1.696195359227405
 10
114.3856406861958
 20
206.8971245823923
 30
0.0
 10
114.461211573443
 20
206.9070481899464
 30
0.0
 10
114.610998131877
 20
206.9267174430814
 30
0.0
 10
114.8433164986823
 20
207.2256375863314
 30
0.0
 10
114.4641150731497
 20
207.1568104166937
 30
0.0
 10
114.3071672919494
 20
207.1568128184931
 30
0.0
 10
113.9279557784045
 20
207.225634475438
 30
0.0
 10
114.1603034656943
 20
206.9267328799738
 30
0.0
 10
114.3100804034824
 20
206.9070528642924
 30
0.0
 10
114.3856406861958
 20
206.8971245823923
 30
0.0
 11
114.3856406861958
 21
206.8971245823923
 31
0.0
 11
114.6167980173326
 21
206.9766653566921
 31
0.0
 11
114.7492082049288
 21
207.1769247630799
 31
0.0
 11
114.5606917137339
 21
207.1769247630799
 31
0.0
 11
114.2105896586576
 21
207.1769247630799
 31
0.0
 11
114.0220731674627
 21
207.1769247630799
 31
0.0
 11
114.1545082660438
 21
206.9766653566921
 31
0.0
 11
114.3856406861958
 21
206.8971245823923
 31
0.0
  0
XLINE
  5
4E3
330
1F
100
AcDbEntity
  8
1
  6
DOT_CENTER
 62
     3
 60
     1
100
AcDbXline
 10
218.2983088031
 20
209.0489754461
 30
0.0
 11
-1.0
 21
0.0
 31
0.0
  0
XLINE
  5
4E4
330
1F
100
AcDbEntity
  8
1
  6
DOT_CENTER
 62
     3
 60
     1
100
AcDbXline
 10
105.9367114788673
 20
207.7315190815
 30
0.0
 11
-1.0
 21
0.0
 31
0.0
  0
XLINE
  5
4E5
330
1F
100
AcDbEntity
  8
1
  6
DOT_CENTER
 62
     3
 60
     1
100
AcDbXline
 10
105.9367114788673
 20
129.2664298796
 30
0.0
 11
-1.0
 21
0.0
 31
0.0
  0
LWPOLYLINE
  5
4E6
330
1F
100
AcDbEntity
  8
0
  6
CONTINUOUS
 62
     7
100
AcDbPolyline
 90
        8
 70
     0
 43
0.0
 10
104.9367114788933
 20
212.5726455831
 10
104.9466252348933
 20
212.5743964695
 10
104.9759733719933
 20
212.5795708977
 10
105.0235920952933
 20
212.5879677021
 10
105.0875930700933
 20
212.5992516064
 10
105.1654383514933
 20
212.6129793011
 10
105.2540409614933
 20
212.6285994433
 10
105.3498873839933
 20
212.6455010854
  0
LWPOLYLINE
  5
4E7
330
1F
100
AcDbEntity
  8
0
  6
CONTINUOUS
 62
     7
100
AcDbPolyline
 90
        8
 70
     0
 43
0.0
 10
105.3498873839933
 20
207.7417636298
 10
105.2540409614933
 20
207.7434362852
 10
105.1654383514933
 20
207.7449822806
 10
105.0875930700933
 20
207.7463420116
 10
105.0235920952933
 20
207.7474558734
 10
104.9759733719933
 20
207.7482903384
 10
104.9466252348933
 20
207.7488007032
 10
104.9367114788933
 20
207.7489757918
  0
LWPOLYLINE
  5
4E8
330
1F
100
AcDbEntity
  8
0
  6
CONTINUOUS
 62
     7
100
AcDbPolyline
 90
        9
 70
     0
 43
0.0
 10
105.3498873839933
 20
123.8524468624
 10
105.2657014111933
 20
123.8672921442
 10
105.1867114906933
 20
123.8812210046
 10
105.1153176699933
 20
123.8938087606
 10
105.0536892539933
 20
123.9046754324
 10
105.0036987758933
 20
123.9134894692
 10
104.9668651681933
 20
123.9199826502
 10
104.9443076022933
 20
123.9239612602
 10
104.9367114788933
 20
123.9253023647
  0
LWPOLYLINE
  5
4E9
330
1F
100
AcDbEntity
  8
0
  6
CONTINUOUS
 62
     7
100
AcDbPolyline
 90
        8
 70
     0
 43
0.0
 10
104.9367114788933
 20
129.2489731692
 10
104.9466252348933
 20
129.2491482579
 10
104.9759733719933
 20
129.2496586226
 10
105.0235920952933
 20
129.2504893624
 10
105.0875930700933
 20
129.2516069495
 10
105.1654383514933
 20
129.2529666804
 10
105.2540409614933
 20
129.2545126759
 10
105.3498873839933
 20
129.2561853313
  0
LWPOLYLINE
  5
4EA
330
1F
100
AcDbEntity
  8
0
  6
CONTINUOUS
 62
     7
100
AcDbPolyline
 90
        9
 70
     0
 43
0.0
 10
127.0235348379933
 20
212.6455010854
 10
127.1077208107933
 20
212.6306558036
 10
127.1867118662933
 20
212.6167269432
 10
127.2581051921933
 20
212.6041391872
 10
127.3197345322933
 20
212.5932725154
 10
127.3697242027933
 20
212.5844584786
 10
127.4065580105933
 20
212.5779652976
 10
127.4291146433933
 20
212.5739866876
 10
127.4367123728933
 20
212.5726455831
  0
LWPOLYLINE
  5
4EB
330
1F
100
AcDbEntity
  8
0
  6
CONTINUOUS
 62
     7
100
AcDbPolyline
 90
        9
 70
     0
 43
0.0
 10
127.4367123728933
 20
123.9253023647
 10
127.4291146433933
 20
123.9239612602
 10
127.4065580105933
 20
123.9199826502
 10
127.3697242027933
 20
123.9134894692
 10
127.3197345322933
 20
123.9046754324
 10
127.2581051921933
 20
123.8938087606
 10
127.1867118662933
 20
123.8812210046
 10
127.1077208107933
 20
123.8672921442
 10
127.0235348379933
 20
123.8524468624
  0
LWPOLYLINE
  5
4EC
330
1F
100
AcDbEntity
  8
0
  6
CONTINUOUS
 62
     7
100
AcDbPolyline
 90
        9
 70
     0
 43
0.0
 10
104.9367114788933
 20
207.5280288242
 10
104.9461071957933
 20
207.528192737
 10
104.9739412260933
 20
207.5286770247
 10
105.0191674908933
 20
207.5294667863
 10
105.0800862608933
 20
207.5305322193
 10
105.1544080142933
 20
207.5318286203
 10
105.2393395398933
 20
207.5333112859
 10
105.3316888751933
 20
207.5349206113
 10
105.4279853010933
 20
207.5366044425
  0
LWPOLYLINE
  5
4ED
330
1F
100
AcDbEntity
  8
0
  6
CONTINUOUS
 62
     7
100
AcDbPolyline
 90
        9
 70
     0
 43
0.0
 10
105.4279853010933
 20
129.4613445186
 10
105.3316888751933
 20
129.4630246245
 10
105.2393395398933
 20
129.4646376752
 10
105.1544080142933
 20
129.4661203407
 10
105.0800862608933
 20
129.4674167418
 10
105.0191674908933
 20
129.4684821748
 10
104.9739412260933
 20
129.4692719363
 10
104.9461071957933
 20
129.4697562241
 10
104.9367114788933
 20
129.4699201368
  0
LWPOLYLINE
  5
4EE
330
1F
100
AcDbEntity
  8
黒地
  6
CONTINUOUS
 62
     7
100
AcDbPolyline
 90
        5
 70
     1
 43
0.0
 10
116.6599139497341
 20
206.2489739739
 10
117.3536350529919
 20
206.2489739739
 10
117.3536350529919
 20
207.1769247630799
 10
116.6599139497341
 20
207.1769247630799
 10
116.6599139497341
 20
206.2489739739
  0
LWPOLYLINE
  5
4EF
330
1F
100
AcDbEntity
  8
黒地
  6
CONTINUOUS
 62
     7
100
AcDbPolyline
 90
        5
 70
     1
 43
0.0
 10
117.3536350529919
 20
208.7489739739
 10
116.6599139497341
 20
208.7489739739
 10
116.6599139497341
 20
208.3846093036551
 10
117.3536350529919
 20
208.3846093036551
 10
117.3536350529919
 20
208.7489739739
  0
LWPOLYLINE
  5
4F0
330
1F
100
AcDbEntity
  8
黒地
  6
CONTINUOUS
 62
     7
100
AcDbPolyline
 90
        5
 70
     1
 43
0.0
 10
117.3536350529919
 20
208.2730745212774
 10
116.6599139497341
 20
208.2730745212774
 10
116.6599139497341
 20
207.3424001310982
 10
117.3536350529919
 20
207.3424001310982
 10
117.3536350529919
 20
208.2730745212774
  0
LWPOLYLINE
  5
4F1
330
1F
100
AcDbEntity
  8
黒地
  6
CONTINUOUS
 62
     7
100
AcDbPolyline
 90
        5
 70
     1
 43
0.0
 10
111.2890392088083
 20
206.2489739739
 10
111.9832917464073
 20
206.2489739739
 10
111.9832917464073
 20
207.1769247630799
 10
111.2890392088083
 20
207.1769247630799
 10
111.2890392088083
 20
206.2489739739
  0
LWPOLYLINE
  5
4F2
330
1F
100
AcDbEntity
  8
黒地
  6
CONTINUOUS
 62
     7
100
AcDbPolyline
 90
        5
 70
     1
 43
0.0
 10
112.2221050535231
 20
206.2489739739
 10
112.9159590153661
 20
206.2489739739
 10
112.9159590153661
 20
207.1769247630799
 10
112.2221050535231
 20
207.1769247630799
 10
112.2221050535231
 20
206.2489739739
  0
LWPOLYLINE
  5
4F3
330
1F
100
AcDbEntity
  8
黒地
  6
CONTINUOUS
 62
     7
100
AcDbPolyline
 90
        5
 70
     1
 43
0.0
 10
113.1547723224821
 20
206.2489739739
 10
113.8486927136177
 20
206.2489739739
 10
113.8486927136177
 20
207.1769247630799
 10
113.1547723224821
 20
207.1769247630799
 10
113.1547723224821
 20
206.2489739739
  0
DIMENSION
  5
507
330
1F
100
AcDbEntity
  8
1
100
AcDbDimension
  2
*D1
 10
104.9367114788933
 20
116.748973199
 30
0.0
 11
116.1867119258933
 21
118.998973199
 31
0.0
 70
    32
  1
<>
 53
0.00013888888889
  3
ME10_DIM_10
100
AcDbAlignedDimension
 13
127.4367123728933
 23
124.6957929813
 33
0.0
 14
104.9367114788933
 24
124.6957929813
 34
0.0
100
AcDbRotatedDimension
  0
DIMENSION
  5
514
330
1F
100
AcDbEntity
  8
1
100
AcDbDimension
  2
*D3
 10
138.833685757168
 20
175.5887888911399
 30
0.0
 11
136.583685757168
 21
195.612167223687
 31
0.0
 70
    32
  1
37
 53
90.0
  3
ME10_DIM_11
100
AcDbAlignedDimension
 13
126.4367122089933
 23
212.7489747488
 33
0.0
 14
132.736623159917
 24
175.5887888911399
 34
0.0
 50
90.0
100
AcDbRotatedDimension
  0
DIMENSION
  5
521
330
1F
100
AcDbEntity
  8
1
100
AcDbDimension
  2
*D4
 10
145.833685757168
 20
123.748973199
 30
0.0
 11
143.583685757168
 21
168.2489739739
 31
0.0
 70
    32
  1
<>
 53
90.0
  3
ME10_DIM_12
100
AcDbAlignedDimension
 13
126.4367122089933
 23
212.7489747488
 33
0.0
 14
126.4367122089933
 24
123.748973199
 34
0.0
 50
90.0
100
AcDbRotatedDimension
  0
DIMENSION
  5
52E
330
1F
100
AcDbEntity
  8
1
100
AcDbDimension
  2
*D5
 10
162.8962496951
 20
116.748973199
 30
0.0
 11
157.896249695072
 21
118.998973199
 31
0.0
 70
    32
  1
<>
 53
0.00013888888889
  3
ME10_DIM_13
100
AcDbAlignedDimension
 13
152.8962496950439
 23
167.917631280651
 33
0.0
 14
162.8962496951
 24
125.7488990211
 34
0.0
100
AcDbRotatedDimension
  0
DIMENSION
  5
53B
330
1F
100
AcDbEntity
  8
1
100
AcDbDimension
  2
*D6
 10
232.8962499931
 20
116.748973199
 30
0.0
 11
197.8962498441
 21
118.998973199
 31
0.0
 70
    32
  1
<>
 53
0.00013888888889
  3
ME10_DIM_14
100
AcDbAlignedDimension
 13
162.8962496951
 23
125.7488990211
 33
0.0
 14
232.8962499931
 24
126.2489745401
 34
0.0
100
AcDbRotatedDimension
  0
DIMENSION
  5
548
330
1F
100
AcDbEntity
  8
1
100
AcDbDimension
  2
*D7
 10
232.8962499931
 20
116.748973199
 30
0.0
 11
247.8962499931
 21
118.998973199
 31
0.0
 70
    32
  1
30
 53
0.00013888888889
  3
ME10_DIM_15
100
AcDbAlignedDimension
 13
262.8962499931
 23
135.5888041499398
 33
0.0
 14
232.8962499931
 24
158.5888041499398
 34
0.0
100
AcDbRotatedDimension
  0
ENDSEC
  0
SECTION
  2
OBJECTS
  0
DICTIONARY
  5
C
330
0
100
AcDbDictionary
  3
ACAD_GROUP
350
D
  3
ACAD_LAYOUT
350
1A
  3
ACAD_MATERIAL
350
43
  3
ACAD_MLEADERSTYLE
350
6B
  3
ACAD_MLINESTYLE
350
17
  3
ACAD_PLOTSETTINGS
350
19
  3
ACAD_SCALELIST
350
47
  3
ACAD_VISUALSTYLE
350
2A
  3
ACDBHEADERROUNDTRIPXREC
350
549
  3
ACDBVARIABLEDICTIONARY
350
56A
  0
DICTIONARY
  5
571
330
8
100
AcDbDictionary
280
     1
  3
ACAD_XREC_ROUNDTRIP
360
572
  0
DICTIONARY
  5
D
102
{ACAD_REACTORS
330
C
102
}
330
C
100
AcDbDictionary
  0
DICTIONARY
  5
1A
102
{ACAD_REACTORS
330
C
102
}
330
C
100
AcDbDictionary
  0
DICTIONARY
  5
43
102
{ACAD_REACTORS
330
C
102
}
330
C
100
AcDbDictionary
  3
BYBLOCK
350
45
  3
BYLAYER
350
44
  3
GLOBAL
350
46
  0
DICTIONARY
  5
6B
102
{ACAD_REACTORS
330
C
102
}
330
C
100
AcDbDictionary
  3
STANDARD
350
6C
  0
DICTIONARY
  5
17
102
{ACAD_REACTORS
330
C
102
}
330
C
100
AcDbDictionary
  3
STANDARD
350
18
  0
DICTIONARY
  5
19
102
{ACAD_REACTORS
330
C
102
}
330
C
100
AcDbDictionary
  0
DICTIONARY
  5
47
102
{ACAD_REACTORS
330
C
102
}
330
C
100
AcDbDictionary
  3
A0
350
48
  3
A1
350
49
  3
A2
350
4A
  3
A3
350
4B
  3
A4
350
4C
  3
A5
350
4D
  3
A6
350
4E
  3
A7
350
4F
  3
A8
350
50
  3
A9
350
51
  3
B0
350
52
  3
B1
350
53
  3
B2
350
54
  3
B3
350
55
  3
B4
350
56
  3
B5
350
57
  3
B6
350
58
  3
B7
350
59
  3
B8
350
5A
  3
B9
350
5B
  3
C0
350
5C
  3
C1
350
5D
  3
C2
350
5E
  3
C3
350
5F
  3
C4
350
60
  3
C5
350
61
  3
C6
350
62
  3
C7
350
63
  3
C8
350
64
  3
C9
350
65
  3
D0
350
66
  3
D1
350
67
  3
D2
350
68
  0
DICTIONARY
  5
2A
102
{ACAD_REACTORS
330
C
102
}
330
C
100
AcDbDictionary
  3
2DWIREFRAME
350
2F
  3
BASIC
350
32
  3
BRIGHTEN
350
36
  3
COLORCHANGE
350
3A
  3
CONCEPTUAL
350
34
  3
DIM
350
35
  3
EDGECOLOROFF
350
3D
  3
FACEPATTERN
350
39
  3
FLAT
350
2B
  3
FLATWITHEDGES
350
2C
  3
GOURAUD
350
2D
  3
GOURAUDWITHEDGES
350
2E
  3
HIDDEN
350
31
  3
JITTEROFF
350
3B
  3
LINEPATTERN
350
38
  3
OVERHANGOFF
350
3C
  3
REALISTIC
350
33
  3
SHADED
350
42
  3
SHADED_WITH_EDGES
350
41
  3
SHADES_OF_GRAY
350
3E
  3
SKETCHY
350
3F
  3
THICKEN
350
37
  3
WIREFRAME
350
30
  3
X-RAY
350
40
  0
DICTIONARY
  5
549
102
{ACAD_REACTORS
330
C
102
}
330
C
100
AcDbDictionary
  3
CEPSNID
350
553
  3
CEPSNTYPE
350
552
  3
DIMSTYLEDATA
350
569
  3
FINGERPRINTGUID
350
554
  3
HYPERLINKBASE
350
54C
  3
INSUNITS
350
551
  3
LAYOUTDICT
350
54E
  3
LWETCUNION
350
550
  3
PLOTSETDICT
350
54F
  3
PSVPSCALE
350
556
  3
PUCSBASE
350
559
  3
PUCSORGBACK
350
55F
  3
PUCSORGBOTTOM
350
55B
  3
PUCSORGFRONT
350
55E
  3
PUCSORGLEFT
350
55C
  3
PUCSORGRIGHT
350
55D
  3
PUCSORGTOP
350
55A
  3
PUCSORTHOREF
350
557
  3
PUCSORTHOVIEW
350
558
  3
STYLESHEET
350
54D
  3
TSTACKALIGN
350
54A
  3
TSTACKSIZE
350
54B
  3
UCSBASE
350
562
  3
UCSORGBACK
350
568
  3
UCSORGBOTTOM
350
564
  3
UCSORGFRONT
350
567
  3
UCSORGLEFT
350
565
  3
UCSORGRIGHT
350
566
  3
UCSORGTOP
350
563
  3
UCSORTHOREF
350
560
  3
UCSORTHOVIEW
350
561
  3
VERSIONGUID
350
555
  0
DICTIONARY
  5
56A
102
{ACAD_REACTORS
330
C
102
}
330
C
100
AcDbDictionary
  3
CANNOSCALE
350
573
  3
CMLEADERSTYLE
350
56C
  3
CTABLESTYLE
350
56B
  3
DIMASSOC
350
56F
  3
HIDETEXT
350
570
  3
MSLTSCALE
350
574
  0
XRECORD
  5
572
102
{ACAD_REACTORS
330
571
102
}
330
571
100
AcDbXrecord
102
VTR_0.000_0.000_1.000_1.000_GRIDDISPLAY
 70
     3
102
VTR_0.000_0.000_1.000_1.000_GRIDMAJOR
 70
     5
102
VTR_0.000_0.000_1.000_1.000_DEFAULTLIGHTING
280
     1
102
VTR_0.000_0.000_1.000_1.000_DEFAULTLIGHTINGTYPE
 70
     1
102
VTR_0.000_0.000_1.000_1.000_BRIGHTNESS
141
0.0
102
VTR_0.000_0.000_1.000_1.000_CONTRAST
142
0.0
  0
MATERIAL
  5
45
102
{ACAD_REACTORS
330
43
102
}
102
{ACAD_XDICTIONARY
360
577
102
}
330
43
100
AcDbMaterial
  1
BYBLOCK
  0
MATERIAL
  5
44
102
{ACAD_REACTORS
330
43
102
}
102
{ACAD_XDICTIONARY
360
575
102
}
330
43
100
AcDbMaterial
  1
BYLAYER
  0
MATERIAL
  5
46
102
{ACAD_REACTORS
330
43
102
}
102
{ACAD_XDICTIONARY
360
579
102
}
330
43
100
AcDbMaterial
  1
GLOBAL
  0
ACAD_PROXY_OBJECT
  5
6C
102
{ACAD_REACTORS
330
6B
102
}
330
6B
100
AcDbProxyObject
 90
      499
 91
      505
 93
      610
310
40901902A4063FBFFFFFE056BD1B81E855B9FC0AD7A3703D0AD73F4214DD185B99185C9900AD7A3703D0AC73F90141901A02B5E8DC0F42B1CFC02B5E8DC0F42B1CFE5764000000000000300FC0
340
14
340
0
340
11
340
0
 94
        0
1001
ACAD_MLEADERVER
1070
     2
  0
MLINESTYLE
  5
18
102
{ACAD_REACTORS
330
17
102
}
330
17
100
AcDbMlineStyle
  2
Standard
 70
     0
  3

 62
   256
 51
90.0
 52
90.0
 71
     2
 49
0.5
 62
   256
  6
BYLAYER
 49
-0.5
 62
   256
  6
BYLAYER
  0
ACAD_PROXY_OBJECT
  5
48
102
{ACAD_REACTORS
330
47
102
}
330
47
100
AcDbProxyObject
 90
      499
 91
      503
 93
       41
310
903313A31580
  0
ACAD_PROXY_OBJECT
  5
49
102
{ACAD_REACTORS
330
47
102
}
330
47
100
AcDbProxyObject
 90
      499
 91
      503
 93
      105
310
903313A324000000000000004000
  0
ACAD_PROXY_OBJECT
  5
4A
102
{ACAD_REACTORS
330
47
102
}
330
47
100
AcDbProxyObject
 90
      499
 91
      503
 93
      105
310
903313A344000000000000104000
  0
ACAD_PROXY_OBJECT
  5
4B
102
{ACAD_REACTORS
330
47
102
}
330
47
100
AcDbProxyObject
 90
      499
 91
      503
 93
      105
310
903313A354000000000000144000
  0
ACAD_PROXY_OBJECT
  5
4C
102
{ACAD_REACTORS
330
47
102
}
330
47
100
AcDbProxyObject
 90
      499
 91
      503
 93
      105
310
903313A384000000000000204000
  0
ACAD_PROXY_OBJECT
  5
4D
102
{ACAD_REACTORS
330
47
102
}
330
47
100
AcDbProxyObject
 90
      499
 91
      503
 93
      113
310
904313A31304000000000000244000
  0
ACAD_PROXY_OBJECT
  5
4E
102
{ACAD_REACTORS
330
47
102
}
330
47
100
AcDbProxyObject
 90
      499
 91
      503
 93
      113
310
904313A31364000000000000304000
  0
ACAD_PROXY_OBJECT
  5
4F
102
{ACAD_REACTORS
330
47
102
}
330
47
100
AcDbProxyObject
 90
      499
 91
      503
 93
      113
310
904313A32304000000000000344000
  0
ACAD_PROXY_OBJECT
  5
50
102
{ACAD_REACTORS
330
47
102
}
330
47
100
AcDbProxyObject
 90
      499
 91
      503
 93
      113
310
904313A333040000000000003E4000
  0
ACAD_PROXY_OBJECT
  5
51
102
{ACAD_REACTORS
330
47
102
}
330
47
100
AcDbProxyObject
 90
      499
 91
      503
 93
      113
310
904313A34304000000000000444000
  0
ACAD_PROXY_OBJECT
  5
52
102
{ACAD_REACTORS
330
47
102
}
330
47
100
AcDbProxyObject
 90
      499
 91
      503
 93
      113
310
904313A35304000000000000494000
  0
ACAD_PROXY_OBJECT
  5
53
102
{ACAD_REACTORS
330
47
102
}
330
47
100
AcDbProxyObject
 90
      499
 91
      503
 93
      121
310
905313A3130304000000000000594000
  0
ACAD_PROXY_OBJECT
  5
54
102
{ACAD_REACTORS
330
47
102
}
330
47
100
AcDbProxyObject
 90
      499
 91
      503
 93
      105
310
903323A310000000000000010100
  0
ACAD_PROXY_OBJECT
  5
55
102
{ACAD_REACTORS
330
47
102
}
330
47
100
AcDbProxyObject
 90
      499
 91
      503
 93
      105
310
903343A310000000000000410100
  0
ACAD_PROXY_OBJECT
  5
56
102
{ACAD_REACTORS
330
47
102
}
330
47
100
AcDbProxyObject
 90
      499
 91
      503
 93
      105
310
903383A310000000000000810100
  0
ACAD_PROXY_OBJECT
  5
57
102
{ACAD_REACTORS
330
47
102
}
330
47
100
AcDbProxyObject
 90
      499
 91
      503
 93
      113
310
90431303A310000000000000910100
  0
ACAD_PROXY_OBJECT
  5
58
102
{ACAD_REACTORS
330
47
102
}
330
47
100
AcDbProxyObject
 90
      499
 91
      503
 93
      121
310
9053130303A310000000000001650100
  0
ACAD_PROXY_OBJECT
  5
59
102
{ACAD_REACTORS
330
47
102
}
330
47
100
AcDbProxyObject
 90
      499
 91
      503
 93
      257
310
90E312F31323822203D2031272D3022000000000000200FC000000000000284000
  0
ACAD_PROXY_OBJECT
  5
5A
102
{ACAD_REACTORS
330
47
102
}
330
47
100
AcDbProxyObject
 90
      499
 91
      503
 93
      249
310
90D312F363422203D2031272D3022000000000000240FC000000000000284000
  0
ACAD_PROXY_OBJECT
  5
5B
102
{ACAD_REACTORS
330
47
102
}
330
47
100
AcDbProxyObject
 90
      499
 91
      503
 93
      249
310
90D312F333222203D2031272D3022000000000000280FC000000000000284000
  0
ACAD_PROXY_OBJECT
  5
5C
102
{ACAD_REACTORS
330
47
102
}
330
47
100
AcDbProxyObject
 90
      499
 91
      503
 93
      249
310
90D312F313622203D2031272D30220000000000002C0FC000000000000284000
  0
ACAD_PROXY_OBJECT
  5
5D
102
{ACAD_REACTORS
330
47
102
}
330
47
100
AcDbProxyObject
 90
      499
 91
      503
 93
      249
310
90D332F333222203D2031272D30220000000000002E0FC000000000000284000
  0
ACAD_PROXY_OBJECT
  5
5E
102
{ACAD_REACTORS
330
47
102
}
330
47
100
AcDbProxyObject
 90
      499
 91
      503
 93
      241
310
90C312F3822203D2031272D3022000000000000300FC000000000000284000
  0
ACAD_PROXY_OBJECT
  5
5F
102
{ACAD_REACTORS
330
47
102
}
330
47
100
AcDbProxyObject
 90
      499
 91
      503
 93
      249
310
90D332F313622203D2031272D3022000000000000320FC000000000000284000
  0
ACAD_PROXY_OBJECT
  5
60
102
{ACAD_REACTORS
330
47
102
}
330
47
100
AcDbProxyObject
 90
      499
 91
      503
 93
      241
310
90C312F3422203D2031272D3022000000000000340FC000000000000284000
  0
ACAD_PROXY_OBJECT
  5
61
102
{ACAD_REACTORS
330
47
102
}
330
47
100
AcDbProxyObject
 90
      499
 91
      503
 93
      241
310
90C332F3822203D2031272D3022000000000000360FC000000000000284000
  0
ACAD_PROXY_OBJECT
  5
62
102
{ACAD_REACTORS
330
47
102
}
330
47
100
AcDbProxyObject
 90
      499
 91
      503
 93
      241
310
90C312F3222203D2031272D3022000000000000380FC000000000000284000
  0
ACAD_PROXY_OBJECT
  5
63
102
{ACAD_REACTORS
330
47
102
}
330
47
100
AcDbProxyObject
 90
      499
 91
      503
 93
      241
310
90C332F3422203D2031272D30220000000000003A0FC000000000000284000
  0
ACAD_PROXY_OBJECT
  5
64
102
{ACAD_REACTORS
330
47
102
}
330
47
100
AcDbProxyObject
 90
      499
 91
      503
 93
      161
310
90A3122203D2031272D30224000000000000284000
  0
ACAD_PROXY_OBJECT
  5
65
102
{ACAD_REACTORS
330
47
102
}
330
47
100
AcDbProxyObject
 90
      499
 91
      503
 93
      257
310
90E312D312F3222203D2031272D30220000000000003E0FC000000000000284000
  0
ACAD_PROXY_OBJECT
  5
66
102
{ACAD_REACTORS
330
47
102
}
330
47
100
AcDbProxyObject
 90
      499
 91
      503
 93
      225
310
90A3322203D2031272D302200000000000002100000000000000284000
  0
ACAD_PROXY_OBJECT
  5
67
102
{ACAD_REACTORS
330
47
102
}
330
47
100
AcDbProxyObject
 90
      499
 91
      503
 93
      225
310
90A3622203D2031272D302200000000000006100000000000000284000
  0
ACAD_PROXY_OBJECT
  5
68
102
{ACAD_REACTORS
330
47
102
}
330
47
100
AcDbProxyObject
 90
      499
 91
      503
 93
      249
310
90D31272D3022203D2031272D30220000000000000A100000000000000284000
  0
ACAD_PROXY_OBJECT
  5
2F
102
{ACAD_REACTORS
330
2A
102
}
330
2A
100
AcDbProxyObject
 90
      499
 91
      501
 93
      436
310
42CC9915DA5C99599C985B595049028333333333333E33F0000000000000F90107901411070040501600405405064090741402480A0340
1001
ACAD
1000
AcDbSavedByObjectVersion
1070
     0
  0
ACAD_PROXY_OBJECT
  5
32
102
{ACAD_REACTORS
330
2A
102
}
330
2A
100
AcDbProxyObject
 90
      499
 91
      501
 93
      388
310
4150985CDA58D07406404333333333333E33F0000000000000F90107A41107004050150841D405064090741402480A0350
1001
ACAD
1000
AcDbSavedByObjectVersion
1070
     0
  0
ACAD_PROXY_OBJECT
  5
36
102
{ACAD_REACTORS
330
2A
102
}
330
2A
100
AcDbProxyObject
 90
      499
 91
      501
 93
      428
310
42109C9A59DA1D195B90C409028333333333333E33F0000000000000F9010790141107004050150841D405064090741402480A029950
1001
ACAD
1000
AcDbSavedByObjectVersion
1070
     0
  0
ACAD_PROXY_OBJECT
  5
3A
102
{ACAD_REACTORS
330
2A
102
}
330
2A
100
AcDbProxyObject
 90
      499
 91
      501
 93
      452
310
42D0DBDB1BDC90DA185B99D95104090240C333333333333E33F0000000000000F90108901411070040501508421405064090741402480A0350
1001
ACAD
1000
AcDbSavedByObjectVersion
1070
     0
  0
ACAD_PROXY_OBJECT
  5
34
102
{ACAD_REACTORS
330
2A
102
}
330
2A
100
AcDbProxyObject
 90
      499
 91
      501
 93
      500
310
4290DBDB98D95C1D1D585B10940D028333333333333E33F0000000000000F90107902409070040501000000000018199010841D405064090740C02480A0340
1001
ACAD
1000
AcDbSavedByObjectVersion
1070
     0
  0
ACAD_PROXY_OBJECT
  5
35
102
{ACAD_REACTORS
330
2A
102
}
330
2A
100
AcDbProxyObject
 90
      499
 91
      501
 93
      412
310
40D11A5B50B409028333333333333E33F0000000000000F9010790141107004050150841D405064090741402480A02677FFFFFD0
1001
ACAD
1000
AcDbSavedByObjectVersion
1070
     0
  0
ACAD_PROXY_OBJECT
  5
3D
102
{ACAD_REACTORS
330
2A
102
}
330
2A
100
AcDbProxyObject
 90
      499
 91
      501
 93
      452
310
43115919D950DBDB1BDC93D999916409028333333333333E33F0000000000000F9010790141107004050150841D405064090741402480A0350
1001
ACAD
1000
AcDbSavedByObjectVersion
1070
     0
  0
ACAD_PROXY_OBJECT
  5
39
102
{ACAD_REACTORS
330
2A
102
}
330
2A
100
AcDbProxyObject
 90
      499
 91
      501
 93
      444
310
42D19858D95C185D1D195C9B90F409028333333333333E33F0000000000000F9010790141107004050150841D405064090741402480A0350
1001
ACAD
1000
AcDbSavedByObjectVersion
1070
     0
  0
ACAD_PROXY_OBJECT
  5
2B
102
{ACAD_REACTORS
330
2A
102
}
330
2A
100
AcDbProxyObject
 90
      499
 91
      501
 93
      380
310
41119B185D240901404333333333333E33F0000000000000F9010740A907004050150841D405064090741402480A1B50
1001
ACAD
1000
AcDbSavedByObjectVersion
1070
     0
  0
ACAD_PROXY_OBJECT
  5
2C
102
{ACAD_REACTORS
330
2A
102
}
330
2A
100
AcDbProxyObject
 90
      499
 91
      501
 93
      468
310
43519B185D15DA5D1A115919D95CD0140901404333333333333E33F0000000000000F90107409019070040501600405405064090741402480A1B50
1001
ACAD
1000
AcDbSavedByObjectVersion
1070
     0
  0
ACAD_PROXY_OBJECT
  5
2D
102
{ACAD_REACTORS
330
2A
102
}
330
2A
100
AcDbProxyObject
 90
      499
 91
      501
 93
      404
310
41D1DBDD5C985D5910240902404333333333333E33F0000000000000F9010740A9070040501641D405064090741402480A1B50
1001
ACAD
1000
AcDbSavedByObjectVersion
1070
     0
  0
ACAD_PROXY_OBJECT
  5
2E
102
{ACAD_REACTORS
330
2A
102
}
330
2A
100
AcDbProxyObject
 90
      499
 91
      501
 93
      492
310
4411DBDD5C985D5915DA5D1A115919D95CD0340902404333333333333E33F0000000000000F90107409019070040501600405405064090741402480A1B50
1001
ACAD
1000
AcDbSavedByObjectVersion
1070
     0
  0
ACAD_PROXY_OBJECT
  5
31
102
{ACAD_REACTORS
330
2A
102
}
330
2A
100
AcDbProxyObject
 90
      499
 91
      501
 93
      476
310
41921A5919195B90640502408333333333333E33F0000000000000F901079024090700405020000000000001110200405405064090740C02480A0340
1001
ACAD
1000
AcDbSavedByObjectVersion
1070
     0
  0
ACAD_PROXY_OBJECT
  5
3B
102
{ACAD_REACTORS
330
2A
102
}
330
2A
100
AcDbProxyObject
 90
      499
 91
      501
 93
      428
310
42529A5D1D195C93D999914409028333333333333E33F0000000000000F9010790141107004050150A41D405064090741402480A0350
1001
ACAD
1000
AcDbSavedByObjectVersion
1070
     0
  0
ACAD_PROXY_OBJECT
  5
38
102
{ACAD_REACTORS
330
2A
102
}
330
2A
100
AcDbProxyObject
 90
      499
 91
      501
 93
      444
310
42D31A5B995C185D1D195C9B90E409028333333333333E33F0000000000000F9010790141107004050750841D405064090741402483A0350
1001
ACAD
1000
AcDbSavedByObjectVersion
1070
     0
  0
ACAD_PROXY_OBJECT
  5
3C
102
{ACAD_REACTORS
330
2A
102
}
330
2A
100
AcDbProxyObject
 90
      499
 91
      501
 93
      444
310
42D3DD995C9A185B99D3D999915409028333333333333E33F0000000000000F9010790141107004050150941D405064090741402480A0350
1001
ACAD
1000
AcDbSavedByObjectVersion
1070
     0
  0
ACAD_PROXY_OBJECT
  5
33
102
{ACAD_REACTORS
330
2A
102
}
330
2A
100
AcDbProxyObject
 90
      499
 91
      501
 93
      428
310
425499585B1A5CDD1A58D08409038333333333333E33F0000000000000F9010740A907004050150800405405064090740C02480A1B40
1001
ACAD
1000
AcDbSavedByObjectVersion
1070
     0
  0
ACAD_PROXY_OBJECT
  5
42
102
{ACAD_REACTORS
330
2A
102
}
330
2A
100
AcDbProxyObject
 90
      499
 91
      501
 93
      420
310
4194DA1859195911B40902404333333333333E33F0000000000000F9010740A41107004050150800405405064090840C02480A0B40
1001
ACAD
1000
AcDbSavedByObjectVersion
1070
     0
  0
ACAD_PROXY_OBJECT
  5
41
102
{ACAD_REACTORS
330
2A
102
}
330
2A
100
AcDbProxyObject
 90
      499
 91
      501
 93
      516
310
4454DA18591959081DDA5D1A08195919D95CD1A40902404333333333333E33F0000000000000F901074090142907004050250800405405064090740C02480A0B40
1001
ACAD
1000
AcDbSavedByObjectVersion
1070
     0
  0
ACAD_PROXY_OBJECT
  5
3E
102
{ACAD_REACTORS
330
2A
102
}
330
2A
100
AcDbProxyObject
 90
      499
 91
      501
 93
      532
310
4394DA1859195CC81BD98811DC985E5174090240C333333333333E33F0000000000000F901079024090741D01000000000000111010841D405064090740C02480A0340
1001
ACAD
1000
AcDbSavedByObjectVersion
1070
     0
  0
ACAD_PROXY_OBJECT
  5
3F
102
{ACAD_REACTORS
330
2A
102
}
330
2A
100
AcDbProxyObject
 90
      499
 91
      501
 93
      476
310
41D4DAD95D18DA1E51840502408333333333333E33F0000000000000F901079024090741D01000000000000111010B41D405064090741802480A0340
1001
ACAD
1000
AcDbSavedByObjectVersion
1070
     0
  0
ACAD_PROXY_OBJECT
  5
37
102
{ACAD_REACTORS
330
2A
102
}
330
2A
100
AcDbProxyObject
 90
      499
 91
      501
 93
      412
310
41D51A1A58DAD95B90D409028333333333333E33F0000000000000F9010790141107004050150C41D405064090741402480A0350
1001
ACAD
1000
AcDbSavedByObjectVersion
1070
     0
  0
ACAD_PROXY_OBJECT
  5
30
102
{ACAD_REACTORS
330
2A
102
}
330
2A
100
AcDbProxyObject
 90
      499
 91
      501
 93
      420
310
4255DA5C99599C985B595059028333333333333E33F0000000000000F90107901411070040501600405405064090740C02480A0340
1001
ACAD
1000
AcDbSavedByObjectVersion
1070
     0
  0
ACAD_PROXY_OBJECT
  5
40
102
{ACAD_REACTORS
330
2A
102
}
330
2A
100
AcDbProxyObject
 90
      499
 91
      501
 93
      404
310
41560B54985E51940902404000000000000E03F0000000000000F9010740501907004050150841D405064090740C02480A1B40
1001
ACAD
1000
AcDbSavedByObjectVersion
1070
     0
  0
XRECORD
  5
553
102
{ACAD_REACTORS
330
549
102
}
330
549
100
AcDbXrecord
340
0
  0
XRECORD
  5
552
102
{ACAD_REACTORS
330
549
102
}
330
549
100
AcDbXrecord
 90
        0
  0
XRECORD
  5
569
102
{ACAD_REACTORS
330
549
102
}
330
549
100
AcDbXrecord
1000
DSTYLE
1002
{
1070
   171
 70
     2
1070
   143
 40
25.4
1070
   274
 70
     2
1070
    41
 40
0.18
1070
   141
 40
0.09
1070
   271
 70
     4
1070
    43
 40
0.38
1070
   278
 70
    46
1070
    44
 40
0.18
1070
    42
 40
0.0625
1070
   147
 40
0.09
1070
    77
 70
     0
1070
   272
 70
     4
1070
    73
 70
     1
1070
   172
 70
     0
1070
    74
 70
     1
1070
   283
 70
     1
1070
   340
340
11
1070
   140
 40
0.18
1070
   284
 70
     0
1070
    78
 70
     0
1002
}
  0
XRECORD
  5
554
102
{ACAD_REACTORS
330
549
102
}
330
549
100
AcDbXrecord
  1
{1E9C2525-148A-4FBB-9316-8331971CB9F1}
  0
XRECORD
  5
54C
102
{ACAD_REACTORS
330
549
102
}
330
549
100
AcDbXrecord
  1

  0
XRECORD
  5
551
102
{ACAD_REACTORS
330
549
102
}
330
549
100
AcDbXrecord
 90
        4
  0
XRECORD
  5
54E
102
{ACAD_REACTORS
330
549
102
}
330
549
100
AcDbXrecord
340
1A
  0
XRECORD
  5
550
102
{ACAD_REACTORS
330
549
102
}
330
549
100
AcDbXrecord
 90
    10781
  0
XRECORD
  5
54F
102
{ACAD_REACTORS
330
549
102
}
330
549
100
AcDbXrecord
340
19
  0
XRECORD
  5
556
102
{ACAD_REACTORS
330
549
102
}
330
549
100
AcDbXrecord
 40
0.0
  0
XRECORD
  5
559
102
{ACAD_REACTORS
330
549
102
}
330
549
100
AcDbXrecord
340
0
  0
XRECORD
  5
55F
102
{ACAD_REACTORS
330
549
102
}
330
549
100
AcDbXrecord
 10
0.0
 20
0.0
 30
0.0
  0
XRECORD
  5
55B
102
{ACAD_REACTORS
330
549
102
}
330
549
100
AcDbXrecord
 10
0.0
 20
0.0
 30
0.0
  0
XRECORD
  5
55E
102
{ACAD_REACTORS
330
549
102
}
330
549
100
AcDbXrecord
 10
0.0
 20
0.0
 30
0.0
  0
XRECORD
  5
55C
102
{ACAD_REACTORS
330
549
102
}
330
549
100
AcDbXrecord
 10
0.0
 20
0.0
 30
0.0
  0
XRECORD
  5
55D
102
{ACAD_REACTORS
330
549
102
}
330
549
100
AcDbXrecord
 10
0.0
 20
0.0
 30
0.0
  0
XRECORD
  5
55A
102
{ACAD_REACTORS
330
549
102
}
330
549
100
AcDbXrecord
 10
0.0
 20
0.0
 30
0.0
  0
XRECORD
  5
557
102
{ACAD_REACTORS
330
549
102
}
330
549
100
AcDbXrecord
340
0
  0
XRECORD
  5
558
102
{ACAD_REACTORS
330
549
102
}
330
549
100
AcDbXrecord
 70
     0
  0
XRECORD
  5
54D
102
{ACAD_REACTORS
330
549
102
}
330
549
100
AcDbXrecord
  1

  0
XRECORD
  5
54A
102
{ACAD_REACTORS
330
549
102
}
330
549
100
AcDbXrecord
 90
        1
  0
XRECORD
  5
54B
102
{ACAD_REACTORS
330
549
102
}
330
549
100
AcDbXrecord
 90
       70
  0
XRECORD
  5
562
102
{ACAD_REACTORS
330
549
102
}
330
549
100
AcDbXrecord
340
0
  0
XRECORD
  5
568
102
{ACAD_REACTORS
330
549
102
}
330
549
100
AcDbXrecord
 10
0.0
 20
0.0
 30
0.0
  0
XRECORD
  5
564
102
{ACAD_REACTORS
330
549
102
}
330
549
100
AcDbXrecord
 10
0.0
 20
0.0
 30
0.0
  0
XRECORD
  5
567
102
{ACAD_REACTORS
330
549
102
}
330
549
100
AcDbXrecord
 10
0.0
 20
0.0
 30
0.0
  0
XRECORD
  5
565
102
{ACAD_REACTORS
330
549
102
}
330
549
100
AcDbXrecord
 10
0.0
 20
0.0
 30
0.0
  0
XRECORD
  5
566
102
{ACAD_REACTORS
330
549
102
}
330
549
100
AcDbXrecord
 10
0.0
 20
0.0
 30
0.0
  0
XRECORD
  5
563
102
{ACAD_REACTORS
330
549
102
}
330
549
100
AcDbXrecord
 10
0.0
 20
0.0
 30
0.0
  0
XRECORD
  5
560
102
{ACAD_REACTORS
330
549
102
}
330
549
100
AcDbXrecord
340
0
  0
XRECORD
  5
561
102
{ACAD_REACTORS
330
549
102
}
330
549
100
AcDbXrecord
 70
     0
  0
XRECORD
  5
555
102
{ACAD_REACTORS
330
549
102
}
330
549
100
AcDbXrecord
  1
{FAEB1C32-E019-11D5-929B-00C0DF256EC4}
  0
DICTIONARYVAR
  5
573
102
{ACAD_REACTORS
330
56A
102
}
330
56A
100
DictionaryVariables
280
     0
  1
1:1
  0
DICTIONARYVAR
  5
56C
102
{ACAD_REACTORS
330
56A
102
}
330
56A
100
DictionaryVariables
280
     0
  1
Standard
  0
DICTIONARYVAR
  5
56B
102
{ACAD_REACTORS
330
56A
102
}
330
56A
100
DictionaryVariables
280
     0
  1
Standard
  0
DICTIONARYVAR
  5
56F
102
{ACAD_REACTORS
330
56A
102
}
330
56A
100
DictionaryVariables
280
     0
  1
2
  0
DICTIONARYVAR
  5
570
102
{ACAD_REACTORS
330
56A
102
}
330
56A
100
DictionaryVariables
280
     0
  1
1
  0
DICTIONARYVAR
  5
574
102
{ACAD_REACTORS
330
56A
102
}
330
56A
100
DictionaryVariables
280
     0
  1
1
  0
DICTIONARY
  5
577
330
45
100
AcDbDictionary
280
     1
  3
ACAD_XREC_ROUNDTRIP
360
578
  0
DICTIONARY
  5
575
330
44
100
AcDbDictionary
280
     1
  3
ACAD_XREC_ROUNDTRIP
360
576
  0
DICTIONARY
  5
579
330
46
100
AcDbDictionary
280
     1
  3
ACAD_XREC_ROUNDTRIP
360
57A
  0
XRECORD
  5
578
102
{ACAD_REACTORS
330
577
102
}
330
577
100
AcDbXrecord
102
MATERIAL
148
0.0
149
0.0
149
0.0
 93
        0
 94
      127
282
     0
 72
     1
 77
     1
171
     1
175
     1
179
     1
273
     0
  0
XRECORD
  5
576
102
{ACAD_REACTORS
330
575
102
}
330
575
100
AcDbXrecord
102
MATERIAL
148
0.0
149
0.0
149
0.0
 93
        0
 94
      127
282
     0
 72
     1
 77
     1
171
     1
175
     1
179
     1
273
     0
  0
XRECORD
  5
57A
102
{ACAD_REACTORS
330
579
102
}
330
579
100
AcDbXrecord
102
MATERIAL
148
0.0
149
0.0
149
0.0
 93
        0
 94
      127
282
     0
 72
     1
 77
     1
171
     1
175
     1
179
     1
273
     0
  0
ENDSEC
  0
EOF
