  0
SECTION
  2
HEADER
  9
$ACADVER
  1
AC1015
  9
$ACADMAINTVER
 70
     6
  9
$DWGCODEPAGE
  3
ANSI_1252
  9
$INSBASE
 10
0.0
 20
0.0
 30
0.0
  9
$EXTMIN
 10
128.414196624119
 20
-534.833181955862
 30
0.0
  9
$EXTMAX
 10
530.295026782303
 20
-285.378227474974
 30
0.0
  9
$LIMMIN
 10
0.0
 20
0.0
  9
$LIMMAX
 10
12.0
 20
9.0
  9
$ORTHOMODE
 70
     0
  9
$REGENMODE
 70
     1
  9
$FILLMODE
 70
     1
  9
$QTEXTMODE
 70
     0
  9
$MIRRTEXT
 70
     1
  9
$LTSCALE
 40
1.0
  9
$ATTMODE
 70
     1
  9
$TEXTSIZE
 40
0.2
  9
$TRACEWID
 40
0.05
  9
$TEXTSTYLE
  7
Standard
  9
$CLAYER
  8
0
  9
$CELTYPE
  6
ByLayer
  9
$CECOLOR
 62
   256
  9
$CELTSCALE
 40
1.0
  9
$DISPSILH
 70
     0
  9
$DIMSCALE
 40
1.0
  9
$DIMASZ
 40
0.18
  9
$DIMEXO
 40
0.0625
  9
$DIMDLI
 40
0.38
  9
$DIMRND
 40
0.0
  9
$DIMDLE
 40
0.0
  9
$DIMEXE
 40
0.18
  9
$DIMTP
 40
0.0
  9
$DIMTM
 40
0.0
  9
$DIMTXT
 40
0.18
  9
$DIMCEN
 40
0.09
  9
$DIMTSZ
 40
0.0
  9
$DIMTOL
 70
     0
  9
$DIMLIM
 70
     0
  9
$DIMTIH
 70
     1
  9
$DIMTOH
 70
     1
  9
$DIMSE1
 70
     0
  9
$DIMSE2
 70
     0
  9
$DIMTAD
 70
     0
  9
$DIMZIN
 70
     0
  9
$DIMBLK
  1

  9
$DIMASO
 70
     1
  9
$DIMSHO
 70
     1
  9
$DIMPOST
  1

  9
$DIMAPOST
  1

  9
$DIMALT
 70
     0
  9
$DIMALTD
 70
     2
  9
$DIMALTF
 40
25.4
  9
$DIMLFAC
 40
1.0
  9
$DIMTOFL
 70
     0
  9
$DIMTVP
 40
0.0
  9
$DIMTIX
 70
     0
  9
$DIMSOXD
 70
     0
  9
$DIMSAH
 70
     0
  9
$DIMBLK1
  1

  9
$DIMBLK2
  1

  9
$DIMSTYLE
  2
Standard
  9
$DIMCLRD
 70
     0
  9
$DIMCLRE
 70
     0
  9
$DIMCLRT
 70
     0
  9
$DIMTFAC
 40
1.0
  9
$DIMGAP
 40
0.09
  9
$DIMJUST
 70
     0
  9
$DIMSD1
 70
     0
  9
$DIMSD2
 70
     0
  9
$DIMTOLJ
 70
     1
  9
$DIMTZIN
 70
     0
  9
$DIMALTZ
 70
     0
  9
$DIMALTTZ
 70
     0
  9
$DIMUPT
 70
     0
  9
$DIMDEC
 70
     4
  9
$DIMTDEC
 70
     4
  9
$DIMALTU
 70
     2
  9
$DIMALTTD
 70
     2
  9
$DIMTXSTY
  7
Standard
  9
$DIMAUNIT
 70
     0
  9
$DIMADEC
 70
     0
  9
$DIMALTRND
 40
0.0
  9
$DIMAZIN
 70
     0
  9
$DIMDSEP
 70
    46
  9
$DIMATFIT
 70
     3
  9
$DIMFRAC
 70
     0
  9
$DIMLDRBLK
  1

  9
$DIMLUNIT
 70
     2
  9
$DIMLWD
 70
    -2
  9
$DIMLWE
 70
    -2
  9
$DIMTMOVE
 70
     0
  9
$LUNITS
 70
     2
  9
$LUPREC
 70
     4
  9
$SKETCHINC
 40
0.1
  9
$FILLETRAD
 40
0.5
  9
$AUNITS
 70
     0
  9
$AUPREC
 70
     0
  9
$MENU
  1
.
  9
$ELEVATION
 40
0.0
  9
$PELEVATION
 40
0.0
  9
$THICKNESS
 40
0.0
  9
$LIMCHECK
 70
     0
  9
$CHAMFERA
 40
0.5
  9
$CHAMFERB
 40
0.5
  9
$CHAMFERC
 40
1.0
  9
$CHAMFERD
 40
0.0
  9
$SKPOLY
 70
     0
  9
$TDCREATE
 40
2457382.473150463
  9
$TDUCREATE
 40
2457382.098150463
  9
$TDUPDATE
 40
2457382.473151158
  9
$TDUUPDATE
 40
2457382.098151158
  9
$TDINDWG
 40
0.0000000116
  9
$TDUSRTIMER
 40
0.0000000116
  9
$USRTIMER
 70
     1
  9
$ANGBASE
 50
0.0
  9
$ANGDIR
 70
     0
  9
$PDMODE
 70
     0
  9
$PDSIZE
 40
0.0
  9
$PLINEWID
 40
0.0
  9
$SPLFRAME
 70
     0
  9
$SPLINETYPE
 70
     6
  9
$SPLINESEGS
 70
     8
  9
$HANDSEED
  5
2E7
  9
$SURFTAB1
 70
     6
  9
$SURFTAB2
 70
     6
  9
$SURFTYPE
 70
     6
  9
$SURFU
 70
     6
  9
$SURFV
 70
     6
  9
$UCSBASE
  2

  9
$UCSNAME
  2

  9
$UCSORG
 10
0.0
 20
0.0
 30
0.0
  9
$UCSXDIR
 10
1.0
 20
0.0
 30
0.0
  9
$UCSYDIR
 10
0.0
 20
1.0
 30
0.0
  9
$UCSORTHOREF
  2

  9
$UCSORTHOVIEW
 70
     0
  9
$UCSORGTOP
 10
0.0
 20
0.0
 30
0.0
  9
$UCSORGBOTTOM
 10
0.0
 20
0.0
 30
0.0
  9
$UCSORGLEFT
 10
0.0
 20
0.0
 30
0.0
  9
$UCSORGRIGHT
 10
0.0
 20
0.0
 30
0.0
  9
$UCSORGFRONT
 10
0.0
 20
0.0
 30
0.0
  9
$UCSORGBACK
 10
0.0
 20
0.0
 30
0.0
  9
$PUCSBASE
  2

  9
$PUCSNAME
  2

  9
$PUCSORG
 10
0.0
 20
0.0
 30
0.0
  9
$PUCSXDIR
 10
1.0
 20
0.0
 30
0.0
  9
$PUCSYDIR
 10
0.0
 20
1.0
 30
0.0
  9
$PUCSORTHOREF
  2

  9
$PUCSORTHOVIEW
 70
     0
  9
$PUCSORGTOP
 10
0.0
 20
0.0
 30
0.0
  9
$PUCSORGBOTTOM
 10
0.0
 20
0.0
 30
0.0
  9
$PUCSORGLEFT
 10
0.0
 20
0.0
 30
0.0
  9
$PUCSORGRIGHT
 10
0.0
 20
0.0
 30
0.0
  9
$PUCSORGFRONT
 10
0.0
 20
0.0
 30
0.0
  9
$PUCSORGBACK
 10
0.0
 20
0.0
 30
0.0
  9
$USERI1
 70
     0
  9
$USERI2
 70
     0
  9
$USERI3
 70
     0
  9
$USERI4
 70
     0
  9
$USERI5
 70
     0
  9
$USERR1
 40
18.1
  9
$USERR2
 40
0.0
  9
$USERR3
 40
0.0
  9
$USERR4
 40
0.0
  9
$USERR5
 40
0.0
  9
$WORLDVIEW
 70
     1
  9
$SHADEDGE
 70
     3
  9
$SHADEDIF
 70
    70
  9
$TILEMODE
 70
     1
  9
$MAXACTVP
 70
    64
  9
$PINSBASE
 10
0.0
 20
0.0
 30
0.0
  9
$PLIMCHECK
 70
     0
  9
$PEXTMIN
 10
1.00000000000000E+20
 20
1.00000000000000E+20
 30
1.00000000000000E+20
  9
$PEXTMAX
 10
-1.00000000000000E+20
 20
-1.00000000000000E+20
 30
-1.00000000000000E+20
  9
$PLIMMIN
 10
0.0
 20
0.0
  9
$PLIMMAX
 10
12.0
 20
9.0
  9
$UNITMODE
 70
     0
  9
$VISRETAIN
 70
     1
  9
$PLINEGEN
 70
     0
  9
$PSLTSCALE
 70
     1
  9
$TREEDEPTH
 70
  3020
  9
$CMLSTYLE
  2
Standard
  9
$CMLJUST
 70
     0
  9
$CMLSCALE
 40
1.0
  9
$PROXYGRAPHICS
 70
     1
  9
$MEASUREMENT
 70
     1
  9
$CELWEIGHT
370
    -1
  9
$ENDCAPS
280
     0
  9
$JOINSTYLE
280
     0
  9
$LWDISPLAY
290
     0
  9
$INSUNITS
 70
     4
  9
$HYPERLINKBASE
  1

  9
$STYLESHEET
  1

  9
$XEDIT
290
     1
  9
$CEPSNTYPE
380
     0
  9
$PSTYLEMODE
290
     1
  9
$FINGERPRINTGUID
  2
{3DFB92C3-ACB2-437C-9B85-28602703BB00}
  9
$VERSIONGUID
  2
{FAEB1C32-E019-11D5-929B-00C0DF256EC4}
  9
$EXTNAMES
290
     1
  9
$PSVPSCALE
 40
0.0
  9
$OLESTARTUP
290
     0
  0
ENDSEC
  0
SECTION
  2
CLASSES
  0
CLASS
  1
ACDBDICTIONARYWDFLT
  2
AcDbDictionaryWithDefault
  3
ObjectDBX Classes
 90
        0
280
     0
281
     0
  0
CLASS
  1
VISUALSTYLE
  2
AcDbVisualStyle
  3
ObjectDBX Classes
 90
     4095
280
     0
281
     0
  0
CLASS
  1
MATERIAL
  2
AcDbMaterial
  3
ObjectDBX Classes
 90
     1153
280
     0
281
     0
  0
CLASS
  1
DICTIONARYVAR
  2
AcDbDictionaryVar
  3
ObjectDBX Classes
 90
        0
280
     0
281
     0
  0
CLASS
  1
ACDBPLACEHOLDER
  2
AcDbPlaceHolder
  3
ObjectDBX Classes
 90
        0
280
     0
281
     0
  0
CLASS
  1
LAYOUT
  2
AcDbLayout
  3
ObjectDBX Classes
 90
        0
280
     0
281
     0
  0
ENDSEC
  0
SECTION
  2
TABLES
  0
TABLE
  2
VPORT
  5
8
330
0
100
AcDbSymbolTable
 70
     1
  0
VPORT
  5
29
330
8
100
AcDbSymbolTableRecord
100
AcDbViewportTableRecord
  2
*Active
 70
     0
 10
0.0
 20
0.0
 11
1.0
 21
1.0
 12
329.354611703211
 22
-410.105704715418
 13
0.0
 23
0.0
 14
0.5
 24
0.5
 15
0.5
 25
0.5
 16
0.0
 26
0.0
 36
1.0
 17
0.0
 27
0.0
 37
0.0
 40
275.831299584893
 41
1.60267857142857
 42
50.0
 43
0.0
 44
0.0
 50
0.0
 51
0.0
 71
     0
 72
   100
 73
     1
 74
     3
 75
     0
 76
     0
 77
     0
 78
     0
281
     0
 65
     1
110
0.0
120
0.0
130
0.0
111
1.0
121
0.0
131
0.0
112
0.0
122
1.0
132
0.0
 79
     0
146
0.0
  0
ENDTAB
  0
TABLE
  2
LTYPE
  5
5
330
0
100
AcDbSymbolTable
 70
     8
  0
LTYPE
  5
14
330
5
100
AcDbSymbolTableRecord
100
AcDbLinetypeTableRecord
  2
ByBlock
 70
     0
  3

 72
    65
 73
     0
 40
0.0
  0
LTYPE
  5
15
330
5
100
AcDbSymbolTableRecord
100
AcDbLinetypeTableRecord
  2
ByLayer
 70
     0
  3

 72
    65
 73
     0
 40
0.0
  0
LTYPE
  5
16
330
5
100
AcDbSymbolTableRecord
100
AcDbLinetypeTableRecord
  2
Continuous
 70
     0
  3
Solid line
 72
    65
 73
     0
 40
0.0
  0
LTYPE
  5
3F
330
5
100
AcDbSymbolTableRecord
100
AcDbLinetypeTableRecord
  2
DASHED
 70
     0
  3
Dashed
 72
    65
 73
     2
 40
15.0
 49
7.0
 74
     0
 49
-8.0
 74
     0
  0
LTYPE
  5
40
330
5
100
AcDbSymbolTableRecord
100
AcDbLinetypeTableRecord
  2
DOTTED
 70
     0
  3
Dotted
 72
    65
 73
     2
 40
1.0
 49
0.0
 74
     0
 49
-1.0
 74
     0
  0
LTYPE
  5
41
330
5
100
AcDbSymbolTableRecord
100
AcDbLinetypeTableRecord
  2
DOT_CENTER
 70
     0
  3
Dot_Center
 72
    65
 73
     4
 40
14.0
 49
12.0
 74
     0
 49
-1.0
 74
     0
 49
0.0
 74
     0
 49
-1.0
 74
     0
  0
LTYPE
  5
42
330
5
100
AcDbSymbolTableRecord
100
AcDbLinetypeTableRecord
  2
LONG_DASHED
 70
     0
  3
Long_Dashed
 72
    65
 73
     2
 40
15.0
 49
10.0
 74
     0
 49
-5.0
 74
     0
  0
LTYPE
  5
43
330
5
100
AcDbSymbolTableRecord
100
AcDbLinetypeTableRecord
  2
DASH_CENTER
 70
     0
  3
Dash_Center
 72
    65
 73
     4
 40
14.0
 49
11.0
 74
     0
 49
-1.0
 74
     0
 49
1.0
 74
     0
 49
-1.0
 74
     0
  0
LTYPE
  5
44
330
5
100
AcDbSymbolTableRecord
100
AcDbLinetypeTableRecord
  2
PHANTOM
 70
     0
  3
Phantom
 72
    65
 73
     6
 40
13.0
 49
10.0
 74
     0
 49
-1.0
 74
     0
 49
0.0
 74
     0
 49
-1.0
 74
     0
 49
0.0
 74
     0
 49
-1.0
 74
     0
  0
LTYPE
  5
45
330
5
100
AcDbSymbolTableRecord
100
AcDbLinetypeTableRecord
  2
CENTER_DASH_DASH
 70
     0
  3
Center_Dash_Dash
 72
    65
 73
     6
 40
14.0
 49
9.0
 74
     0
 49
-1.0
 74
     0
 49
1.0
 74
     0
 49
-1.0
 74
     0
 49
1.0
 74
     0
 49
-1.0
 74
     0
  0
ENDTAB
  0
TABLE
  2
LAYER
  5
2
330
0
100
AcDbSymbolTable
 70
     2
  0
LAYER
  5
10
330
2
100
AcDbSymbolTableRecord
100
AcDbLayerTableRecord
  2
0
 70
     0
 62
     7
  6
Continuous
370
    -3
390
F
  0
LAYER
  5
46
330
2
100
AcDbSymbolTableRecord
100
AcDbLayerTableRecord
  2
1
 70
     0
 62
     7
  6
Continuous
370
    -3
390
F
  0
ENDTAB
  0
TABLE
  2
STYLE
  5
3
330
0
100
AcDbSymbolTable
 70
     3
  0
STYLE
  5
11
330
3
100
AcDbSymbolTableRecord
100
AcDbTextStyleTableRecord
  2
Standard
 70
     0
 40
0.0
 41
1.0
 50
0.0
 71
     0
 42
0.2
  3
txt
  4

  0
STYLE
  5
50
330
3
100
AcDbSymbolTableRecord
100
AcDbTextStyleTableRecord
  2
CONVERTER_11
 70
     0
 40
0.0
 41
0.9
 50
0.0
 71
     0
 42
0.2
  3
txt.shx
  4

  0
STYLE
  5
211
330
3
100
AcDbSymbolTableRecord
100
AcDbTextStyleTableRecord
  2
CONVERTER_12
 70
     0
 40
0.0
 41
0.81
 50
0.0
 71
     0
 42
0.2
  3
txt.shx
  4

  0
ENDTAB
  0
TABLE
  2
VIEW
  5
6
330
0
100
AcDbSymbolTable
 70
     0
  0
ENDTAB
  0
TABLE
  2
UCS
  5
7
330
0
100
AcDbSymbolTable
 70
     0
  0
ENDTAB
  0
TABLE
  2
APPID
  5
9
330
0
100
AcDbSymbolTable
 70
     1
  0
APPID
  5
12
330
9
100
AcDbSymbolTableRecord
100
AcDbRegAppTableRecord
  2
ACAD
 70
     0
  0
ENDTAB
  0
TABLE
  2
DIMSTYLE
  5
A
330
0
100
AcDbSymbolTable
 70
    13
100
AcDbDimStyleTable
  0
DIMSTYLE
105
27
330
A
100
AcDbSymbolTableRecord
100
AcDbDimStyleTableRecord
  2
Standard
 70
     0
178
     0
340
11
  0
DIMSTYLE
105
22B
102
{ACAD_REACTORS
330
22C
102
}
330
A
100
AcDbSymbolTableRecord
100
AcDbDimStyleTableRecord
  2
ME10_DIM_10
 70
     0
 41
2.5
 42
0.5
 44
1.5
 73
     0
 74
     0
 77
     1
 78
    12
140
2.5
147
1.0
172
     1
173
     1
174
     1
175
     1
176
     2
177
     2
271
     2
178
     2
271
     2
340
50
343
225
344
225
  0
DIMSTYLE
105
238
102
{ACAD_REACTORS
330
239
102
}
330
A
100
AcDbSymbolTableRecord
100
AcDbDimStyleTableRecord
  2
ME10_DIM_11
 70
     0
 41
2.5
 42
0.5
 44
1.5
 73
     0
 74
     0
 77
     1
 78
    12
140
2.5
147
1.0
172
     1
173
     1
174
     1
175
     1
176
     2
177
     2
271
     2
178
     2
271
     2
340
50
343
225
344
225
  0
DIMSTYLE
105
245
102
{ACAD_REACTORS
330
246
102
}
330
A
100
AcDbSymbolTableRecord
100
AcDbDimStyleTableRecord
  2
ME10_DIM_12
 70
     0
 41
2.5
 42
0.5
 44
1.5
 73
     0
 74
     0
 77
     1
 78
    12
140
2.5
147
1.0
172
     1
173
     1
174
     1
175
     1
176
     2
177
     2
271
     2
178
     2
271
     2
340
50
343
225
344
225
  0
DIMSTYLE
105
252
102
{ACAD_REACTORS
330
253
102
}
330
A
100
AcDbSymbolTableRecord
100
AcDbDimStyleTableRecord
  2
ME10_DIM_13
 70
     0
 41
2.5
 42
0.5
 44
1.5
 73
     0
 74
     0
 77
     1
 78
    12
140
2.5
147
1.0
172
     1
173
     1
174
     1
175
     1
176
     2
177
     2
271
     2
178
     2
271
     2
340
50
343
225
344
225
  0
DIMSTYLE
105
25F
102
{ACAD_REACTORS
330
260
102
}
330
A
100
AcDbSymbolTableRecord
100
AcDbDimStyleTableRecord
  2
ME10_DIM_14
 70
     0
 41
2.5
 42
0.5
 44
1.5
 73
     0
 74
     0
 77
     1
 78
    12
140
2.5
147
1.0
172
     1
173
     1
174
     1
175
     1
176
     2
177
     2
271
     2
178
     2
271
     2
340
50
343
225
344
225
  0
DIMSTYLE
105
26C
102
{ACAD_REACTORS
330
26D
102
}
330
A
100
AcDbSymbolTableRecord
100
AcDbDimStyleTableRecord
  2
ME10_DIM_15
 70
     0
 41
2.5
 42
0.5
 44
1.5
 73
     0
 74
     0
 77
     1
 78
    12
140
2.5
147
1.0
172
     1
173
     1
174
     1
175
     1
176
     2
177
     2
271
     2
178
     2
271
     2
340
50
343
225
344
225
  0
DIMSTYLE
105
279
102
{ACAD_REACTORS
330
27A
102
}
330
A
100
AcDbSymbolTableRecord
100
AcDbDimStyleTableRecord
  2
ME10_DIM_16
 70
     0
 41
2.5
 42
0.5
 44
1.5
 73
     0
 74
     0
 77
     1
 78
    12
140
2.5
147
1.0
172
     1
173
     1
174
     1
175
     1
176
     2
177
     2
271
     2
178
     2
271
     2
340
50
343
225
344
225
  0
DIMSTYLE
105
286
102
{ACAD_REACTORS
330
287
102
}
330
A
100
AcDbSymbolTableRecord
100
AcDbDimStyleTableRecord
  2
ME10_DIM_17
 70
     0
 41
2.5
 42
0.5
 44
1.5
 73
     0
 74
     0
 77
     1
 78
    12
140
2.5
147
1.0
172
     1
173
     1
174
     1
175
     1
176
     2
177
     2
271
     2
178
     2
271
     2
340
50
343
225
344
225
  0
DIMSTYLE
105
293
102
{ACAD_REACTORS
330
294
102
}
330
A
100
AcDbSymbolTableRecord
100
AcDbDimStyleTableRecord
  2
ME10_DIM_18
 70
     0
 41
2.5
 42
0.5
 44
1.5
 73
     0
 74
     0
 77
     1
 78
    12
140
2.5
147
1.0
172
     1
173
     1
174
     1
175
     1
176
     2
177
     2
271
     2
178
     2
271
     2
340
50
343
225
344
225
  0
DIMSTYLE
105
2A0
102
{ACAD_REACTORS
330
2A1
102
}
330
A
100
AcDbSymbolTableRecord
100
AcDbDimStyleTableRecord
  2
ME10_DIM_19
 70
     0
 41
2.5
 42
0.5
 44
1.5
 73
     0
 74
     0
 77
     1
 78
    12
140
2.5
147
1.0
172
     1
173
     1
174
     1
175
     1
176
     2
177
     2
271
     2
178
     2
271
     2
340
50
343
225
344
225
  0
DIMSTYLE
105
2AD
102
{ACAD_REACTORS
330
2AE
102
}
330
A
100
AcDbSymbolTableRecord
100
AcDbDimStyleTableRecord
  2
ME10_DIM_20
 70
     0
 41
2.5
 42
0.5
 44
1.5
 73
     0
 74
     0
 77
     1
 78
    12
140
2.5
147
1.0
172
     1
173
     1
174
     1
175
     1
176
     2
177
     2
271
     2
178
     2
271
     2
340
50
343
225
344
225
  0
DIMSTYLE
105
2BA
102
{ACAD_REACTORS
330
2BB
102
}
330
A
100
AcDbSymbolTableRecord
100
AcDbDimStyleTableRecord
  2
ME10_DIM_21
 70
     0
 41
2.5
 42
0.5
 44
1.5
 73
     0
 74
     0
 77
     1
 78
    12
140
2.5
147
1.0
172
     1
173
     1
174
     1
175
     1
176
     2
177
     2
271
     2
178
     2
271
     2
340
50
343
225
344
225
  0
ENDTAB
  0
TABLE
  2
BLOCK_RECORD
  5
1
330
0
100
AcDbSymbolTable
 70
    15
  0
BLOCK_RECORD
  5
1F
330
1
100
AcDbSymbolTableRecord
100
AcDbBlockTableRecord
  2
*Model_Space
340
22
  0
BLOCK_RECORD
  5
1B
330
1
100
AcDbSymbolTableRecord
100
AcDbBlockTableRecord
  2
*Paper_Space
340
1E
  0
BLOCK_RECORD
  5
23
330
1
100
AcDbSymbolTableRecord
100
AcDbBlockTableRecord
  2
*Paper_Space0
340
26
  0
BLOCK_RECORD
  5
47
330
1
100
AcDbSymbolTableRecord
100
AcDbBlockTableRecord
  2
_D14
340
0
102
{BLKREFS
331
4A
102
}
  0
BLOCK_RECORD
  5
21A
330
1
100
AcDbSymbolTableRecord
100
AcDbBlockTableRecord
  2
*D2
340
0
  0
BLOCK_RECORD
  5
225
330
1
100
AcDbSymbolTableRecord
100
AcDbBlockTableRecord
  2
_OPEN30
340
0
  0
BLOCK_RECORD
  5
22D
330
1
100
AcDbSymbolTableRecord
100
AcDbBlockTableRecord
  2
*D4
340
0
  0
BLOCK_RECORD
  5
23A
330
1
100
AcDbSymbolTableRecord
100
AcDbBlockTableRecord
  2
*D5
340
0
  0
BLOCK_RECORD
  5
247
330
1
100
AcDbSymbolTableRecord
100
AcDbBlockTableRecord
  2
*D6
340
0
  0
BLOCK_RECORD
  5
254
330
1
100
AcDbSymbolTableRecord
100
AcDbBlockTableRecord
  2
*D7
340
0
  0
BLOCK_RECORD
  5
261
330
1
100
AcDbSymbolTableRecord
100
AcDbBlockTableRecord
  2
*D8
340
0
  0
BLOCK_RECORD
  5
26E
330
1
100
AcDbSymbolTableRecord
100
AcDbBlockTableRecord
  2
*D9
340
0
  0
BLOCK_RECORD
  5
27B
330
1
100
AcDbSymbolTableRecord
100
AcDbBlockTableRecord
  2
*D10
340
0
  0
BLOCK_RECORD
  5
288
330
1
100
AcDbSymbolTableRecord
100
AcDbBlockTableRecord
  2
*D11
340
0
  0
BLOCK_RECORD
  5
295
330
1
100
AcDbSymbolTableRecord
100
AcDbBlockTableRecord
  2
*D12
340
0
  0
BLOCK_RECORD
  5
2A2
330
1
100
AcDbSymbolTableRecord
100
AcDbBlockTableRecord
  2
*D13
340
0
  0
BLOCK_RECORD
  5
2AF
330
1
100
AcDbSymbolTableRecord
100
AcDbBlockTableRecord
  2
*D14
340
0
  0
ENDTAB
  0
ENDSEC
  0
SECTION
  2
BLOCKS
  0
BLOCK
  5
20
330
1F
100
AcDbEntity
  8
0
100
AcDbBlockBegin
  2
*Model_Space
 70
     0
 10
0.0
 20
0.0
 30
0.0
  3
*Model_Space
  1

  0
ENDBLK
  5
21
330
1F
100
AcDbEntity
  8
0
100
AcDbBlockEnd
  0
BLOCK
  5
1C
330
1B
100
AcDbEntity
 67
     1
  8
0
100
AcDbBlockBegin
  2
*Paper_Space
 70
     0
 10
0.0
 20
0.0
 30
0.0
  3
*Paper_Space
  1

  0
ENDBLK
  5
1D
330
1B
100
AcDbEntity
 67
     1
  8
0
100
AcDbBlockEnd
  0
BLOCK
  5
24
330
23
100
AcDbEntity
  8
0
100
AcDbBlockBegin
  2
*Paper_Space0
 70
     0
 10
0.0
 20
0.0
 30
0.0
  3
*Paper_Space0
  1

  0
ENDBLK
  5
25
330
23
100
AcDbEntity
  8
0
100
AcDbBlockEnd
  0
BLOCK
  5
48
330
47
100
AcDbEntity
  8
0
100
AcDbBlockBegin
  2
_D14
 70
     0
 10
0.0
 20
0.0
 30
0.0
  3
_D14
  1

  0
LINE
  5
4B
330
47
100
AcDbEntity
  8
1
  6
Continuous
 62
     2
100
AcDbLine
 10
349.482465910542
 20
-368.774519376164
 30
0.0
 11
351.951082308391
 21
-367.996918648894
 31
0.0
  0
LINE
  5
4C
330
47
100
AcDbEntity
  8
1
  6
Continuous
 62
     2
100
AcDbLine
 10
349.482465910542
 20
-368.774519376164
 30
0.0
 11
351.231550059643
 21
-366.866789193422
 31
0.0
  0
LINE
  5
4D
330
47
100
AcDbEntity
  8
1
  6
Continuous
 62
     2
100
AcDbLine
 10
391.659471380038
 20
-341.921210276052
 30
0.0
 11
389.190854982189
 21
-342.698811003322
 31
0.0
  0
LINE
  5
4E
330
47
100
AcDbEntity
  8
1
  6
Continuous
 62
     2
100
AcDbLine
 10
391.659471380038
 20
-341.921210276052
 30
0.0
 11
389.910387230937
 21
-343.828940458793
 31
0.0
  0
LINE
  5
4F
330
47
100
AcDbEntity
  8
1
  6
Continuous
 62
     2
100
AcDbLine
 10
349.482465910542
 20
-368.774519376164
 30
0.0
 11
391.659471380038
 21
-341.921210276052
 31
0.0
  0
MTEXT
  5
51
330
47
100
AcDbEntity
  8
1
 62
     2
100
AcDbMText
 10
376.538287289174
 20
-350.363104772549
 30
0.0
 40
2.5
 41
0.0
 71
     7
 72
     1
  1
{\Fgdt;n}50
  7
CONVERTER_11
 11
0.8435401093899069
 21
0.5370661820022409
 31
0.0
 73
     1
 44
1.0
  0
ENDBLK
  5
49
330
47
100
AcDbEntity
  8
0
100
AcDbBlockEnd
  0
BLOCK
  5
223
330
21A
100
AcDbEntity
  8
0
100
AcDbBlockBegin
  2
*D2
 70
     1
 10
0.0
 20
0.0
 30
0.0
  3
*D2
  1

  0
LINE
  5
21B
330
21A
100
AcDbEntity
  8
1
  6
Continuous
 62
     2
100
AcDbLine
 10
424.227729108498
 20
-305.847830326089
 30
0.0
 11
435.8277291084979
 21
-305.847830326089
 31
0.0
  0
LINE
  5
21C
330
21A
100
AcDbEntity
  8
1
  6
Continuous
 62
     2
100
AcDbLine
 10
429.227729108498
 20
-312.3478303260905
 30
0.0
 11
429.227729108498
 21
-304.347830326089
 31
0.0
  0
LINE
  5
21D
330
21A
100
AcDbEntity
  8
1
  6
Continuous
 62
     2
100
AcDbLine
 10
430.8277291084979
 20
-312.3478303260905
 30
0.0
 11
430.8277291084979
 21
-304.347830326089
 31
0.0
  0
LINE
  5
21E
330
21A
100
AcDbEntity
  8
1
 62
     2
100
AcDbLine
 10
430.8277291084979
 20
-305.847830326089
 30
0.0
 11
433.3277291084979
 21
-305.1779573450112
 31
0.0
  0
LINE
  5
21F
330
21A
100
AcDbEntity
  8
1
 62
     2
100
AcDbLine
 10
430.8277291084979
 20
-305.847830326089
 30
0.0
 11
433.3277291084979
 21
-306.5177033071668
 31
0.0
  0
LINE
  5
220
330
21A
100
AcDbEntity
  8
1
 62
     2
100
AcDbLine
 10
429.227729108498
 20
-305.847830326089
 30
0.0
 11
426.727729108498
 21
-306.5177033071668
 31
0.0
  0
LINE
  5
221
330
21A
100
AcDbEntity
  8
1
 62
     2
100
AcDbLine
 10
429.227729108498
 20
-305.847830326089
 30
0.0
 11
426.727729108498
 21
-305.1779573450112
 31
0.0
  0
MTEXT
  5
222
330
21A
100
AcDbEntity
  8
1
 62
     2
100
AcDbMText
 10
427.2602321385917
 20
-304.8478370346947
 30
0.0
 40
2.5
 41
0.0
 71
     7
 72
     1
  1
1.6
  7
CONVERTER_11
 11
0.9999999999882478
 21
4.848136811095759E-6
 31
0.0
 73
     1
 44
0.60024009603842
  0
ENDBLK
  5
224
330
21A
100
AcDbEntity
  8
0
100
AcDbBlockEnd
  0
BLOCK
  5
226
330
225
100
AcDbEntity
  8
0
100
AcDbBlockBegin
  2
_OPEN30
 70
     0
 10
0.0
 20
0.0
 30
0.0
  3
_OPEN30
  1

  0
LINE
  5
228
330
225
100
AcDbEntity
  8
0
  6
ByBlock
 62
     0
370
    -2
100
AcDbLine
 10
-1.0
 20
0.267949
 30
0.0
 11
0.0
 21
0.0
 31
0.0
  0
LINE
  5
229
330
225
100
AcDbEntity
  8
0
  6
ByBlock
 62
     0
370
    -2
100
AcDbLine
 10
0.0
 20
0.0
 30
0.0
 11
-1.0
 21
-0.267949
 31
0.0
  0
LINE
  5
22A
330
225
100
AcDbEntity
  8
0
  6
ByBlock
 62
     0
370
    -2
100
AcDbLine
 10
0.0
 20
0.0
 30
0.0
 11
-1.0
 21
0.0
 31
0.0
  0
ENDBLK
  5
227
330
225
100
AcDbEntity
  8
0
100
AcDbBlockEnd
  0
BLOCK
  5
236
330
22D
100
AcDbEntity
  8
0
100
AcDbBlockBegin
  2
*D4
 70
     1
 10
0.0
 20
0.0
 30
0.0
  3
*D4
  1

  0
LINE
  5
22E
330
22D
100
AcDbEntity
  8
1
  6
Continuous
 62
     2
100
AcDbLine
 10
314.07096864529
 20
-397.847830326089
 30
0.0
 11
314.07096864529
 21
-312.847830326089
 31
0.0
  0
LINE
  5
22F
330
22D
100
AcDbEntity
  8
1
  6
Continuous
 62
     2
100
AcDbLine
 10
328.57096864529
 20
-397.847830326089
 30
0.0
 11
312.57096864529
 21
-397.847830326089
 31
0.0
  0
LINE
  5
230
330
22D
100
AcDbEntity
  8
1
  6
Continuous
 62
     2
100
AcDbLine
 10
328.57096864529
 20
-312.847830326089
 30
0.0
 11
312.57096864529
 21
-312.847830326089
 31
0.0
  0
LINE
  5
231
330
22D
100
AcDbEntity
  8
1
 62
     2
100
AcDbLine
 10
314.07096864529
 20
-312.847830326089
 30
0.0
 11
314.7408416263678
 21
-315.347830326089
 31
0.0
  0
LINE
  5
232
330
22D
100
AcDbEntity
  8
1
 62
     2
100
AcDbLine
 10
314.07096864529
 20
-312.847830326089
 30
0.0
 11
313.4010956642122
 21
-315.347830326089
 31
0.0
  0
LINE
  5
233
330
22D
100
AcDbEntity
  8
1
 62
     2
100
AcDbLine
 10
314.07096864529
 20
-397.847830326089
 30
0.0
 11
313.4010956642122
 21
-395.347830326089
 31
0.0
  0
LINE
  5
234
330
22D
100
AcDbEntity
  8
1
 62
     2
100
AcDbLine
 10
314.07096864529
 20
-397.847830326089
 30
0.0
 11
314.7408416263678
 21
-395.347830326089
 31
0.0
  0
MTEXT
  5
235
330
22D
100
AcDbEntity
  8
1
 62
     2
100
AcDbMText
 10
313.07096864529
 20
-357.1928303260891
 30
0.0
 40
2.5
 41
0.0
 71
     7
 72
     1
  1
85
  7
CONVERTER_11
 11
0.0
 21
1.0
 31
0.0
 73
     1
 44
0.60024009603842
  0
ENDBLK
  5
237
330
22D
100
AcDbEntity
  8
0
100
AcDbBlockEnd
  0
BLOCK
  5
243
330
23A
100
AcDbEntity
  8
0
100
AcDbBlockBegin
  2
*D5
 70
     1
 10
0.0
 20
0.0
 30
0.0
  3
*D5
  1

  0
LINE
  5
23B
330
23A
100
AcDbEntity
  8
1
  6
Continuous
 62
     2
100
AcDbLine
 10
321.07096864529
 20
-388.6978558261079
 30
0.0
 11
321.07096864529
 21
-321.997873826108
 31
0.0
  0
LINE
  5
23C
330
23A
100
AcDbEntity
  8
1
  6
Continuous
 62
     2
100
AcDbLine
 10
366.4641512343459
 20
-388.6978558261079
 30
0.0
 11
319.57096864529
 21
-388.6978558261079
 31
0.0
  0
LINE
  5
23D
330
23A
100
AcDbEntity
  8
1
  6
Continuous
 62
     2
100
AcDbLine
 10
366.6028575352938
 20
-321.997873826108
 30
0.0
 11
319.57096864529
 21
-321.997873826108
 31
0.0
  0
LINE
  5
23E
330
23A
100
AcDbEntity
  8
1
 62
     2
100
AcDbLine
 10
321.07096864529
 20
-321.997873826108
 30
0.0
 11
321.7408416263678
 21
-324.497873826108
 31
0.0
  0
LINE
  5
23F
330
23A
100
AcDbEntity
  8
1
 62
     2
100
AcDbLine
 10
321.07096864529
 20
-321.997873826108
 30
0.0
 11
320.4010956642122
 21
-324.497873826108
 31
0.0
  0
LINE
  5
240
330
23A
100
AcDbEntity
  8
1
 62
     2
100
AcDbLine
 10
321.07096864529
 20
-388.6978558261079
 30
0.0
 11
320.4010956642122
 21
-386.1978558261079
 31
0.0
  0
LINE
  5
241
330
23A
100
AcDbEntity
  8
1
 62
     2
100
AcDbLine
 10
321.07096864529
 20
-388.6978558261079
 30
0.0
 11
321.7408416263678
 21
-386.1978558261079
 31
0.0
  0
MTEXT
  5
242
330
23A
100
AcDbEntity
  8
1
 62
     2
100
AcDbMText
 10
320.07096864529
 20
-359.037864826108
 30
0.0
 40
2.5
 41
0.0
 71
     7
 72
     1
  1
66.7
  7
CONVERTER_11
 11
0.0
 21
1.0
 31
0.0
 73
     1
 44
0.60024009603842
  0
ENDBLK
  5
244
330
23A
100
AcDbEntity
  8
0
100
AcDbBlockEnd
  0
BLOCK
  5
250
330
247
100
AcDbEntity
  8
0
100
AcDbBlockBegin
  2
*D6
 70
     1
 10
0.0
 20
0.0
 30
0.0
  3
*D6
  1

  0
LINE
  5
248
330
247
100
AcDbEntity
  8
1
  6
Continuous
 62
     2
100
AcDbLine
 10
413.07096864529
 20
-298.847830326089
 30
0.0
 11
328.07096864529
 21
-298.847830326089
 31
0.0
  0
LINE
  5
249
330
247
100
AcDbEntity
  8
1
  6
Continuous
 62
     2
100
AcDbLine
 10
413.07096864529
 20
-313.347830326089
 30
0.0
 11
413.07096864529
 21
-297.347830326089
 31
0.0
  0
LINE
  5
24A
330
247
100
AcDbEntity
  8
1
  6
Continuous
 62
     2
100
AcDbLine
 10
328.07096864529
 20
-313.347830326089
 30
0.0
 11
328.07096864529
 21
-297.347830326089
 31
0.0
  0
LINE
  5
24B
330
247
100
AcDbEntity
  8
1
 62
     2
100
AcDbLine
 10
328.07096864529
 20
-298.847830326089
 30
0.0
 11
330.57096864529
 21
-298.1779573450112
 31
0.0
  0
LINE
  5
24C
330
247
100
AcDbEntity
  8
1
 62
     2
100
AcDbLine
 10
328.07096864529
 20
-298.847830326089
 30
0.0
 11
330.57096864529
 21
-299.5177033071668
 31
0.0
  0
LINE
  5
24D
330
247
100
AcDbEntity
  8
1
 62
     2
100
AcDbLine
 10
413.07096864529
 20
-298.847830326089
 30
0.0
 11
410.57096864529
 21
-299.5177033071668
 31
0.0
  0
LINE
  5
24E
330
247
100
AcDbEntity
  8
1
 62
     2
100
AcDbLine
 10
413.07096864529
 20
-298.847830326089
 30
0.0
 11
410.57096864529
 21
-298.1779573450112
 31
0.0
  0
MTEXT
  5
24F
330
247
100
AcDbEntity
  8
1
 62
     2
100
AcDbMText
 10
368.7259716753809
 20
-297.8478347984916
 30
0.0
 40
2.5
 41
0.0
 71
     7
 72
     1
  1
85
  7
CONVERTER_11
 11
0.9999999999882478
 21
4.848136811095759E-6
 31
0.0
 73
     1
 44
0.60024009603842
  0
ENDBLK
  5
251
330
247
100
AcDbEntity
  8
0
100
AcDbBlockEnd
  0
BLOCK
  5
25D
330
254
100
AcDbEntity
  8
0
100
AcDbBlockBegin
  2
*D7
 70
     1
 10
0.0
 20
0.0
 30
0.0
  3
*D7
  1

  0
LINE
  5
255
330
254
100
AcDbEntity
  8
1
  6
Continuous
 62
     2
100
AcDbLine
 10
403.9209596452901
 20
-305.847830326089
 30
0.0
 11
337.22097764529
 21
-305.847830326089
 31
0.0
  0
LINE
  5
256
330
254
100
AcDbEntity
  8
1
  6
Continuous
 62
     2
100
AcDbLine
 10
403.9209596452901
 20
-351.3797537161122
 30
0.0
 11
403.9209596452901
 21
-304.347830326089
 31
0.0
  0
LINE
  5
257
330
254
100
AcDbEntity
  8
1
  6
Continuous
 62
     2
100
AcDbLine
 10
337.22097764529
 20
-351.2410474151641
 30
0.0
 11
337.22097764529
 21
-304.347830326089
 31
0.0
  0
LINE
  5
258
330
254
100
AcDbEntity
  8
1
 62
     2
100
AcDbLine
 10
337.22097764529
 20
-305.847830326089
 30
0.0
 11
339.72097764529
 21
-305.1779573450112
 31
0.0
  0
LINE
  5
259
330
254
100
AcDbEntity
  8
1
 62
     2
100
AcDbLine
 10
337.22097764529
 20
-305.847830326089
 30
0.0
 11
339.72097764529
 21
-306.5177033071668
 31
0.0
  0
LINE
  5
25A
330
254
100
AcDbEntity
  8
1
 62
     2
100
AcDbLine
 10
403.9209596452901
 20
-305.847830326089
 30
0.0
 11
401.4209596452901
 21
-306.5177033071668
 31
0.0
  0
LINE
  5
25B
330
254
100
AcDbEntity
  8
1
 62
     2
100
AcDbLine
 10
403.9209596452901
 20
-305.847830326089
 30
0.0
 11
401.4209596452901
 21
-305.1779573450112
 31
0.0
  0
MTEXT
  5
25C
330
254
100
AcDbEntity
  8
1
 62
     2
100
AcDbMText
 10
366.8809716753864
 20
-304.8478392708977
 30
0.0
 40
2.5
 41
0.0
 71
     7
 72
     1
  1
66.7
  7
CONVERTER_11
 11
0.9999999999882478
 21
4.848136811095759E-6
 31
0.0
 73
     1
 44
0.60024009603842
  0
ENDBLK
  5
25E
330
254
100
AcDbEntity
  8
0
100
AcDbBlockEnd
  0
BLOCK
  5
26A
330
261
100
AcDbEntity
  8
0
100
AcDbBlockBegin
  2
*D8
 70
     1
 10
0.0
 20
0.0
 30
0.0
  3
*D8
  1

  0
LINE
  5
262
330
261
100
AcDbEntity
  8
1
  6
Continuous
 62
     2
100
AcDbLine
 10
138.914179021811
 20
-357.1706034143298
 30
0.0
 11
138.914179021811
 21
-300.2880156828542
 31
0.0
  0
LINE
  5
263
330
261
100
AcDbEntity
  8
1
  6
Continuous
 62
     2
100
AcDbLine
 10
145.4142605481666
 20
-357.1706034143298
 30
0.0
 11
137.414179021811
 21
-357.1706034143298
 31
0.0
  0
LINE
  5
264
330
261
100
AcDbEntity
  8
1
  6
Continuous
 62
     2
100
AcDbLine
 10
189.1141915481294
 20
-300.2880156828542
 30
0.0
 11
137.414179021811
 21
-300.2880156828542
 31
0.0
  0
LINE
  5
265
330
261
100
AcDbEntity
  8
1
 62
     2
100
AcDbLine
 10
138.914179021811
 20
-300.2880156828542
 30
0.0
 11
139.5840520028888
 21
-302.7880156828542
 31
0.0
  0
LINE
  5
266
330
261
100
AcDbEntity
  8
1
 62
     2
100
AcDbLine
 10
138.914179021811
 20
-300.2880156828542
 30
0.0
 11
138.2443060407332
 21
-302.7880156828542
 31
0.0
  0
LINE
  5
267
330
261
100
AcDbEntity
  8
1
 62
     2
100
AcDbLine
 10
138.914179021811
 20
-357.1706034143298
 30
0.0
 11
138.2443060407332
 21
-354.6706034143298
 31
0.0
  0
LINE
  5
268
330
261
100
AcDbEntity
  8
1
 62
     2
100
AcDbLine
 10
138.914179021811
 20
-357.1706034143298
 30
0.0
 11
139.5840520028888
 21
-354.6706034143298
 31
0.0
  0
MTEXT
  5
269
330
261
100
AcDbEntity
  8
1
 62
     2
100
AcDbMText
 10
137.914179021811
 20
-331.496809548592
 30
0.0
 40
2.5
 41
0.0
 71
     7
 72
     1
  1
300
  7
CONVERTER_11
 11
0.0
 21
1.0
 31
0.0
 73
     1
 44
0.60024009603842
  0
ENDBLK
  5
26B
330
261
100
AcDbEntity
  8
0
100
AcDbBlockEnd
  0
BLOCK
  5
277
330
26E
100
AcDbEntity
  8
0
100
AcDbBlockBegin
  2
*D9
 70
     1
 10
0.0
 20
0.0
 30
0.0
  3
*D9
  1

  0
LINE
  5
26F
330
26E
100
AcDbEntity
  8
1
  6
Continuous
 62
     2
100
AcDbLine
 10
131.914196624119
 20
-357.17060341433
 30
0.0
 11
131.914196624119
 21
-388.87060341433
 31
0.0
  0
LINE
  5
270
330
26E
100
AcDbEntity
  8
1
  6
Continuous
 62
     2
100
AcDbLine
 10
145.4142605481672
 20
-357.17060341433
 30
0.0
 11
130.414196624119
 21
-357.17060341433
 31
0.0
  0
LINE
  5
271
330
26E
100
AcDbEntity
  8
1
  6
Continuous
 62
     2
100
AcDbLine
 10
165.4142490481602
 20
-388.87060341433
 30
0.0
 11
130.414196624119
 21
-388.87060341433
 31
0.0
  0
LINE
  5
272
330
26E
100
AcDbEntity
  8
1
 62
     2
100
AcDbLine
 10
131.914196624119
 20
-388.87060341433
 30
0.0
 11
131.2443236430412
 21
-386.37060341433
 31
0.0
  0
LINE
  5
273
330
26E
100
AcDbEntity
  8
1
 62
     2
100
AcDbLine
 10
131.914196624119
 20
-388.87060341433
 30
0.0
 11
132.5840696051968
 21
-386.37060341433
 31
0.0
  0
LINE
  5
274
330
26E
100
AcDbEntity
  8
1
 62
     2
100
AcDbLine
 10
131.914196624119
 20
-357.17060341433
 30
0.0
 11
132.5840696051968
 21
-359.67060341433
 31
0.0
  0
LINE
  5
275
330
26E
100
AcDbEntity
  8
1
 62
     2
100
AcDbLine
 10
131.914196624119
 20
-357.17060341433
 30
0.0
 11
131.2443236430412
 21
-359.67060341433
 31
0.0
  0
MTEXT
  5
276
330
26E
100
AcDbEntity
  8
1
 62
     2
100
AcDbMText
 10
130.914196624119
 20
-374.8656034143301
 30
0.0
 40
2.5
 41
0.0
 71
     7
 72
     1
  1
32
  7
CONVERTER_11
 11
0.0
 21
1.0
 31
0.0
 73
     1
 44
0.60024009603842
  0
ENDBLK
  5
278
330
26E
100
AcDbEntity
  8
0
100
AcDbBlockEnd
  0
BLOCK
  5
284
330
27B
100
AcDbEntity
  8
0
100
AcDbBlockBegin
  2
*D10
 70
     1
 10
0.0
 20
0.0
 30
0.0
  3
*D10
  1

  0
LINE
  5
27C
330
27B
100
AcDbEntity
  8
1
  6
Continuous
 62
     2
100
AcDbLine
 10
138.914191323553
 20
-364.67060341433
 30
0.0
 11
138.914191323553
 21
-357.17060341433
 31
0.0
  0
LINE
  5
27D
330
27B
100
AcDbEntity
  8
1
  6
Continuous
 62
     2
100
AcDbLine
 10
148.9730242093558
 20
-364.67060341433
 30
0.0
 11
137.414191323553
 21
-364.67060341433
 31
0.0
  0
LINE
  5
27E
330
27B
100
AcDbEntity
  8
1
  6
Continuous
 62
     2
100
AcDbLine
 10
145.4142605481668
 20
-357.17060341433
 30
0.0
 11
137.414191323553
 21
-357.17060341433
 31
0.0
  0
LINE
  5
27F
330
27B
100
AcDbEntity
  8
1
 62
     2
100
AcDbLine
 10
138.914191323553
 20
-357.17060341433
 30
0.0
 11
139.5840643046308
 21
-359.67060341433
 31
0.0
  0
LINE
  5
280
330
27B
100
AcDbEntity
  8
1
 62
     2
100
AcDbLine
 10
138.914191323553
 20
-357.17060341433
 30
0.0
 11
138.2443183424752
 21
-359.67060341433
 31
0.0
  0
LINE
  5
281
330
27B
100
AcDbEntity
  8
1
 62
     2
100
AcDbLine
 10
138.914191323553
 20
-364.67060341433
 30
0.0
 11
138.2443183424752
 21
-362.17060341433
 31
0.0
  0
LINE
  5
282
330
27B
100
AcDbEntity
  8
1
 62
     2
100
AcDbLine
 10
138.914191323553
 20
-364.67060341433
 30
0.0
 11
139.5840643046308
 21
-362.17060341433
 31
0.0
  0
MTEXT
  5
283
330
27B
100
AcDbEntity
  8
1
 62
     2
100
AcDbMText
 10
137.914191323553
 20
-363.68810341433
 30
0.0
 40
2.5
 41
0.0
 71
     7
 72
     1
  1
7.5
  7
CONVERTER_11
 11
0.0
 21
1.0
 31
0.0
 73
     1
 44
0.60024009603842
  0
ENDBLK
  5
285
330
27B
100
AcDbEntity
  8
0
100
AcDbBlockEnd
  0
BLOCK
  5
291
330
288
100
AcDbEntity
  8
0
100
AcDbBlockBegin
  2
*D11
 70
     1
 10
0.0
 20
0.0
 30
0.0
  3
*D11
  1

  0
LINE
  5
289
330
288
100
AcDbEntity
  8
1
  6
Continuous
 62
     2
100
AcDbLine
 10
235.9142835481776
 20
-403.347864783268
 30
0.0
 11
145.9142145481424
 21
-403.347864783268
 31
0.0
  0
LINE
  5
28A
330
288
100
AcDbEntity
  8
1
  6
Continuous
 62
     2
100
AcDbLine
 10
235.9142835481776
 20
-418.347864826109
 30
0.0
 11
235.9142835481776
 21
-401.847864783268
 31
0.0
  0
LINE
  5
28B
330
288
100
AcDbEntity
  8
1
  6
Continuous
 62
     2
100
AcDbLine
 10
145.9142145481424
 20
-418.3478993261259
 30
0.0
 11
145.9142145481424
 21
-401.847864783268
 31
0.0
  0
LINE
  5
28C
330
288
100
AcDbEntity
  8
1
 62
     2
100
AcDbLine
 10
145.9142145481424
 20
-403.347864783268
 30
0.0
 11
148.4142145481424
 21
-402.6779918021902
 31
0.0
  0
LINE
  5
28D
330
288
100
AcDbEntity
  8
1
 62
     2
100
AcDbLine
 10
145.9142145481424
 20
-403.347864783268
 30
0.0
 11
148.4142145481424
 21
-404.0177377643458
 31
0.0
  0
LINE
  5
28E
330
288
100
AcDbEntity
  8
1
 62
     2
100
AcDbLine
 10
235.9142835481776
 20
-403.347864783268
 30
0.0
 11
233.4142835481776
 21
-404.0177377643458
 31
0.0
  0
LINE
  5
28F
330
288
100
AcDbEntity
  8
1
 62
     2
100
AcDbLine
 10
235.9142835481776
 20
-403.347864783268
 30
0.0
 11
233.4142835481776
 21
-402.6779918021902
 31
0.0
  0
MTEXT
  5
290
330
288
100
AcDbEntity
  8
1
 62
     2
100
AcDbMText
 10
189.0692520782509
 20
-402.3478692556706
 30
0.0
 40
2.5
 41
0.0
 71
     7
 72
     1
  1
90
  7
CONVERTER_11
 11
0.9999999999882478
 21
4.848136811095759E-6
 31
0.0
 73
     1
 44
0.60024009603842
  0
ENDBLK
  5
292
330
288
100
AcDbEntity
  8
0
100
AcDbBlockEnd
  0
BLOCK
  5
29E
330
295
100
AcDbEntity
  8
0
100
AcDbBlockBegin
  2
*D12
 70
     1
 10
0.0
 20
0.0
 30
0.0
  3
*D12
  1

  0
LINE
  5
296
330
295
100
AcDbEntity
  8
1
  6
Continuous
 62
     2
100
AcDbLine
 10
229.91424904816
 20
-410.347864261434
 30
0.0
 11
151.91424904816
 21
-410.347864261434
 31
0.0
  0
LINE
  5
297
330
295
100
AcDbEntity
  8
1
  6
Continuous
 62
     2
100
AcDbLine
 10
229.91424904816
 20
-423.3478648261078
 30
0.0
 11
229.91424904816
 21
-408.847864261434
 31
0.0
  0
LINE
  5
298
330
295
100
AcDbEntity
  8
1
  6
Continuous
 62
     2
100
AcDbLine
 10
151.91424904816
 20
-423.3478648261078
 30
0.0
 11
151.91424904816
 21
-408.847864261434
 31
0.0
  0
LINE
  5
299
330
295
100
AcDbEntity
  8
1
 62
     2
100
AcDbLine
 10
151.91424904816
 20
-410.347864261434
 30
0.0
 11
154.41424904816
 21
-409.6779912803562
 31
0.0
  0
LINE
  5
29A
330
295
100
AcDbEntity
  8
1
 62
     2
100
AcDbLine
 10
151.91424904816
 20
-410.347864261434
 30
0.0
 11
154.41424904816
 21
-411.0177372425118
 31
0.0
  0
LINE
  5
29B
330
295
100
AcDbEntity
  8
1
 62
     2
100
AcDbLine
 10
229.91424904816
 20
-410.347864261434
 30
0.0
 11
227.41424904816
 21
-411.0177372425118
 31
0.0
  0
LINE
  5
29C
330
295
100
AcDbEntity
  8
1
 62
     2
100
AcDbLine
 10
229.91424904816
 20
-410.347864261434
 30
0.0
 11
227.41424904816
 21
-409.6779912803562
 31
0.0
  0
MTEXT
  5
29D
330
295
100
AcDbEntity
  8
1
 62
     2
100
AcDbMText
 10
189.0692520782509
 20
-409.3478687338365
 30
0.0
 40
2.5
 41
0.0
 71
     7
 72
     1
  1
78
  7
CONVERTER_11
 11
0.9999999999882478
 21
4.848136811095759E-6
 31
0.0
 73
     1
 44
0.60024009603842
  0
ENDBLK
  5
29F
330
295
100
AcDbEntity
  8
0
100
AcDbBlockEnd
  0
BLOCK
  5
2AB
330
2A2
100
AcDbEntity
  8
0
100
AcDbBlockBegin
  2
*D13
 70
     1
 10
0.0
 20
0.0
 30
0.0
  3
*D13
  1

  0
LINE
  5
2A3
330
2A2
100
AcDbEntity
  8
1
  6
Continuous
 62
     2
100
AcDbLine
 10
138.914231919564
 20
-423.347864826108
 30
0.0
 11
138.914231919564
 21
-501.347864826108
 31
0.0
  0
LINE
  5
2A4
330
2A2
100
AcDbEntity
  8
1
  6
Continuous
 62
     2
100
AcDbLine
 10
151.9142490481599
 20
-423.347864826108
 30
0.0
 11
137.414231919564
 21
-423.347864826108
 31
0.0
  0
LINE
  5
2A5
330
2A2
100
AcDbEntity
  8
1
  6
Continuous
 62
     2
100
AcDbLine
 10
151.9142490481599
 20
-501.347864826108
 30
0.0
 11
137.414231919564
 21
-501.347864826108
 31
0.0
  0
LINE
  5
2A6
330
2A2
100
AcDbEntity
  8
1
 62
     2
100
AcDbLine
 10
138.914231919564
 20
-501.347864826108
 30
0.0
 11
138.2443589384862
 21
-498.847864826108
 31
0.0
  0
LINE
  5
2A7
330
2A2
100
AcDbEntity
  8
1
 62
     2
100
AcDbLine
 10
138.914231919564
 20
-501.347864826108
 30
0.0
 11
139.5841049006418
 21
-498.847864826108
 31
0.0
  0
LINE
  5
2A8
330
2A2
100
AcDbEntity
  8
1
 62
     2
100
AcDbLine
 10
138.914231919564
 20
-423.347864826108
 30
0.0
 11
139.5841049006418
 21
-425.847864826108
 31
0.0
  0
LINE
  5
2A9
330
2A2
100
AcDbEntity
  8
1
 62
     2
100
AcDbLine
 10
138.914231919564
 20
-423.347864826108
 30
0.0
 11
138.2443589384862
 21
-425.847864826108
 31
0.0
  0
MTEXT
  5
2AA
330
2A2
100
AcDbEntity
  8
1
 62
     2
100
AcDbMText
 10
137.914231919564
 20
-464.192864826108
 30
0.0
 40
2.5
 41
0.0
 71
     7
 72
     1
  1
78
  7
CONVERTER_11
 11
0.0
 21
1.0
 31
0.0
 73
     1
 44
0.60024009603842
  0
ENDBLK
  5
2AC
330
2A2
100
AcDbEntity
  8
0
100
AcDbBlockEnd
  0
BLOCK
  5
2B8
330
2AF
100
AcDbEntity
  8
0
100
AcDbBlockBegin
  2
*D14
 70
     1
 10
0.0
 20
0.0
 30
0.0
  3
*D14
  1

  0
LINE
  5
2B0
330
2AF
100
AcDbEntity
  8
1
  6
Continuous
 62
     2
100
AcDbLine
 10
131.914231793599
 20
-417.3478993261255
 30
0.0
 11
131.914231793599
 21
-507.3479338261425
 31
0.0
  0
LINE
  5
2B1
330
2AF
100
AcDbEntity
  8
1
  6
Continuous
 62
     2
100
AcDbLine
 10
146.9142145481432
 20
-417.3478993261255
 30
0.0
 11
130.414231793599
 21
-417.3478993261255
 31
0.0
  0
LINE
  5
2B2
330
2AF
100
AcDbEntity
  8
1
  6
Continuous
 62
     2
100
AcDbLine
 10
146.9142490481604
 20
-507.3479338261425
 30
0.0
 11
130.414231793599
 21
-507.3479338261425
 31
0.0
  0
LINE
  5
2B3
330
2AF
100
AcDbEntity
  8
1
 62
     2
100
AcDbLine
 10
131.914231793599
 20
-507.3479338261425
 30
0.0
 11
131.2443588125212
 21
-504.8479338261425
 31
0.0
  0
LINE
  5
2B4
330
2AF
100
AcDbEntity
  8
1
 62
     2
100
AcDbLine
 10
131.914231793599
 20
-507.3479338261425
 30
0.0
 11
132.5841047746768
 21
-504.8479338261425
 31
0.0
  0
LINE
  5
2B5
330
2AF
100
AcDbEntity
  8
1
 62
     2
100
AcDbLine
 10
131.914231793599
 20
-417.3478993261255
 30
0.0
 11
132.5841047746768
 21
-419.8478993261255
 31
0.0
  0
LINE
  5
2B6
330
2AF
100
AcDbEntity
  8
1
 62
     2
100
AcDbLine
 10
131.914231793599
 20
-417.3478993261255
 30
0.0
 11
131.2443588125212
 21
-419.8478993261255
 31
0.0
  0
MTEXT
  5
2B7
330
2AF
100
AcDbEntity
  8
1
 62
     2
100
AcDbMText
 10
130.914231793599
 20
-464.1929165761341
 30
0.0
 40
2.5
 41
0.0
 71
     7
 72
     1
  1
90
  7
CONVERTER_11
 11
0.0
 21
1.0
 31
0.0
 73
     1
 44
0.60024009603842
  0
ENDBLK
  5
2B9
330
2AF
100
AcDbEntity
  8
0
100
AcDbBlockEnd
  0
ENDSEC
  0
SECTION
  2
ENTITIES
  0
INSERT
  5
4A
330
1F
100
AcDbEntity
  8
1
100
AcDbBlockReference
  2
_D14
 10
0.0
 20
0.0
 30
0.0
  0
POINT
  5
52
330
1F
100
AcDbEntity
  8
1
 62
     7
100
AcDbPoint
 10
429.227729108498
 20
-312.84783032609
 30
0.0
  0
POINT
  5
53
330
1F
100
AcDbEntity
  8
1
 62
     7
100
AcDbPoint
 10
430.827729108498
 20
-312.84783032609
 30
0.0
  0
POINT
  5
54
330
1F
100
AcDbEntity
  8
1
 62
     7
100
AcDbPoint
 10
329.07096864529
 20
-397.847830326089
 30
0.0
  0
POINT
  5
55
330
1F
100
AcDbEntity
  8
1
 62
     7
100
AcDbPoint
 10
329.07096864529
 20
-312.847830326089
 30
0.0
  0
POINT
  5
56
330
1F
100
AcDbEntity
  8
1
 62
     7
100
AcDbPoint
 10
366.964151234346
 20
-388.697855826108
 30
0.0
  0
POINT
  5
57
330
1F
100
AcDbEntity
  8
1
 62
     7
100
AcDbPoint
 10
367.102857535294
 20
-321.997873826108
 30
0.0
  0
POINT
  5
58
330
1F
100
AcDbEntity
  8
1
 62
     7
100
AcDbPoint
 10
413.07096864529
 20
-313.847830326089
 30
0.0
  0
POINT
  5
59
330
1F
100
AcDbEntity
  8
1
 62
     7
100
AcDbPoint
 10
328.07096864529
 20
-313.847830326089
 30
0.0
  0
POINT
  5
5A
330
1F
100
AcDbEntity
  8
1
 62
     7
100
AcDbPoint
 10
403.92095964529
 20
-351.879753716112
 30
0.0
  0
POINT
  5
5B
330
1F
100
AcDbEntity
  8
1
 62
     7
100
AcDbPoint
 10
337.22097764529
 20
-351.741047415164
 30
0.0
  0
POINT
  5
5C
330
1F
100
AcDbEntity
  8
1
 62
     7
100
AcDbPoint
 10
145.914260548167
 20
-357.17060341433
 30
0.0
  0
POINT
  5
5D
330
1F
100
AcDbEntity
  8
1
 62
     7
100
AcDbPoint
 10
189.61419154813
 20
-300.288015682854
 30
0.0
  0
POINT
  5
5E
330
1F
100
AcDbEntity
  8
1
 62
     7
100
AcDbPoint
 10
145.914260548167
 20
-357.17060341433
 30
0.0
  0
POINT
  5
5F
330
1F
100
AcDbEntity
  8
1
 62
     7
100
AcDbPoint
 10
165.91424904816
 20
-388.87060341433
 30
0.0
  0
POINT
  5
60
330
1F
100
AcDbEntity
  8
1
 62
     7
100
AcDbPoint
 10
149.473024209356
 20
-364.67060341433
 30
0.0
  0
POINT
  5
61
330
1F
100
AcDbEntity
  8
1
 62
     7
100
AcDbPoint
 10
145.914260548167
 20
-357.17060341433
 30
0.0
  0
POINT
  5
62
330
1F
100
AcDbEntity
  8
1
 62
     7
100
AcDbPoint
 10
235.914283548178
 20
-418.847864826109
 30
0.0
  0
POINT
  5
63
330
1F
100
AcDbEntity
  8
1
 62
     7
100
AcDbPoint
 10
145.914214548143
 20
-418.847899326126
 30
0.0
  0
POINT
  5
64
330
1F
100
AcDbEntity
  8
1
 62
     7
100
AcDbPoint
 10
229.91424904816
 20
-423.847864826108
 30
0.0
  0
POINT
  5
65
330
1F
100
AcDbEntity
  8
1
 62
     7
100
AcDbPoint
 10
151.91424904816
 20
-423.847864826108
 30
0.0
  0
POINT
  5
66
330
1F
100
AcDbEntity
  8
1
 62
     7
100
AcDbPoint
 10
152.41424904816
 20
-423.347864826108
 30
0.0
  0
POINT
  5
67
330
1F
100
AcDbEntity
  8
1
 62
     7
100
AcDbPoint
 10
152.41424904816
 20
-501.347864826108
 30
0.0
  0
POINT
  5
68
330
1F
100
AcDbEntity
  8
1
 62
     7
100
AcDbPoint
 10
147.414214548143
 20
-417.347899326126
 30
0.0
  0
POINT
  5
69
330
1F
100
AcDbEntity
  8
1
 62
     7
100
AcDbPoint
 10
147.41424904816
 20
-507.347933826143
 30
0.0
  0
LINE
  5
6A
330
1F
100
AcDbEntity
  8
1
  6
Continuous
 62
     7
100
AcDbLine
 10
360.931455104436
 20
-424.0
 30
0.0
 11
407.8543018128389
 21
-424.0
 31
0.0
  0
LINE
  5
6B
330
1F
100
AcDbEntity
  8
1
  6
Continuous
 62
     2
100
AcDbLine
 10
443.827729108498
 20
-302.347864826108
 30
0.0
 11
445.65785612742
 21
-300.517737807186
 31
0.0
  0
LINE
  5
6C
330
1F
100
AcDbEntity
  8
1
  6
Continuous
 62
     2
100
AcDbLine
 10
443.827729108498
 20
-302.347864826108
 30
0.0
 11
444.497602089576
 21
-299.847864826108
 31
0.0
  0
LINE
  5
6D
330
1F
100
AcDbEntity
  8
1
  6
Continuous
 62
     2
100
AcDbLine
 10
371.67096864529
 20
-390.603111714433
 30
0.0
 11
372.340841626368
 21
-393.103111714433
 31
0.0
  0
LINE
  5
6E
330
1F
100
AcDbEntity
  8
1
  6
Continuous
 62
     2
100
AcDbLine
 10
371.67096864529
 20
-390.603111714433
 30
0.0
 11
373.501095664212
 21
-392.433238733356
 31
0.0
  0
LINE
  5
6F
330
1F
100
AcDbEntity
  8
1
  6
DOT_CENTER
 62
     2
100
AcDbLine
 10
345.57096864529
 20
-355.347864826108
 30
0.0
 11
416.207024700824
 21
-355.347864826108
 31
0.0
  0
LINE
  5
70
330
1F
100
AcDbEntity
  8
1
  6
Continuous
 62
     7
100
AcDbLine
 10
345.57096864529
 20
-335.347864826108
 30
0.0
 11
345.57096864529
 21
-355.347864826108
 31
0.0
  0
LINE
  5
71
330
1F
100
AcDbEntity
  8
1
  6
DOT_CENTER
 62
     2
100
AcDbLine
 10
370.57096864529
 20
-330.347864826108
 30
0.0
 11
370.57096864529
 21
-380.67990694006
 31
0.0
  0
LINE
  5
72
330
1F
100
AcDbEntity
  8
1
  6
Continuous
 62
     7
100
AcDbLine
 10
350.57096864529
 20
-330.347864826108
 30
0.0
 11
370.57096864529
 21
-330.347864826108
 31
0.0
  0
LINE
  5
73
330
1F
100
AcDbEntity
  8
1
  6
Continuous
 62
     7
100
AcDbLine
 10
295.056856505047
 20
-456.44788782612
 30
0.0
 11
295.056856505047
 21
-460.24788782612
 31
0.0
  0
LINE
  5
74
330
1F
100
AcDbEntity
  8
1
  6
Continuous
 62
     7
100
AcDbLine
 10
294.556856505047
 20
-455.94788782612
 30
0.0
 11
293.056856505047
 21
-455.94788782612
 31
0.0
  0
LINE
  5
75
330
1F
100
AcDbEntity
  8
1
  6
Continuous
 62
     7
100
AcDbLine
 10
294.556856505047
 20
-460.74788782612
 30
0.0
 11
293.056856505047
 21
-460.74788782612
 31
0.0
  0
LINE
  5
76
330
1F
100
AcDbEntity
  8
1
  6
DOTTED
 62
     7
100
AcDbLine
 10
349.939444236523
 20
-465.047899326126
 30
0.0
 11
349.939444236523
 21
-467.647899326126
 31
0.0
  0
LINE
  5
77
330
1F
100
AcDbEntity
  8
1
  6
DOTTED
 62
     7
100
AcDbLine
 10
349.939444236523
 20
-467.647864826108
 30
0.0
 11
315.886469002945
 21
-467.647864826108
 31
0.0
  0
LINE
  5
78
330
1F
100
AcDbEntity
  8
1
  6
DOTTED
 62
     7
100
AcDbLine
 10
349.939444236523
 20
-465.047864826108
 30
0.0
 11
315.508019875248
 21
-465.047864826108
 31
0.0
  0
LINE
  5
79
330
1F
100
AcDbEntity
  8
1
  6
DOTTED
 62
     7
100
AcDbLine
 10
300.056856505047
 20
-467.647899326126
 30
0.0
 11
313.886469002945
 21
-467.647899326126
 31
0.0
  0
LINE
  5
7A
330
1F
100
AcDbEntity
  8
1
  6
DOTTED
 62
     7
100
AcDbLine
 10
300.056856505047
 20
-465.047899326126
 30
0.0
 11
313.508019875248
 21
-465.047899326126
 31
0.0
  0
LINE
  5
7B
330
1F
100
AcDbEntity
  8
1
  6
DOTTED
 62
     7
100
AcDbLine
 10
293.056856505047
 20
-469.047899326126
 30
0.0
 11
295.056856505047
 21
-469.047899326126
 31
0.0
  0
LINE
  5
7C
330
1F
100
AcDbEntity
  8
1
  6
DOTTED
 62
     7
100
AcDbLine
 10
300.056856505047
 20
-467.947899326126
 30
0.0
 11
296.056856505047
 21
-467.947899326126
 31
0.0
  0
LINE
  5
7D
330
1F
100
AcDbEntity
  8
1
  6
DOTTED
 62
     7
100
AcDbLine
 10
300.056856505047
 20
-464.747899326126
 30
0.0
 11
300.056856505047
 21
-467.947899326126
 31
0.0
  0
LINE
  5
7E
330
1F
100
AcDbEntity
  8
1
  6
DOTTED
 62
     7
100
AcDbLine
 10
300.056856505047
 20
-464.747899326126
 30
0.0
 11
296.056856505047
 21
-464.747899326126
 31
0.0
  0
LINE
  5
7F
330
1F
100
AcDbEntity
  8
1
  6
DOTTED
 62
     7
100
AcDbLine
 10
295.056856505047
 20
-463.647899326126
 30
0.0
 11
293.056856505047
 21
-463.647899326126
 31
0.0
  0
LINE
  5
80
330
1F
100
AcDbEntity
  8
1
  6
Continuous
 62
     7
100
AcDbLine
 10
295.056856505047
 20
-452.447893576123
 30
0.0
 11
295.056856505047
 21
-456.44788782612
 31
0.0
  0
LINE
  5
81
330
1F
100
AcDbEntity
  8
1
  6
DOTTED
 62
     7
100
AcDbLine
 10
349.939444236523
 20
-469.047882076117
 30
0.0
 11
349.939444236523
 21
-471.647882076117
 31
0.0
  0
LINE
  5
82
330
1F
100
AcDbEntity
  8
1
  6
DOTTED
 62
     7
100
AcDbLine
 10
349.939444236523
 20
-471.647882076117
 30
0.0
 11
315.332251115505
 21
-471.647882076117
 31
0.0
  0
LINE
  5
83
330
1F
100
AcDbEntity
  8
1
  6
DOTTED
 62
     7
100
AcDbLine
 10
349.939444236523
 20
-469.047882076117
 30
0.0
 11
315.844891909139
 21
-469.047882076117
 31
0.0
  0
LINE
  5
84
330
1F
100
AcDbEntity
  8
1
  6
DOTTED
 62
     7
100
AcDbLine
 10
300.056856505047
 20
-471.647882076117
 30
0.0
 11
313.332251115505
 21
-471.647882076117
 31
0.0
  0
LINE
  5
85
330
1F
100
AcDbEntity
  8
1
  6
DOTTED
 62
     7
100
AcDbLine
 10
300.056856505047
 20
-469.047882076117
 30
0.0
 11
313.844891909139
 21
-469.047882076117
 31
0.0
  0
LINE
  5
86
330
1F
100
AcDbEntity
  8
1
  6
DOTTED
 62
     7
100
AcDbLine
 10
300.056856505047
 20
-468.747882076117
 30
0.0
 11
296.056856505047
 21
-468.747882076117
 31
0.0
  0
LINE
  5
87
330
1F
100
AcDbEntity
  8
1
  6
DOTTED
 62
     7
100
AcDbLine
 10
300.056856505047
 20
-471.947882076117
 30
0.0
 11
296.056856505047
 21
-471.947882076117
 31
0.0
  0
LINE
  5
88
330
1F
100
AcDbEntity
  8
1
  6
DOTTED
 62
     7
100
AcDbLine
 10
300.056856505047
 20
-468.747882076117
 30
0.0
 11
300.056856505047
 21
-471.947882076117
 31
0.0
  0
LINE
  5
89
330
1F
100
AcDbEntity
  8
1
  6
Continuous
 62
     7
100
AcDbLine
 10
349.939444236523
 20
-477.047864826108
 30
0.0
 11
349.939444236523
 21
-479.647864826108
 31
0.0
  0
LINE
  5
8A
330
1F
100
AcDbEntity
  8
1
  6
Continuous
 62
     7
100
AcDbLine
 10
349.939444236523
 20
-477.047864826108
 30
0.0
 11
313.369112458792
 21
-477.047864826108
 31
0.0
  0
LINE
  5
8B
330
1F
100
AcDbEntity
  8
1
  6
Continuous
 62
     7
100
AcDbLine
 10
349.939444236523
 20
-479.647864826108
 30
0.0
 11
313.208054691669
 21
-479.647864826108
 31
0.0
  0
LINE
  5
8C
330
1F
100
AcDbEntity
  8
1
  6
Continuous
 62
     7
100
AcDbLine
 10
300.056856505047
 20
-477.047864826108
 30
0.0
 11
311.369112458792
 21
-477.047864826108
 31
0.0
  0
LINE
  5
8D
330
1F
100
AcDbEntity
  8
1
  6
Continuous
 62
     7
100
AcDbLine
 10
300.056856505047
 20
-479.647864826108
 30
0.0
 11
311.208054691669
 21
-479.647864826108
 31
0.0
  0
LINE
  5
8E
330
1F
100
AcDbEntity
  8
1
  6
Continuous
 62
     7
100
AcDbLine
 10
300.056856505047
 20
-476.747864826108
 30
0.0
 11
296.056856505047
 21
-476.747864826108
 31
0.0
  0
LINE
  5
8F
330
1F
100
AcDbEntity
  8
1
  6
Continuous
 62
     7
100
AcDbLine
 10
300.056856505047
 20
-476.747864826108
 30
0.0
 11
300.056856505047
 21
-479.947864826108
 31
0.0
  0
LINE
  5
90
330
1F
100
AcDbEntity
  8
1
  6
Continuous
 62
     7
100
AcDbLine
 10
300.056856505047
 20
-479.947864826108
 30
0.0
 11
296.056856505047
 21
-479.947864826108
 31
0.0
  0
LINE
  5
91
330
1F
100
AcDbEntity
  8
1
  6
Continuous
 62
     7
100
AcDbLine
 10
293.056856505047
 20
-481.047864826108
 30
0.0
 11
295.056856505047
 21
-481.047864826108
 31
0.0
  0
LINE
  5
92
330
1F
100
AcDbEntity
  8
1
  6
Continuous
 62
     7
100
AcDbLine
 10
294.556856505047
 20
-452.74788782612
 30
0.0
 11
293.056856505047
 21
-452.74788782612
 31
0.0
  0
LINE
  5
93
330
1F
100
AcDbEntity
  8
1
  6
Continuous
 62
     7
100
AcDbLine
 10
294.556856505047
 20
-447.94788782612
 30
0.0
 11
293.056856505047
 21
-447.94788782612
 31
0.0
  0
LINE
  5
94
330
1F
100
AcDbEntity
  8
1
  6
Continuous
 62
     7
100
AcDbLine
 10
295.056856505047
 20
-448.44788782612
 30
0.0
 11
295.056856505047
 21
-452.24788782612
 31
0.0
  0
LINE
  5
95
330
1F
100
AcDbEntity
  8
1
  6
DOTTED
 62
     7
100
AcDbLine
 10
173.6141340481
 20
-300.288015682854
 30
0.0
 11
176.2141340481
 21
-300.288015682854
 31
0.0
  0
LINE
  5
96
330
1F
100
AcDbEntity
  8
1
  6
Continuous
 62
     7
100
AcDbLine
 10
181.61419154813
 20
-300.288015682854
 30
0.0
 11
184.21419154813
 21
-300.288015682854
 31
0.0
  0
LINE
  5
97
330
1F
100
AcDbEntity
  8
1
  6
DOTTED
 62
     7
100
AcDbLine
 10
173.61407654807
 20
-300.288015682854
 30
0.0
 11
173.61407654807
 21
-334.164768578313
 31
0.0
  0
LINE
  5
98
330
1F
100
AcDbEntity
  8
1
  6
DOTTED
 62
     7
100
AcDbLine
 10
176.21407654807
 20
-300.288015682854
 30
0.0
 11
176.21407654807
 21
-334.156391172974
 31
0.0
  0
LINE
  5
99
330
1F
100
AcDbEntity
  8
1
  6
Continuous
 62
     7
100
AcDbLine
 10
184.2141340481
 20
-300.288015682854
 30
0.0
 11
184.2141340481
 21
-336.639613710322
 31
0.0
  0
LINE
  5
9A
330
1F
100
AcDbEntity
  8
1
  6
Continuous
 62
     7
100
AcDbLine
 10
181.6141340481
 20
-300.288015682854
 30
0.0
 11
181.6141340481
 21
-335.92673728323
 31
0.0
  0
LINE
  5
9B
330
1F
100
AcDbEntity
  8
1
  6
DOTTED
 62
     7
100
AcDbLine
 10
173.6141340481
 20
-350.17060341433
 30
0.0
 11
173.6141340481
 21
-336.164760974576
 31
0.0
  0
LINE
  5
9C
330
1F
100
AcDbEntity
  8
1
  6
DOTTED
 62
     7
100
AcDbLine
 10
176.2141340481
 20
-350.17060341433
 30
0.0
 11
176.2141340481
 21
-336.156376696806
 31
0.0
  0
LINE
  5
9D
330
1F
100
AcDbEntity
  8
1
  6
Continuous
 62
     7
100
AcDbLine
 10
184.21419154813
 20
-350.17060341433
 30
0.0
 11
184.21419154813
 21
-338.639599234154
 31
0.0
  0
LINE
  5
9E
330
1F
100
AcDbEntity
  8
1
  6
Continuous
 62
     7
100
AcDbLine
 10
181.61419154813
 20
-350.17060341433
 30
0.0
 11
181.61419154813
 21
-337.926729679494
 31
0.0
  0
LINE
  5
9F
330
1F
100
AcDbEntity
  8
1
  6
DOTTED
 62
     7
100
AcDbLine
 10
177.6141340481
 20
-357.17060341433
 30
0.0
 11
177.6141340481
 21
-355.17060341433
 31
0.0
  0
LINE
  5
A0
330
1F
100
AcDbEntity
  8
1
  6
DOTTED
 62
     7
100
AcDbLine
 10
172.2141340481
 20
-355.17060341433
 30
0.0
 11
172.2141340481
 21
-357.17060341433
 31
0.0
  0
LINE
  5
A1
330
1F
100
AcDbEntity
  8
1
  6
DOTTED
 62
     7
100
AcDbLine
 10
173.3141340481
 20
-350.17060341433
 30
0.0
 11
176.5141340481
 21
-350.17060341433
 31
0.0
  0
LINE
  5
A2
330
1F
100
AcDbEntity
  8
1
  6
DOTTED
 62
     7
100
AcDbLine
 10
176.5141340481
 20
-350.17060341433
 30
0.0
 11
176.5141340481
 21
-354.17060341433
 31
0.0
  0
LINE
  5
A3
330
1F
100
AcDbEntity
  8
1
  6
DOTTED
 62
     7
100
AcDbLine
 10
173.3141340481
 20
-350.17060341433
 30
0.0
 11
173.3141340481
 21
-354.17060341433
 31
0.0
  0
LINE
  5
A4
330
1F
100
AcDbEntity
  8
1
  6
Continuous
 62
     7
100
AcDbLine
 10
181.31419154813
 20
-350.17060341433
 30
0.0
 11
181.31419154813
 21
-354.17060341433
 31
0.0
  0
LINE
  5
A5
330
1F
100
AcDbEntity
  8
1
  6
Continuous
 62
     7
100
AcDbLine
 10
184.51419154813
 20
-350.17060341433
 30
0.0
 11
184.51419154813
 21
-354.17060341433
 31
0.0
  0
LINE
  5
A6
330
1F
100
AcDbEntity
  8
1
  6
Continuous
 62
     7
100
AcDbLine
 10
181.31419154813
 20
-350.17060341433
 30
0.0
 11
184.51419154813
 21
-350.17060341433
 31
0.0
  0
LINE
  5
A7
330
1F
100
AcDbEntity
  8
1
  6
Continuous
 62
     7
100
AcDbLine
 10
180.21419154813
 20
-355.17060341433
 30
0.0
 11
180.21419154813
 21
-357.17060341433
 31
0.0
  0
LINE
  5
A8
330
1F
100
AcDbEntity
  8
1
  6
DOTTED
 62
     7
100
AcDbLine
 10
185.61419154813
 20
-357.17060341433
 30
0.0
 11
185.61419154813
 21
-355.17060341433
 31
0.0
  0
LINE
  5
A9
330
1F
100
AcDbEntity
  8
1
  6
Continuous
 62
     2
100
AcDbLine
 10
449.295026782303
 20
-292.878227474974
 30
0.0
 11
530.295026782303
 21
-292.878227474974
 31
0.0
  0
LINE
  5
AA
330
1F
100
AcDbEntity
  8
1
  6
Continuous
 62
     2
100
AcDbLine
 10
379.89516077026
 20
-404.84783032609
 30
0.0
 11
387.89516077026
 21
-404.84783032609
 31
0.0
  0
LINE
  5
AB
330
1F
100
AcDbEntity
  8
1
  6
DOT_CENTER
 62
     2
100
AcDbLine
 10
370.57096864529
 20
-310.701878181846
 30
0.0
 11
370.57096864529
 21
-330.347864826108
 31
0.0
  0
LINE
  5
AC
330
1F
100
AcDbEntity
  8
1
  6
Continuous
 62
     7
100
AcDbLine
 10
427.827729108499
 20
-331.847830326092
 30
0.0
 11
427.827729108498
 21
-334.347830326091
 31
0.0
  0
LINE
  5
AD
330
1F
100
AcDbEntity
  8
1
  6
Continuous
 62
     7
100
AcDbLine
 10
429.227729108496
 20
-329.847830326092
 30
0.0
 11
428.337390489836
 21
-330.676864187959
 31
0.0
  0
LINE
  5
AE
330
1F
100
AcDbEntity
  8
1
  6
Continuous
 62
     7
100
AcDbLine
 10
428.337390489836
 20
-338.018796464224
 30
0.0
 11
429.227729108496
 21
-338.847830326091
 31
0.0
  0
LINE
  5
AF
330
1F
100
AcDbEntity
  8
1
  6
Continuous
 62
     7
100
AcDbLine
 10
427.827729108498
 20
-334.347830326091
 30
0.0
 11
427.827729108499
 21
-336.847830326091
 31
0.0
  0
LINE
  5
B0
330
1F
100
AcDbEntity
  8
1
  6
Continuous
 62
     7
100
AcDbLine
 10
429.227729108496
 20
-329.847830326092
 30
0.0
 11
429.227729108496
 21
-338.847830326091
 31
0.0
  0
LINE
  5
B1
330
1F
100
AcDbEntity
  8
1
  6
Continuous
 62
     7
100
AcDbLine
 10
429.227729108496
 20
-385.847795826074
 30
0.0
 11
429.227729108496
 21
-394.847795826073
 31
0.0
  0
LINE
  5
B2
330
1F
100
AcDbEntity
  8
1
  6
Continuous
 62
     7
100
AcDbLine
 10
430.827729108498
 20
-312.84783032609
 30
0.0
 11
430.827729108498
 21
-397.84783032609
 31
0.0
  0
LINE
  5
B3
330
1F
100
AcDbEntity
  8
1
  6
Continuous
 62
     7
100
AcDbLine
 10
430.827729108498
 20
-397.84783032609
 30
0.0
 11
429.227729108498
 21
-397.84783032609
 31
0.0
  0
LINE
  5
B4
330
1F
100
AcDbEntity
  8
1
  6
Continuous
 62
     7
100
AcDbLine
 10
429.227729108498
 20
-312.84783032609
 30
0.0
 11
430.827729108498
 21
-312.84783032609
 31
0.0
  0
LINE
  5
B5
330
1F
100
AcDbEntity
  8
1
  6
Continuous
 62
     7
100
AcDbLine
 10
427.827729108498
 20
-390.347795826073
 30
0.0
 11
427.827729108499
 21
-392.847795826073
 31
0.0
  0
LINE
  5
B6
330
1F
100
AcDbEntity
  8
1
  6
Continuous
 62
     7
100
AcDbLine
 10
429.227729108496
 20
-385.847795826074
 30
0.0
 11
429.227729108498
 21
-312.84783032609
 31
0.0
  0
LINE
  5
B7
330
1F
100
AcDbEntity
  8
1
  6
Continuous
 62
     7
100
AcDbLine
 10
429.227729108496
 20
-394.847795826073
 30
0.0
 11
429.227729108498
 21
-397.84783032609
 31
0.0
  0
LINE
  5
B8
330
1F
100
AcDbEntity
  8
1
  6
Continuous
 62
     7
100
AcDbLine
 10
428.337390489836
 20
-394.018761964206
 30
0.0
 11
429.227729108496
 21
-394.847795826073
 31
0.0
  0
LINE
  5
B9
330
1F
100
AcDbEntity
  8
1
  6
Continuous
 62
     7
100
AcDbLine
 10
429.227729108496
 20
-385.847795826074
 30
0.0
 11
428.337390489836
 21
-386.676829687941
 31
0.0
  0
LINE
  5
BA
330
1F
100
AcDbEntity
  8
1
  6
Continuous
 62
     7
100
AcDbLine
 10
427.827729108499
 20
-387.847795826074
 30
0.0
 11
427.827729108498
 21
-390.347795826073
 31
0.0
  0
LINE
  5
BB
330
1F
100
AcDbEntity
  8
1
  6
DOT_CENTER
 62
     2
100
AcDbLine
 10
370.57096864529
 20
-383.17990694006
 30
0.0
 11
370.57096864529
 21
-400.152027081
 31
0.0
  0
LINE
  5
BC
330
1F
100
AcDbEntity
  8
1
  6
Continuous
 62
     2
100
AcDbLine
 10
403.92095964529
 20
-351.879753716112
 30
0.0
 11
403.92095964529
 21
-358.954682237052
 31
0.0
  0
LINE
  5
BD
330
1F
100
AcDbEntity
  8
1
  6
Continuous
 62
     2
100
AcDbLine
 10
374.039079755286
 20
-388.697855826108
 30
0.0
 11
366.964151234346
 21
-388.697855826108
 31
0.0
  0
LINE
  5
BE
330
1F
100
AcDbEntity
  8
1
  6
Continuous
 62
     2
100
AcDbLine
 10
337.22097764529
 20
-358.815975936104
 30
0.0
 11
337.22097764529
 21
-351.741047415164
 31
0.0
  0
LINE
  5
BF
330
1F
100
AcDbEntity
  8
1
  6
Continuous
 62
     2
100
AcDbLine
 10
367.102857535294
 20
-321.997873826108
 30
0.0
 11
374.177786056234
 21
-321.997873826108
 31
0.0
  0
LINE
  5
C0
330
1F
100
AcDbEntity
  8
1
  6
DOT_CENTER
 62
     2
100
AcDbLine
 10
325.061528235264
 20
-355.347864826108
 30
0.0
 11
345.57096864529
 21
-355.347864826108
 31
0.0
  0
LINE
  5
C1
330
1F
100
AcDbEntity
  8
1
  6
Continuous
 62
     7
100
AcDbLine
 10
329.07096864529
 20
-312.847830326089
 30
0.0
 11
412.07096864529
 21
-312.84783032609
 31
0.0
  0
LINE
  5
C2
330
1F
100
AcDbEntity
  8
1
  6
Continuous
 62
     7
100
AcDbLine
 10
412.07096864529
 20
-397.84783032609
 30
0.0
 11
329.07096864529
 21
-397.847830326089
 31
0.0
  0
LINE
  5
C3
330
1F
100
AcDbEntity
  8
1
  6
Continuous
 62
     7
100
AcDbLine
 10
328.07096864529
 20
-396.84783032609
 30
0.0
 11
328.07096864529
 21
-313.847830326089
 31
0.0
  0
LINE
  5
C4
330
1F
100
AcDbEntity
  8
1
  6
Continuous
 62
     7
100
AcDbLine
 10
413.07096864529
 20
-313.847830326089
 30
0.0
 11
413.070968645289
 21
-396.84783032609
 31
0.0
  0
LINE
  5
C5
330
1F
100
AcDbEntity
  8
0
  6
PHANTOM
 62
     2
100
AcDbLine
 10
443.827729108498
 20
-408.347864826108
 30
0.0
 11
443.827729108498
 21
-302.347864826108
 31
0.0
  0
LINE
  5
C6
330
1F
100
AcDbEntity
  8
0
  6
DOTTED
 62
     2
100
AcDbLine
 10
435.427705108498
 20
-394.847864826108
 30
0.0
 11
439.227723108498
 21
-394.847864826108
 31
0.0
  0
LINE
  5
C7
330
1F
100
AcDbEntity
  8
0
  6
PHANTOM
 62
     2
100
AcDbLine
 10
430.827729108498
 20
-390.247858826109
 30
0.0
 11
430.827729108498
 21
-320.447870826109
 31
0.0
  0
LINE
  5
C8
330
1F
100
AcDbEntity
  8
0
  6
PHANTOM
 62
     2
100
AcDbLine
 10
442.227723108498
 20
-408.347864826108
 30
0.0
 11
443.827729108498
 21
-408.347864826108
 31
0.0
  0
LINE
  5
C9
330
1F
100
AcDbEntity
  8
0
  6
PHANTOM
 62
     2
100
AcDbLine
 10
442.227723108498
 20
-408.347864826108
 30
0.0
 11
442.227723108498
 21
-355.347864826108
 31
0.0
  0
LINE
  5
CA
330
1F
100
AcDbEntity
  8
0
  6
DOTTED
 62
     2
100
AcDbLine
 10
435.427705108498
 20
-315.847864826108
 30
0.0
 11
439.227723108498
 21
-315.847864826108
 31
0.0
  0
LINE
  5
CB
330
1F
100
AcDbEntity
  8
0
  6
PHANTOM
 62
     2
100
AcDbLine
 10
442.227723108498
 20
-302.347864826108
 30
0.0
 11
443.827729108498
 21
-302.347864826108
 31
0.0
  0
LINE
  5
CC
330
1F
100
AcDbEntity
  8
0
  6
PHANTOM
 62
     2
100
AcDbLine
 10
442.227723108498
 20
-302.347864826108
 30
0.0
 11
442.227723108498
 21
-355.347864826108
 31
0.0
  0
LINE
  5
CD
330
1F
100
AcDbEntity
  8
1
  6
DOTTED
 62
     7
100
AcDbLine
 10
300.056856505047
 20
-472.747864826108
 30
0.0
 11
296.056856505047
 21
-472.747864826108
 31
0.0
  0
LINE
  5
CE
330
1F
100
AcDbEntity
  8
1
  6
DOTTED
 62
     7
100
AcDbLine
 10
300.056856505047
 20
-475.947864826108
 30
0.0
 11
296.056856505047
 21
-475.947864826108
 31
0.0
  0
LINE
  5
CF
330
1F
100
AcDbEntity
  8
1
  6
DOTTED
 62
     7
100
AcDbLine
 10
300.056856505047
 20
-472.747864826108
 30
0.0
 11
300.056856505047
 21
-475.947864826108
 31
0.0
  0
LINE
  5
D0
330
1F
100
AcDbEntity
  8
1
  6
DOTTED
 62
     7
100
AcDbLine
 10
295.056856505047
 20
-471.647864826108
 30
0.0
 11
293.056856505047
 21
-471.647864826108
 31
0.0
  0
LINE
  5
D1
330
1F
100
AcDbEntity
  8
1
  6
DOTTED
 62
     7
100
AcDbLine
 10
293.056856505047
 20
-477.047864826108
 30
0.0
 11
295.056856505047
 21
-477.047864826108
 31
0.0
  0
LINE
  5
D2
330
1F
100
AcDbEntity
  8
1
  6
DOTTED
 62
     7
100
AcDbLine
 10
300.056856505047
 20
-475.647864826108
 30
0.0
 11
311.697764637273
 21
-475.647864826108
 31
0.0
  0
LINE
  5
D3
330
1F
100
AcDbEntity
  8
1
  6
DOTTED
 62
     7
100
AcDbLine
 10
300.056856505047
 20
-473.047864826108
 30
0.0
 11
312.79267203191
 21
-473.047864826108
 31
0.0
  0
LINE
  5
D4
330
1F
100
AcDbEntity
  8
1
  6
DOTTED
 62
     7
100
AcDbLine
 10
349.939444236523
 20
-473.047864826108
 30
0.0
 11
349.939444236523
 21
-475.647864826108
 31
0.0
  0
LINE
  5
D5
330
1F
100
AcDbEntity
  8
1
  6
DOTTED
 62
     7
100
AcDbLine
 10
349.939444236523
 20
-475.647864826108
 30
0.0
 11
313.697764637273
 21
-475.647864826108
 31
0.0
  0
LINE
  5
D6
330
1F
100
AcDbEntity
  8
1
  6
DOTTED
 62
     7
100
AcDbLine
 10
349.939444236523
 20
-473.047864826108
 30
0.0
 11
314.79267203191
 21
-473.047864826108
 31
0.0
  0
LINE
  5
D7
330
1F
100
AcDbEntity
  8
1
  6
Continuous
 62
     7
100
AcDbLine
 10
295.056856505047
 20
-460.24788782612
 30
0.0
 11
295.056856505047
 21
-463.647899326126
 31
0.0
  0
LINE
  5
D8
330
1F
100
AcDbEntity
  8
1
  6
Continuous
 62
     7
100
AcDbLine
 10
295.056856505047
 20
-453.04788782612
 30
0.0
 11
295.056856505047
 21
-456.44788782612
 31
0.0
  0
LINE
  5
D9
330
1F
100
AcDbEntity
  8
1
  6
Continuous
 62
     7
100
AcDbLine
 10
189.61419154813
 20
-300.288015682854
 30
0.0
 11
189.61419154813
 21
-336.645734923021
 31
0.0
  0
LINE
  5
DA
330
1F
100
AcDbEntity
  8
1
  6
Continuous
 62
     7
100
AcDbLine
 10
192.21419154813
 20
-300.288015682854
 30
0.0
 11
192.21419154813
 21
-336.14825448436
 31
0.0
  0
LINE
  5
DB
330
1F
100
AcDbEntity
  8
1
  6
Continuous
 62
     7
100
AcDbLine
 10
200.214226048148
 20
-300.288015682854
 30
0.0
 11
200.214226048148
 21
-334.355992893527
 31
0.0
  0
LINE
  5
DC
330
1F
100
AcDbEntity
  8
1
  6
Continuous
 62
     7
100
AcDbLine
 10
197.614226048148
 20
-300.288015682854
 30
0.0
 11
197.614226048148
 21
-334.505562282396
 31
0.0
  0
LINE
  5
DD
330
1F
100
AcDbEntity
  8
1
  6
DOTTED
 62
     7
100
AcDbLine
 10
205.614260548166
 20
-300.288015682854
 30
0.0
 11
205.614260548166
 21
-335.927607475944
 31
0.0
  0
LINE
  5
DE
330
1F
100
AcDbEntity
  8
1
  6
DOTTED
 62
     7
100
AcDbLine
 10
208.214260548166
 20
-300.288015682854
 30
0.0
 11
208.214260548166
 21
-336.784026910467
 31
0.0
  0
LINE
  5
DF
330
1F
100
AcDbEntity
  8
1
  6
DOTTED
 62
     7
100
AcDbLine
 10
205.614260548166
 20
-300.288015682854
 30
0.0
 11
208.214260548166
 21
-300.288015682854
 31
0.0
  0
LINE
  5
E0
330
1F
100
AcDbEntity
  8
1
  6
Continuous
 62
     7
100
AcDbLine
 10
197.614260548166
 20
-300.288015682854
 30
0.0
 11
200.214260548166
 21
-300.288015682854
 31
0.0
  0
LINE
  5
E1
330
1F
100
AcDbEntity
  8
1
  6
Continuous
 62
     7
100
AcDbLine
 10
189.61424904816
 20
-300.288015682854
 30
0.0
 11
192.21424904816
 21
-300.288015682854
 31
0.0
  0
LINE
  5
E2
330
1F
100
AcDbEntity
  8
1
  6
Continuous
 62
     7
100
AcDbLine
 10
193.61424904816
 20
-357.17060341433
 30
0.0
 11
193.61424904816
 21
-355.17060341433
 31
0.0
  0
LINE
  5
E3
330
1F
100
AcDbEntity
  8
1
  6
Continuous
 62
     7
100
AcDbLine
 10
188.21424904816
 20
-355.17060341433
 30
0.0
 11
188.21424904816
 21
-357.17060341433
 31
0.0
  0
LINE
  5
E4
330
1F
100
AcDbEntity
  8
1
  6
Continuous
 62
     7
100
AcDbLine
 10
189.61424904816
 20
-350.17060341433
 30
0.0
 11
189.61424904816
 21
-338.645727319285
 31
0.0
  0
LINE
  5
E5
330
1F
100
AcDbEntity
  8
1
  6
Continuous
 62
     7
100
AcDbLine
 10
192.21424904816
 20
-350.17060341433
 30
0.0
 11
192.21424904816
 21
-338.148240008192
 31
0.0
  0
LINE
  5
E6
330
1F
100
AcDbEntity
  8
1
  6
Continuous
 62
     7
100
AcDbLine
 10
189.31424904816
 20
-350.17060341433
 30
0.0
 11
192.51424904816
 21
-350.17060341433
 31
0.0
  0
LINE
  5
E7
330
1F
100
AcDbEntity
  8
1
  6
Continuous
 62
     7
100
AcDbLine
 10
192.51424904816
 20
-350.17060341433
 30
0.0
 11
192.51424904816
 21
-354.17060341433
 31
0.0
  0
LINE
  5
E8
330
1F
100
AcDbEntity
  8
1
  6
Continuous
 62
     7
100
AcDbLine
 10
189.31424904816
 20
-350.17060341433
 30
0.0
 11
189.31424904816
 21
-354.17060341433
 31
0.0
  0
LINE
  5
E9
330
1F
100
AcDbEntity
  8
1
  6
DOTTED
 62
     7
100
AcDbLine
 10
205.614260548166
 20
-350.17060341433
 30
0.0
 11
205.614260548166
 21
-337.927607475944
 31
0.0
  0
LINE
  5
EA
330
1F
100
AcDbEntity
  8
1
  6
DOTTED
 62
     7
100
AcDbLine
 10
208.214260548166
 20
-350.17060341433
 30
0.0
 11
208.214260548166
 21
-338.784026910466
 31
0.0
  0
LINE
  5
EB
330
1F
100
AcDbEntity
  8
1
  6
DOTTED
 62
     7
100
AcDbLine
 10
209.614260548166
 20
-357.17060341433
 30
0.0
 11
209.614260548166
 21
-355.17060341433
 31
0.0
  0
LINE
  5
EC
330
1F
100
AcDbEntity
  8
1
  6
DOTTED
 62
     7
100
AcDbLine
 10
204.214260548166
 20
-355.17060341433
 30
0.0
 11
204.214260548166
 21
-357.17060341433
 31
0.0
  0
LINE
  5
ED
330
1F
100
AcDbEntity
  8
1
  6
DOTTED
 62
     7
100
AcDbLine
 10
205.314260548166
 20
-350.17060341433
 30
0.0
 11
208.514260548166
 21
-350.17060341433
 31
0.0
  0
LINE
  5
EE
330
1F
100
AcDbEntity
  8
1
  6
DOTTED
 62
     7
100
AcDbLine
 10
208.514260548166
 20
-350.17060341433
 30
0.0
 11
208.514260548166
 21
-354.17060341433
 31
0.0
  0
LINE
  5
EF
330
1F
100
AcDbEntity
  8
1
  6
DOTTED
 62
     7
100
AcDbLine
 10
205.314260548166
 20
-350.17060341433
 30
0.0
 11
205.314260548166
 21
-354.17060341433
 31
0.0
  0
LINE
  5
F0
330
1F
100
AcDbEntity
  8
1
  6
Continuous
 62
     7
100
AcDbLine
 10
196.214260548166
 20
-355.17060341433
 30
0.0
 11
196.214260548166
 21
-357.17060341433
 31
0.0
  0
LINE
  5
F1
330
1F
100
AcDbEntity
  8
1
  6
Continuous
 62
     7
100
AcDbLine
 10
201.614260548166
 20
-357.17060341433
 30
0.0
 11
205.914295048278
 21
-357.17060341433
 31
0.0
  0
LINE
  5
F2
330
1F
100
AcDbEntity
  8
1
  6
Continuous
 62
     7
100
AcDbLine
 10
201.614260548166
 20
-357.17060341433
 30
0.0
 11
201.614260548166
 21
-355.17060341433
 31
0.0
  0
LINE
  5
F3
330
1F
100
AcDbEntity
  8
1
  6
Continuous
 62
     7
100
AcDbLine
 10
197.314260548166
 20
-350.17060341433
 30
0.0
 11
197.314260548166
 21
-354.17060341433
 31
0.0
  0
LINE
  5
F4
330
1F
100
AcDbEntity
  8
1
  6
Continuous
 62
     7
100
AcDbLine
 10
200.514260548166
 20
-350.17060341433
 30
0.0
 11
200.514260548166
 21
-354.17060341433
 31
0.0
  0
LINE
  5
F5
330
1F
100
AcDbEntity
  8
1
  6
Continuous
 62
     7
100
AcDbLine
 10
197.314260548166
 20
-350.17060341433
 30
0.0
 11
200.514260548166
 21
-350.17060341433
 31
0.0
  0
LINE
  5
F6
330
1F
100
AcDbEntity
  8
1
  6
Continuous
 62
     7
100
AcDbLine
 10
200.214260548166
 20
-350.17060341433
 30
0.0
 11
200.214260548166
 21
-336.355992893527
 31
0.0
  0
LINE
  5
F7
330
1F
100
AcDbEntity
  8
1
  6
Continuous
 62
     7
100
AcDbLine
 10
197.614260548166
 20
-350.17060341433
 30
0.0
 11
197.614260548166
 21
-336.505562282396
 31
0.0
  0
LINE
  5
F8
330
1F
100
AcDbEntity
  8
1
  6
Continuous
 62
     7
100
AcDbLine
 10
148.851657865773
 20
-421.785308143739
 30
0.0
 11
148.851657865773
 21
-502.910490508513
 31
0.0
  0
LINE
  5
F9
330
1F
100
AcDbEntity
  8
1
  6
Continuous
 62
     7
100
AcDbLine
 10
145.914214548143
 20
-418.847899326126
 30
0.0
 11
145.91424904816
 21
-505.847933826143
 31
0.0
  0
LINE
  5
FA
330
1F
100
AcDbEntity
  8
1
  6
Continuous
 62
     7
100
AcDbLine
 10
147.41424904816
 20
-507.347933826143
 30
0.0
 11
234.414283548178
 21
-507.347899326126
 31
0.0
  0
LINE
  5
FB
330
1F
100
AcDbEntity
  8
1
  6
Continuous
 62
     7
100
AcDbLine
 10
150.351657865773
 20
-504.410490508513
 30
0.0
 11
231.476840230548
 21
-504.410490508513
 31
0.0
  0
LINE
  5
FC
330
1F
100
AcDbEntity
  8
1
  6
Continuous
 62
     7
100
AcDbLine
 10
235.914283548178
 20
-505.847899326126
 30
0.0
 11
235.914283548178
 21
-418.847864826109
 31
0.0
  0
LINE
  5
FD
330
1F
100
AcDbEntity
  8
1
  6
Continuous
 62
     7
100
AcDbLine
 10
232.976840230548
 20
-502.910490508513
 30
0.0
 11
232.976840230548
 21
-421.785308143739
 31
0.0
  0
LINE
  5
FE
330
1F
100
AcDbEntity
  8
1
  6
Continuous
 62
     7
100
AcDbLine
 10
231.476840230548
 20
-420.285308143739
 30
0.0
 11
150.351657865773
 21
-420.285308143739
 31
0.0
  0
LINE
  5
FF
330
1F
100
AcDbEntity
  8
1
  6
Continuous
 62
     7
100
AcDbLine
 10
234.41424904816
 20
-417.347830326091
 30
0.0
 11
147.414214548143
 21
-417.347899326126
 31
0.0
  0
LINE
  5
100
330
1F
100
AcDbEntity
  8
1
  6
Continuous
 62
     7
100
AcDbLine
 10
277.856856505047
 20
-430.347864826109
 30
0.0
 11
280.856856505047
 21
-430.347864826109
 31
0.0
  0
LINE
  5
101
330
1F
100
AcDbEntity
  8
1
  6
Continuous
 62
     7
100
AcDbLine
 10
280.856856505047
 20
-460.347864826109
 30
0.0
 11
277.856856505047
 21
-460.347864826109
 31
0.0
  0
LINE
  5
102
330
1F
100
AcDbEntity
  8
1
  6
Continuous
 62
     7
100
AcDbLine
 10
276.856856505047
 20
-431.347864826109
 30
0.0
 11
276.856856505047
 21
-459.347864826109
 31
0.0
  0
LINE
  5
103
330
1F
100
AcDbEntity
  8
1
  6
Continuous
 62
     7
100
AcDbLine
 10
281.856856505047
 20
-431.347864826108
 30
0.0
 11
281.856856505047
 21
-459.347864826109
 31
0.0
  0
LINE
  5
104
330
1F
100
AcDbEntity
  8
1
  6
Continuous
 62
     7
100
AcDbLine
 10
272.856856505047
 20
-431.347864826109
 30
0.0
 11
272.856856505047
 21
-459.347864826109
 31
0.0
  0
LINE
  5
105
330
1F
100
AcDbEntity
  8
1
  6
Continuous
 62
     7
100
AcDbLine
 10
267.856856505047
 20
-431.347864826109
 30
0.0
 11
267.856856505047
 21
-459.347864826109
 31
0.0
  0
LINE
  5
106
330
1F
100
AcDbEntity
  8
1
  6
Continuous
 62
     7
100
AcDbLine
 10
271.856856505047
 20
-460.347864826109
 30
0.0
 11
268.856856505047
 21
-460.347864826109
 31
0.0
  0
LINE
  5
107
330
1F
100
AcDbEntity
  8
1
  6
Continuous
 62
     7
100
AcDbLine
 10
268.856856505047
 20
-430.347864826109
 30
0.0
 11
271.856856505047
 21
-430.347864826109
 31
0.0
  0
LINE
  5
108
330
1F
100
AcDbEntity
  8
1
  6
Continuous
 62
     7
100
AcDbLine
 10
271.856856505047
 20
-494.347864826109
 30
0.0
 11
268.856856505047
 21
-494.347864826109
 31
0.0
  0
LINE
  5
109
330
1F
100
AcDbEntity
  8
1
  6
Continuous
 62
     7
100
AcDbLine
 10
268.856856505047
 20
-464.347864826109
 30
0.0
 11
271.856856505047
 21
-464.347864826109
 31
0.0
  0
LINE
  5
10A
330
1F
100
AcDbEntity
  8
1
  6
Continuous
 62
     7
100
AcDbLine
 10
267.856856505047
 20
-465.347864826109
 30
0.0
 11
267.856856505047
 21
-493.347864826109
 31
0.0
  0
LINE
  5
10B
330
1F
100
AcDbEntity
  8
1
  6
Continuous
 62
     7
100
AcDbLine
 10
272.856856505047
 20
-465.347864826109
 30
0.0
 11
272.856856505047
 21
-493.347864826109
 31
0.0
  0
LINE
  5
10C
330
1F
100
AcDbEntity
  8
1
  6
Continuous
 62
     7
100
AcDbLine
 10
281.856856505047
 20
-465.347864826109
 30
0.0
 11
281.856856505047
 21
-493.347864826109
 31
0.0
  0
LINE
  5
10D
330
1F
100
AcDbEntity
  8
1
  6
Continuous
 62
     7
100
AcDbLine
 10
276.856856505047
 20
-465.347864826109
 30
0.0
 11
276.856856505047
 21
-493.347864826109
 31
0.0
  0
LINE
  5
10E
330
1F
100
AcDbEntity
  8
1
  6
Continuous
 62
     7
100
AcDbLine
 10
277.856856505047
 20
-464.347864826109
 30
0.0
 11
280.856856505047
 21
-464.347864826109
 31
0.0
  0
LINE
  5
10F
330
1F
100
AcDbEntity
  8
1
  6
Continuous
 62
     7
100
AcDbLine
 10
280.856856505047
 20
-494.347864826109
 30
0.0
 11
277.856856505047
 21
-494.347864826109
 31
0.0
  0
LINE
  5
110
330
1F
100
AcDbEntity
  8
1
  6
Continuous
 62
     7
100
AcDbLine
 10
261.356856505047
 20
-500.847864826108
 30
0.0
 11
261.856856505047
 21
-501.347864826108
 31
0.0
  0
LINE
  5
111
330
1F
100
AcDbEntity
  8
1
  6
Continuous
 62
     7
100
AcDbLine
 10
261.356856505047
 20
-423.847864826108
 30
0.0
 11
261.856856505047
 21
-423.347864826108
 31
0.0
  0
LINE
  5
112
330
1F
100
AcDbEntity
  8
1
  6
Continuous
 62
     7
100
AcDbLine
 10
263.996804030247
 20
-425.347864826108
 30
0.0
 11
263.996804030247
 21
-499.347864826108
 31
0.0
  0
LINE
  5
113
330
1F
100
AcDbEntity
  8
1
  6
Continuous
 62
     7
100
AcDbLine
 10
261.356856505047
 20
-500.847864826108
 30
0.0
 11
261.356856505047
 21
-423.847864826108
 31
0.0
  0
LINE
  5
114
330
1F
100
AcDbEntity
  8
1
  6
DOT_CENTER
 62
     2
100
AcDbLine
 10
259.914574940503
 20
-462.347864826108
 30
0.0
 11
297.728837647253
 21
-462.347864826108
 31
0.0
  0
LINE
  5
115
330
1F
100
AcDbEntity
  8
1
  6
DOT_CENTER
 62
     2
100
AcDbLine
 10
259.914574940503
 20
-462.347864826108
 30
0.0
 11
297.728837647253
 21
-462.347864826108
 31
0.0
  0
LINE
  5
116
330
1F
100
AcDbEntity
  8
1
  6
Continuous
 62
     7
100
AcDbLine
 10
261.856856505047
 20
-501.347864826108
 30
0.0
 11
285.556856505047
 21
-501.347864826108
 31
0.0
  0
LINE
  5
117
330
1F
100
AcDbEntity
  8
1
  6
Continuous
 62
     7
100
AcDbLine
 10
261.856856505047
 20
-423.347864826108
 30
0.0
 11
285.556856505047
 21
-423.347864826108
 31
0.0
  0
LINE
  5
118
330
1F
100
AcDbEntity
  8
1
  6
Continuous
 62
     7
100
AcDbLine
 10
229.669280790287
 20
-364.67060341433
 30
0.0
 11
227.859772739505
 21
-385.353375077024
 31
0.0
  0
LINE
  5
119
330
1F
100
AcDbEntity
  8
1
  6
DOT_CENTER
 62
     2
100
AcDbLine
 10
237.49741936537
 20
-462.347864826108
 30
0.0
 11
144.59365610268
 21
-462.347864826108
 31
0.0
  0
LINE
  5
11A
330
1F
100
AcDbEntity
  8
1
  6
DOT_CENTER
 62
     2
100
AcDbLine
 10
190.91424904816
 20
-416.450413958471
 30
0.0
 11
190.91424904816
 21
-510.308152089281
 31
0.0
  0
LINE
  5
11B
330
1F
100
AcDbEntity
  8
1
  6
Continuous
 62
     7
100
AcDbLine
 10
229.41424904816
 20
-423.347864826108
 30
0.0
 11
152.41424904816
 21
-423.347864826108
 31
0.0
  0
LINE
  5
11C
330
1F
100
AcDbEntity
  8
1
  6
Continuous
 62
     7
100
AcDbLine
 10
229.91424904816
 20
-500.847864826108
 30
0.0
 11
229.41424904816
 21
-501.347864826108
 31
0.0
  0
LINE
  5
11D
330
1F
100
AcDbEntity
  8
1
  6
Continuous
 62
     7
100
AcDbLine
 10
152.41424904816
 20
-501.347864826108
 30
0.0
 11
151.91424904816
 21
-500.847864826108
 31
0.0
  0
LINE
  5
11E
330
1F
100
AcDbEntity
  8
1
  6
Continuous
 62
     7
100
AcDbLine
 10
229.91424904816
 20
-423.847864826108
 30
0.0
 11
229.41424904816
 21
-423.347864826108
 31
0.0
  0
LINE
  5
11F
330
1F
100
AcDbEntity
  8
1
  6
Continuous
 62
     7
100
AcDbLine
 10
151.91424904816
 20
-423.847864826108
 30
0.0
 11
152.41424904816
 21
-423.347864826108
 31
0.0
  0
LINE
  5
120
330
1F
100
AcDbEntity
  8
1
  6
Continuous
 62
     7
100
AcDbLine
 10
229.91424904816
 20
-500.847864826108
 30
0.0
 11
229.91424904816
 21
-423.847864826108
 31
0.0
  0
LINE
  5
121
330
1F
100
AcDbEntity
  8
1
  6
Continuous
 62
     7
100
AcDbLine
 10
152.41424904816
 20
-501.347864826108
 30
0.0
 11
229.41424904816
 21
-501.347864826108
 31
0.0
  0
LINE
  5
122
330
1F
100
AcDbEntity
  8
1
  6
Continuous
 62
     7
100
AcDbLine
 10
151.91424904816
 20
-423.847864826108
 30
0.0
 11
151.91424904816
 21
-500.847864826108
 31
0.0
  0
LINE
  5
123
330
1F
100
AcDbEntity
  8
1
  6
Continuous
 62
     7
100
AcDbLine
 10
153.968725356814
 20
-385.353375077024
 30
0.0
 11
152.159217306033
 21
-364.67060341433
 31
0.0
  0
LINE
  5
124
330
1F
100
AcDbEntity
  8
1
  6
Continuous
 62
     7
100
AcDbLine
 10
165.91424904816
 20
-388.87060341433
 30
0.0
 11
215.91424904816
 21
-388.87060341433
 31
0.0
  0
LINE
  5
125
330
1F
100
AcDbEntity
  8
1
  6
Continuous
 62
     7
100
AcDbLine
 10
226.51654109454
 20
-383.496013165213
 30
0.0
 11
227.744729175949
 21
-369.457759157078
 31
0.0
  0
LINE
  5
126
330
1F
100
AcDbEntity
  8
1
  6
Continuous
 62
     7
100
AcDbLine
 10
154.08376892037
 20
-369.457759157078
 30
0.0
 11
155.311957001779
 21
-383.496013165213
 31
0.0
  0
LINE
  5
127
330
1F
100
AcDbEntity
  8
1
  6
Continuous
 62
     7
100
AcDbLine
 10
155.079963618462
 20
-368.37060341433
 30
0.0
 11
157.41424904816
 21
-368.37060341433
 31
0.0
  0
LINE
  5
128
330
1F
100
AcDbEntity
  8
1
  6
Continuous
 62
     7
100
AcDbLine
 10
215.91424904816
 20
-386.37060341433
 30
0.0
 11
213.41424904816
 21
-386.37060341433
 31
0.0
  0
LINE
  5
129
330
1F
100
AcDbEntity
  8
1
  6
Continuous
 62
     7
100
AcDbLine
 10
189.41424904816
 20
-368.37060341433
 30
0.0
 11
189.41424904816
 21
-386.37060341433
 31
0.0
  0
LINE
  5
12A
330
1F
100
AcDbEntity
  8
1
  6
Continuous
 62
     7
100
AcDbLine
 10
189.41424904816
 20
-368.37060341433
 30
0.0
 11
192.41424904816
 21
-368.37060341433
 31
0.0
  0
LINE
  5
12B
330
1F
100
AcDbEntity
  8
1
  6
Continuous
 62
     7
100
AcDbLine
 10
189.41424904816
 20
-386.37060341433
 30
0.0
 11
184.41424904816
 21
-386.37060341433
 31
0.0
  0
LINE
  5
12C
330
1F
100
AcDbEntity
  8
1
  6
Continuous
 62
     7
100
AcDbLine
 10
192.41424904816
 20
-368.37060341433
 30
0.0
 11
192.41424904816
 21
-386.37060341433
 31
0.0
  0
LINE
  5
12D
330
1F
100
AcDbEntity
  8
1
  6
Continuous
 62
     7
100
AcDbLine
 10
192.41424904816
 20
-386.37060341433
 30
0.0
 11
189.41424904816
 21
-386.37060341433
 31
0.0
  0
LINE
  5
12E
330
1F
100
AcDbEntity
  8
1
  6
Continuous
 62
     7
100
AcDbLine
 10
192.41424904816
 20
-368.37060341433
 30
0.0
 11
197.41424904816
 21
-368.37060341433
 31
0.0
  0
LINE
  5
12F
330
1F
100
AcDbEntity
  8
1
  6
Continuous
 62
     7
100
AcDbLine
 10
200.41424904816
 20
-368.37060341433
 30
0.0
 11
200.41424904816
 21
-386.37060341433
 31
0.0
  0
LINE
  5
130
330
1F
100
AcDbEntity
  8
1
  6
Continuous
 62
     7
100
AcDbLine
 10
197.41424904816
 20
-368.37060341433
 30
0.0
 11
197.41424904816
 21
-386.37060341433
 31
0.0
  0
LINE
  5
131
330
1F
100
AcDbEntity
  8
1
  6
Continuous
 62
     7
100
AcDbLine
 10
208.41424904816
 20
-368.37060341433
 30
0.0
 11
208.41424904816
 21
-386.37060341433
 31
0.0
  0
LINE
  5
132
330
1F
100
AcDbEntity
  8
1
  6
Continuous
 62
     7
100
AcDbLine
 10
205.41424904816
 20
-368.37060341433
 30
0.0
 11
205.41424904816
 21
-386.37060341433
 31
0.0
  0
LINE
  5
133
330
1F
100
AcDbEntity
  8
1
  6
Continuous
 62
     7
100
AcDbLine
 10
213.41424904816
 20
-368.37060341433
 30
0.0
 11
213.41424904816
 21
-386.37060341433
 31
0.0
  0
LINE
  5
134
330
1F
100
AcDbEntity
  8
1
  6
Continuous
 62
     7
100
AcDbLine
 10
216.41424904816
 20
-368.37060341433
 30
0.0
 11
216.41424904816
 21
-386.365700982294
 31
0.0
  0
LINE
  5
135
330
1F
100
AcDbEntity
  8
1
  6
Continuous
 62
     7
100
AcDbLine
 10
216.41424904816
 20
-368.37060341433
 30
0.0
 11
221.41424904816
 21
-368.37060341433
 31
0.0
  0
LINE
  5
136
330
1F
100
AcDbEntity
  8
1
  6
Continuous
 62
     7
100
AcDbLine
 10
221.41424904816
 20
-368.37060341433
 30
0.0
 11
221.41424904816
 21
-385.770402610307
 31
0.0
  0
LINE
  5
137
330
1F
100
AcDbEntity
  8
1
  6
Continuous
 62
     7
100
AcDbLine
 10
221.41424904816
 20
-368.37060341433
 30
0.0
 11
224.41424904816
 21
-368.37060341433
 31
0.0
  0
LINE
  5
138
330
1F
100
AcDbEntity
  8
1
  6
Continuous
 62
     7
100
AcDbLine
 10
224.41424904816
 20
-368.37060341433
 30
0.0
 11
224.41424904816
 21
-384.912233974673
 31
0.0
  0
LINE
  5
139
330
1F
100
AcDbEntity
  8
1
  6
Continuous
 62
     7
100
AcDbLine
 10
224.41424904816
 20
-368.37060341433
 30
0.0
 11
226.748534477857
 21
-368.37060341433
 31
0.0
  0
LINE
  5
13A
330
1F
100
AcDbEntity
  8
1
  6
Continuous
 62
     7
100
AcDbLine
 10
184.41424904816
 20
-386.37060341433
 30
0.0
 11
184.41424904816
 21
-368.37060341433
 31
0.0
  0
LINE
  5
13B
330
1F
100
AcDbEntity
  8
1
  6
Continuous
 62
     7
100
AcDbLine
 10
181.41424904816
 20
-386.37060341433
 30
0.0
 11
181.41424904816
 21
-368.37060341433
 31
0.0
  0
LINE
  5
13C
330
1F
100
AcDbEntity
  8
1
  6
Continuous
 62
     7
100
AcDbLine
 10
176.41424904816
 20
-386.37060341433
 30
0.0
 11
176.41424904816
 21
-368.37060341433
 31
0.0
  0
LINE
  5
13D
330
1F
100
AcDbEntity
  8
1
  6
Continuous
 62
     7
100
AcDbLine
 10
173.41424904816
 20
-386.37060341433
 30
0.0
 11
173.41424904816
 21
-368.37060341433
 31
0.0
  0
LINE
  5
13E
330
1F
100
AcDbEntity
  8
1
  6
Continuous
 62
     7
100
AcDbLine
 10
168.41424904816
 20
-386.37060341433
 30
0.0
 11
168.41424904816
 21
-368.37060341433
 31
0.0
  0
LINE
  5
13F
330
1F
100
AcDbEntity
  8
1
  6
Continuous
 62
     7
100
AcDbLine
 10
160.41424904816
 20
-385.770402610307
 30
0.0
 11
160.41424904816
 21
-368.37060341433
 31
0.0
  0
LINE
  5
140
330
1F
100
AcDbEntity
  8
1
  6
Continuous
 62
     7
100
AcDbLine
 10
157.41424904816
 20
-384.912233974673
 30
0.0
 11
157.41424904816
 21
-368.37060341433
 31
0.0
  0
LINE
  5
141
330
1F
100
AcDbEntity
  8
1
  6
DOT_CENTER
 62
     2
100
AcDbLine
 10
190.91424904816
 20
-390.312884978874
 30
0.0
 11
190.91424904816
 21
-352.498622272124
 31
0.0
  0
LINE
  5
142
330
1F
100
AcDbEntity
  8
1
  6
Continuous
 62
     7
100
AcDbLine
 10
213.41424904816
 20
-368.37060341433
 30
0.0
 11
216.41424904816
 21
-368.37060341433
 31
0.0
  0
LINE
  5
143
330
1F
100
AcDbEntity
  8
1
  6
Continuous
 62
     7
100
AcDbLine
 10
213.41424904816
 20
-386.37060341433
 30
0.0
 11
208.41424904816
 21
-386.37060341433
 31
0.0
  0
LINE
  5
144
330
1F
100
AcDbEntity
  8
1
  6
Continuous
 62
     7
100
AcDbLine
 10
208.41424904816
 20
-386.37060341433
 30
0.0
 11
205.41424904816
 21
-386.37060341433
 31
0.0
  0
LINE
  5
145
330
1F
100
AcDbEntity
  8
1
  6
Continuous
 62
     7
100
AcDbLine
 10
205.41424904816
 20
-386.37060341433
 30
0.0
 11
200.41424904816
 21
-386.37060341433
 31
0.0
  0
LINE
  5
146
330
1F
100
AcDbEntity
  8
1
  6
Continuous
 62
     7
100
AcDbLine
 10
208.41424904816
 20
-368.37060341433
 30
0.0
 11
213.41424904816
 21
-368.37060341433
 31
0.0
  0
LINE
  5
147
330
1F
100
AcDbEntity
  8
1
  6
Continuous
 62
     7
100
AcDbLine
 10
205.41424904816
 20
-368.37060341433
 30
0.0
 11
208.41424904816
 21
-368.37060341433
 31
0.0
  0
LINE
  5
148
330
1F
100
AcDbEntity
  8
1
  6
Continuous
 62
     7
100
AcDbLine
 10
200.41424904816
 20
-368.37060341433
 30
0.0
 11
205.41424904816
 21
-368.37060341433
 31
0.0
  0
LINE
  5
149
330
1F
100
AcDbEntity
  8
1
  6
Continuous
 62
     7
100
AcDbLine
 10
197.41424904816
 20
-368.37060341433
 30
0.0
 11
200.41424904816
 21
-368.37060341433
 31
0.0
  0
LINE
  5
14A
330
1F
100
AcDbEntity
  8
1
  6
Continuous
 62
     7
100
AcDbLine
 10
197.41424904816
 20
-386.37060341433
 30
0.0
 11
192.41424904816
 21
-386.37060341433
 31
0.0
  0
LINE
  5
14B
330
1F
100
AcDbEntity
  8
1
  6
Continuous
 62
     7
100
AcDbLine
 10
200.41424904816
 20
-386.37060341433
 30
0.0
 11
197.41424904816
 21
-386.37060341433
 31
0.0
  0
LINE
  5
14C
330
1F
100
AcDbEntity
  8
1
  6
Continuous
 62
     7
100
AcDbLine
 10
184.41424904816
 20
-368.37060341433
 30
0.0
 11
189.41424904816
 21
-368.37060341433
 31
0.0
  0
LINE
  5
14D
330
1F
100
AcDbEntity
  8
1
  6
Continuous
 62
     7
100
AcDbLine
 10
181.41424904816
 20
-368.37060341433
 30
0.0
 11
184.41424904816
 21
-368.37060341433
 31
0.0
  0
LINE
  5
14E
330
1F
100
AcDbEntity
  8
1
  6
Continuous
 62
     7
100
AcDbLine
 10
181.41424904816
 20
-386.37060341433
 30
0.0
 11
176.41424904816
 21
-386.37060341433
 31
0.0
  0
LINE
  5
14F
330
1F
100
AcDbEntity
  8
1
  6
Continuous
 62
     7
100
AcDbLine
 10
184.41424904816
 20
-386.37060341433
 30
0.0
 11
181.41424904816
 21
-386.37060341433
 31
0.0
  0
LINE
  5
150
330
1F
100
AcDbEntity
  8
1
  6
Continuous
 62
     7
100
AcDbLine
 10
176.41424904816
 20
-386.37060341433
 30
0.0
 11
173.41424904816
 21
-386.37060341433
 31
0.0
  0
LINE
  5
151
330
1F
100
AcDbEntity
  8
1
  6
Continuous
 62
     7
100
AcDbLine
 10
173.41424904816
 20
-386.37060341433
 30
0.0
 11
168.41424904816
 21
-386.37060341433
 31
0.0
  0
LINE
  5
152
330
1F
100
AcDbEntity
  8
1
  6
Continuous
 62
     7
100
AcDbLine
 10
176.41424904816
 20
-368.37060341433
 30
0.0
 11
181.41424904816
 21
-368.37060341433
 31
0.0
  0
LINE
  5
153
330
1F
100
AcDbEntity
  8
1
  6
Continuous
 62
     7
100
AcDbLine
 10
173.41424904816
 20
-368.37060341433
 30
0.0
 11
176.41424904816
 21
-368.37060341433
 31
0.0
  0
LINE
  5
154
330
1F
100
AcDbEntity
  8
1
  6
Continuous
 62
     7
100
AcDbLine
 10
168.41424904816
 20
-368.37060341433
 30
0.0
 11
173.41424904816
 21
-368.37060341433
 31
0.0
  0
LINE
  5
155
330
1F
100
AcDbEntity
  8
1
  6
Continuous
 62
     7
100
AcDbLine
 10
165.41424904816
 20
-368.37060341433
 30
0.0
 11
168.41424904816
 21
-368.37060341433
 31
0.0
  0
LINE
  5
156
330
1F
100
AcDbEntity
  8
1
  6
Continuous
 62
     7
100
AcDbLine
 10
160.41424904816
 20
-368.37060341433
 30
0.0
 11
165.41424904816
 21
-368.37060341433
 31
0.0
  0
LINE
  5
157
330
1F
100
AcDbEntity
  8
1
  6
Continuous
 62
     7
100
AcDbLine
 10
157.41424904816
 20
-368.37060341433
 30
0.0
 11
160.41424904816
 21
-368.37060341433
 31
0.0
  0
LINE
  5
158
330
1F
100
AcDbEntity
  8
1
  6
Continuous
 62
     7
100
AcDbLine
 10
168.41424904816
 20
-386.37060341433
 30
0.0
 11
165.91424904816
 21
-386.37060341433
 31
0.0
  0
LINE
  5
159
330
1F
100
AcDbEntity
  8
1
  6
Continuous
 62
     7
100
AcDbLine
 10
165.41424904816
 20
-386.365700982294
 30
0.0
 11
165.41424904816
 21
-368.37060341433
 31
0.0
  0
LINE
  5
15A
330
1F
100
AcDbEntity
  8
1
  6
Continuous
 62
     7
100
AcDbLine
 10
293.056856505047
 20
-447.947864826108
 30
0.0
 11
293.056856505047
 21
-507.347864826107
 31
0.0
  0
LINE
  5
15B
330
1F
100
AcDbEntity
  8
1
  6
Continuous
 62
     7
100
AcDbLine
 10
293.056856505047
 20
-447.947864826108
 30
0.0
 11
293.056856505047
 21
-448.347830325996
 31
0.0
  0
LINE
  5
15C
330
1F
100
AcDbEntity
  8
1
  6
Continuous
 62
     7
100
AcDbLine
 10
285.556856505047
 20
-420.906628487298
 30
0.0
 11
285.556856505047
 21
-428.147864826107
 31
0.0
  0
LINE
  5
15D
330
1F
100
AcDbEntity
  8
1
  6
Continuous
 62
     7
100
AcDbLine
 10
293.056856505047
 20
-417.347864826108
 30
0.0
 11
288.600734331506
 21
-417.737724999579
 31
0.0
  0
LINE
  5
15E
330
1F
100
AcDbEntity
  8
1
  6
Continuous
 62
     7
100
AcDbLine
 10
285.996196333267
 20
-419.845968315518
 30
0.0
 11
287.670807773848
 21
-418.171356874937
 31
0.0
  0
LINE
  5
15F
330
1F
100
AcDbEntity
  8
1
  6
Continuous
 62
     7
100
AcDbLine
 10
287.670807773848
 20
-506.524372777278
 30
0.0
 11
285.996196333267
 21
-504.849761336698
 31
0.0
  0
LINE
  5
160
330
1F
100
AcDbEntity
  8
1
  6
Continuous
 62
     7
100
AcDbLine
 10
288.600734331506
 20
-506.958004652636
 30
0.0
 11
293.056856505047
 21
-507.347864826107
 31
0.0
  0
LINE
  5
161
330
1F
100
AcDbEntity
  8
1
  6
Continuous
 62
     7
100
AcDbLine
 10
293.056856505047
 20
-447.347830325996
 30
0.0
 11
293.056856505047
 21
-447.947864826108
 31
0.0
  0
LINE
  5
162
330
1F
100
AcDbEntity
  8
1
  6
Continuous
 62
     7
100
AcDbLine
 10
288.056856505047
 20
-418.862801138694
 30
0.0
 11
288.056856505047
 21
-505.862801138694
 31
0.0
  0
LINE
  5
163
330
1F
100
AcDbEntity
  8
1
  6
Continuous
 62
     7
100
AcDbLine
 10
293.056856505047
 20
-417.347864826108
 30
0.0
 11
293.056856505047
 21
-444.347830326076
 31
0.0
  0
LINE
  5
164
330
1F
100
AcDbEntity
  8
1
  6
Continuous
 62
     7
100
AcDbLine
 10
293.056856505047
 20
-444.347830326076
 30
0.0
 11
293.056856505047
 21
-447.947864826108
 31
0.0
  0
LINE
  5
165
330
1F
100
AcDbEntity
  8
1
  6
Continuous
 62
     7
100
AcDbLine
 10
285.556856505047
 20
-428.147864826107
 30
0.0
 11
285.556856505047
 21
-503.789101164918
 31
0.0
  0
LINE
  5
166
330
1F
100
AcDbEntity
  8
1
  6
Continuous
 62
     7
100
AcDbLine
 10
157.71424904816
 20
-364.67060341433
 30
0.0
 11
232.355496886976
 21
-364.67060341433
 31
0.0
  0
LINE
  5
167
330
1F
100
AcDbEntity
  8
1
  6
Continuous
 62
     7
100
AcDbLine
 10
204.914295048278
 20
-357.17060341433
 30
0.0
 11
208.914295048198
 21
-357.17060341433
 31
0.0
  0
LINE
  5
168
330
1F
100
AcDbEntity
  8
1
  6
Continuous
 62
     7
100
AcDbLine
 10
208.914295048198
 20
-357.17060341433
 30
0.0
 11
235.914260548166
 21
-357.17060341433
 31
0.0
  0
LINE
  5
169
330
1F
100
AcDbEntity
  8
1
  6
Continuous
 62
     7
100
AcDbLine
 10
147.39932423558
 20
-362.17060341433
 30
0.0
 11
234.39932423558
 21
-362.17060341433
 31
0.0
  0
LINE
  5
16A
330
1F
100
AcDbEntity
  8
1
  6
Continuous
 62
     7
100
AcDbLine
 10
149.473024209356
 20
-364.67060341433
 30
0.0
 11
157.71424904816
 21
-364.67060341433
 31
0.0
  0
LINE
  5
16B
330
1F
100
AcDbEntity
  8
1
  6
Continuous
 62
     7
100
AcDbLine
 10
145.914260548167
 20
-357.17060341433
 30
0.0
 11
201.614260548166
 21
-357.17060341433
 31
0.0
  0
LINE
  5
16C
330
1F
100
AcDbEntity
  8
1
  6
Continuous
 62
     7
100
AcDbLine
 10
145.914260548167
 20
-357.17060341433
 30
0.0
 11
146.304120721638
 21
-361.62672558787
 31
0.0
  0
LINE
  5
16D
330
1F
100
AcDbEntity
  8
1
  6
Continuous
 62
     7
100
AcDbLine
 10
148.412364037576
 20
-364.23126358611
 30
0.0
 11
146.737752596996
 21
-362.556652145529
 31
0.0
  0
LINE
  5
16E
330
1F
100
AcDbEntity
  8
1
  6
Continuous
 62
     7
100
AcDbLine
 10
235.090768499337
 20
-362.556652145529
 30
0.0
 11
233.416157058756
 21
-364.23126358611
 31
0.0
  0
LINE
  5
16F
330
1F
100
AcDbEntity
  8
1
  6
Continuous
 62
     7
100
AcDbLine
 10
235.524400374694
 20
-361.62672558787
 30
0.0
 11
235.914260548166
 21
-357.17060341433
 31
0.0
  0
LINE
  5
170
330
1F
100
AcDbEntity
  8
1
  6
Continuous
 62
     7
100
AcDbLine
 10
205.014260548166
 20
-355.17060341433
 30
0.0
 11
208.814260548166
 21
-355.17060341433
 31
0.0
  0
LINE
  5
171
330
1F
100
AcDbEntity
  8
1
  6
Continuous
 62
     7
100
AcDbLine
 10
204.514260548166
 20
-355.67060341433
 30
0.0
 11
204.514260548166
 21
-357.17060341433
 31
0.0
  0
LINE
  5
172
330
1F
100
AcDbEntity
  8
1
  6
Continuous
 62
     7
100
AcDbLine
 10
209.314260548166
 20
-355.67060341433
 30
0.0
 11
209.314260548166
 21
-357.17060341433
 31
0.0
  0
LINE
  5
173
330
1F
100
AcDbEntity
  8
1
  6
Continuous
 62
     7
100
AcDbLine
 10
201.314260548166
 20
-355.67060341433
 30
0.0
 11
201.314260548166
 21
-357.17060341433
 31
0.0
  0
LINE
  5
174
330
1F
100
AcDbEntity
  8
1
  6
Continuous
 62
     7
100
AcDbLine
 10
196.514260548166
 20
-355.67060341433
 30
0.0
 11
196.514260548166
 21
-357.17060341433
 31
0.0
  0
LINE
  5
175
330
1F
100
AcDbEntity
  8
1
  6
Continuous
 62
     7
100
AcDbLine
 10
197.014260548166
 20
-355.17060341433
 30
0.0
 11
200.814260548166
 21
-355.17060341433
 31
0.0
  0
LINE
  5
176
330
1F
100
AcDbEntity
  8
1
  6
Continuous
 62
     7
100
AcDbLine
 10
196.914295048278
 20
-357.17060341433
 30
0.0
 11
200.914295048198
 21
-357.17060341433
 31
0.0
  0
LINE
  5
177
330
1F
100
AcDbEntity
  8
1
  6
Continuous
 62
     7
100
AcDbLine
 10
188.914295048278
 20
-357.17060341433
 30
0.0
 11
192.914295048198
 21
-357.17060341433
 31
0.0
  0
LINE
  5
178
330
1F
100
AcDbEntity
  8
1
  6
Continuous
 62
     7
100
AcDbLine
 10
189.014260548166
 20
-355.17060341433
 30
0.0
 11
192.814260548166
 21
-355.17060341433
 31
0.0
  0
LINE
  5
179
330
1F
100
AcDbEntity
  8
1
  6
Continuous
 62
     7
100
AcDbLine
 10
188.514260548166
 20
-355.67060341433
 30
0.0
 11
188.514260548166
 21
-357.17060341433
 31
0.0
  0
LINE
  5
17A
330
1F
100
AcDbEntity
  8
1
  6
Continuous
 62
     7
100
AcDbLine
 10
193.314260548166
 20
-355.67060341433
 30
0.0
 11
193.314260548166
 21
-357.17060341433
 31
0.0
  0
ARC
  5
17B
330
1F
100
AcDbEntity
  8
1
  6
Continuous
 62
     7
100
AcDbCircle
 10
370.57096864529
 20
-355.347864826108
 30
0.0
 40
25.0
100
AcDbArc
 50
180.0
 51
90.0
  0
ARC
  5
17C
330
1F
100
AcDbEntity
  8
1
  6
Continuous
 62
     7
100
AcDbCircle
 10
350.57096864529
 20
-335.347864826108
 30
0.0
 40
5.0
100
AcDbArc
 50
90.0
 51
180.0
  0
ARC
  5
17D
330
1F
100
AcDbEntity
  8
1
  6
Continuous
 62
     7
100
AcDbCircle
 10
294.556856505047
 20
-456.44788782612
 30
0.0
 40
0.5
100
AcDbArc
 50
0.0
 51
90.0
  0
ARC
  5
17E
330
1F
100
AcDbEntity
  8
1
  6
Continuous
 62
     7
100
AcDbCircle
 10
294.556856505047
 20
-460.24788782612
 30
0.0
 40
0.5
100
AcDbArc
 50
270.0
 51
0.0
  0
ARC
  5
17F
330
1F
100
AcDbEntity
  8
1
  6
DOTTED
 62
     7
100
AcDbCircle
 10
296.283731505047
 20
-468.656422053399
 30
0.0
 40
0.7439601606856394
100
AcDbArc
 50
107.7555075012193
 51
155.4986372982689
  0
ARC
  5
180
330
1F
100
AcDbEntity
  8
1
  6
DOTTED
 62
     7
100
AcDbCircle
 10
294.829981505048
 20
-468.339376598853
 30
0.0
 40
0.7439601606853274
100
AcDbArc
 50
287.7555075011443
 51
347.6971144865489
  0
ARC
  5
181
330
1F
100
AcDbEntity
  8
1
  6
Continuous
 62
     7
100
AcDbCircle
 10
296.283731505047
 20
-468.656422053399
 30
0.0
 40
0.7439601606852096
100
AcDbArc
 50
155.4986372982689
 51
167.6971144865657
  0
ARC
  5
182
330
1F
100
AcDbEntity
  8
1
  6
DOTTED
 62
     7
100
AcDbCircle
 10
294.829981505048
 20
-464.356422053398
 30
0.0
 40
0.7439601606844128
100
AcDbArc
 50
12.3028855134468
 51
72.2444924988317
  0
ARC
  5
183
330
1F
100
AcDbEntity
  8
1
  6
DOTTED
 62
     7
100
AcDbCircle
 10
296.283731505047
 20
-464.039376598853
 30
0.0
 40
0.7439601606852188
100
AcDbArc
 50
192.3028855133616
 51
252.2444924987807
  0
ARC
  5
184
330
1F
100
AcDbEntity
  8
1
  6
Continuous
 62
     7
100
AcDbCircle
 10
294.556856505047
 20
-452.447893576123
 30
0.0
 40
0.5
100
AcDbArc
 50
0.0
 51
11.53695903283247
  0
ARC
  5
185
330
1F
100
AcDbEntity
  8
1
  6
Continuous
 62
     7
100
AcDbCircle
 10
294.556856505047
 20
-452.247893576123
 30
0.0
 40
0.4999999999993879
100
AcDbArc
 50
348.4630409671675
 51
0.0
  0
ARC
  5
186
330
1F
100
AcDbEntity
  8
1
  6
DOTTED
 62
     7
100
AcDbCircle
 10
296.283731505047
 20
-472.656404803389
 30
0.0
 40
0.743960160684665
100
AcDbArc
 50
107.7555075012433
 51
155.4993672815195
  0
ARC
  5
187
330
1F
100
AcDbEntity
  8
1
  6
DOTTED
 62
     7
100
AcDbCircle
 10
296.283731505047
 20
-468.039359348844
 30
0.0
 40
0.743960160685634
100
AcDbArc
 50
204.5013627018027
 51
252.2444924987794
  0
ARC
  5
188
330
1F
100
AcDbEntity
  8
1
  6
DOTTED
 62
     7
100
AcDbCircle
 10
296.283731505047
 20
-476.656387553381
 30
0.0
 40
0.7439601606856394
100
AcDbArc
 50
107.7555075012193
 51
155.4993672814477
  0
ARC
  5
189
330
1F
100
AcDbEntity
  8
1
  6
Continuous
 62
     7
100
AcDbCircle
 10
296.283731505047
 20
-476.039342098835
 30
0.0
 40
0.7439601606864223
100
AcDbArc
 50
204.5006327186917
 51
252.2444924987807
  0
ARC
  5
18A
330
1F
100
AcDbEntity
  8
1
  6
Continuous
 62
     7
100
AcDbCircle
 10
296.283731505047
 20
-480.656387553381
 30
0.0
 40
0.7439601606856394
100
AcDbArc
 50
107.7555075012193
 51
167.6971144865657
  0
ARC
  5
18B
330
1F
100
AcDbEntity
  8
1
  6
Continuous
 62
     7
100
AcDbCircle
 10
294.829981505048
 20
-480.339342098835
 30
0.0
 40
0.7439601606853274
100
AcDbArc
 50
287.7555075011443
 51
347.6971144865489
  0
ARC
  5
18C
330
1F
100
AcDbEntity
  8
1
  6
Continuous
 62
     7
100
AcDbCircle
 10
294.556856505047
 20
-452.24788782612
 30
0.0
 40
0.5
100
AcDbArc
 50
270.0
 51
0.0
  0
ARC
  5
18D
330
1F
100
AcDbEntity
  8
1
  6
Continuous
 62
     7
100
AcDbCircle
 10
294.556856505047
 20
-448.44788782612
 30
0.0
 40
0.5
100
AcDbArc
 50
0.0
 51
90.0
  0
ARC
  5
18E
330
1F
100
AcDbEntity
  8
1
  6
Continuous
 62
     2
100
AcDbCircle
 10
174.952541626095
 20
-348.089889593837
 30
0.0
 40
11.99999999999966
100
AcDbArc
 50
63.38841816756447
 51
119.832157366261
  0
ARC
  5
18F
330
1F
100
AcDbEntity
  8
1
  6
Continuous
 62
     2
100
AcDbCircle
 10
186.59897705059
 20
-324.844233184455
 30
0.0
 40
13.99999999999983
100
AcDbArc
 50
243.3884181675603
 51
270.0
  0
ARC
  5
190
330
1F
100
AcDbEntity
  8
1
  6
Continuous
 62
     2
100
AcDbCircle
 10
174.952541626095
 20
-346.089889593837
 30
0.0
 40
11.99999999999966
100
AcDbArc
 50
63.38841816756447
 51
119.832157366261
  0
ARC
  5
191
330
1F
100
AcDbEntity
  8
1
  6
Continuous
 62
     2
100
AcDbCircle
 10
186.59897705059
 20
-322.844233184455
 30
0.0
 40
13.99999999999983
100
AcDbArc
 50
243.3884181675603
 51
270.0
  0
ARC
  5
192
330
1F
100
AcDbEntity
  8
1
  6
DOTTED
 62
     7
100
AcDbCircle
 10
177.222656775373
 20
-353.94372841433
 30
0.0
 40
0.7439601606856124
100
AcDbArc
 50
197.7555075012199
 51
257.6971144865657
  0
ARC
  5
193
330
1F
100
AcDbEntity
  8
1
  6
DOTTED
 62
     7
100
AcDbCircle
 10
176.905611320827
 20
-355.397478414329
 30
0.0
 40
0.7439601606853005
100
AcDbArc
 50
17.75550750114493
 51
77.69711448655107
  0
ARC
  5
194
330
1F
100
AcDbEntity
  8
1
  6
DOTTED
 62
     7
100
AcDbCircle
 10
172.605611320827
 20
-353.94372841433
 30
0.0
 40
0.7439601606854246
100
AcDbArc
 50
282.3028855134343
 51
342.24449249878
  0
ARC
  5
195
330
1F
100
AcDbEntity
  8
1
  6
DOTTED
 62
     7
100
AcDbCircle
 10
172.922656775372
 20
-355.397478414329
 30
0.0
 40
0.7439601606842069
100
AcDbArc
 50
102.3028855133741
 51
162.2444924988317
  0
ARC
  5
196
330
1F
100
AcDbEntity
  8
1
  6
Continuous
 62
     7
100
AcDbCircle
 10
180.922714275402
 20
-355.397478414329
 30
0.0
 40
0.743960160684213
100
AcDbArc
 50
102.3028855133762
 51
162.2444924988317
  0
ARC
  5
197
330
1F
100
AcDbEntity
  8
1
  6
Continuous
 62
     7
100
AcDbCircle
 10
180.605668820857
 20
-353.94372841433
 30
0.0
 40
0.7439601606854185
100
AcDbArc
 50
282.3028855134322
 51
342.24449249878
  0
ARC
  5
198
330
1F
100
AcDbEntity
  8
1
  6
Continuous
 62
     7
100
AcDbCircle
 10
184.905668820857
 20
-355.397478414329
 30
0.0
 40
0.7439601606853274
100
AcDbArc
 50
17.75550750114426
 51
77.69711448654893
  0
ARC
  5
199
330
1F
100
AcDbEntity
  8
1
  6
Continuous
 62
     7
100
AcDbCircle
 10
185.222714275403
 20
-353.94372841433
 30
0.0
 40
0.7439601606856394
100
AcDbArc
 50
197.7555075012193
 51
257.6971144865657
  0
ARC
  5
19A
330
1F
100
AcDbEntity
  8
1
  6
Continuous
 62
     7
100
AcDbCircle
 10
429.427729108498
 20
-331.847830326091
 30
0.0
 40
1.599999999999232
100
AcDbArc
 50
132.957966339949
 51
180.0000000000346
  0
ARC
  5
19B
330
1F
100
AcDbEntity
  8
1
  6
Continuous
 62
     7
100
AcDbCircle
 10
429.427729108498
 20
-336.847830326091
 30
0.0
 40
1.599999999999
100
AcDbArc
 50
180.0
 51
227.0420336600746
  0
ARC
  5
19C
330
1F
100
AcDbEntity
  8
1
  6
Continuous
 62
     7
100
AcDbCircle
 10
429.427729108498
 20
-392.847795826073
 30
0.0
 40
1.599999999999
100
AcDbArc
 50
180.0
 51
227.0420336600746
  0
ARC
  5
19D
330
1F
100
AcDbEntity
  8
1
  6
Continuous
 62
     7
100
AcDbCircle
 10
429.427729108498
 20
-387.847795826073
 30
0.0
 40
1.599999999999232
100
AcDbArc
 50
132.957966339949
 51
180.0000000000346
  0
ARC
  5
19E
330
1F
100
AcDbEntity
  8
1
  6
Continuous
 62
     7
100
AcDbCircle
 10
329.07096864529
 20
-313.847830326089
 30
0.0
 40
1.0
100
AcDbArc
 50
90.0
 51
180.0
  0
ARC
  5
19F
330
1F
100
AcDbEntity
  8
1
  6
Continuous
 62
     7
100
AcDbCircle
 10
412.07096864529
 20
-313.847830326089
 30
0.0
 40
1.0
100
AcDbArc
 50
0.0
 51
90.0
  0
ARC
  5
1A0
330
1F
100
AcDbEntity
  8
1
  6
Continuous
 62
     7
100
AcDbCircle
 10
329.07096864529
 20
-396.84783032609
 30
0.0
 40
1.0
100
AcDbArc
 50
180.0
 51
270.0
  0
ARC
  5
1A1
330
1F
100
AcDbEntity
  8
1
  6
Continuous
 62
     7
100
AcDbCircle
 10
412.07096864529
 20
-396.84783032609
 30
0.0
 40
1.0
100
AcDbArc
 50
270.0
 51
0.0
  0
ARC
  5
1A2
330
1F
100
AcDbEntity
  8
0
  6
DOTTED
 62
     2
100
AcDbCircle
 10
439.227723108498
 20
-397.847864826108
 30
0.0
 40
3.0
100
AcDbArc
 50
0.0
 51
89.99998500000393
  0
ARC
  5
1A3
330
1F
100
AcDbEntity
  8
0
  6
DOTTED
 62
     2
100
AcDbCircle
 10
435.427705108498
 20
-390.247858826109
 30
0.0
 40
4.600000000000696
100
AcDbArc
 50
179.9999689999942
 51
269.9999389999987
  0
ARC
  5
1A4
330
1F
100
AcDbEntity
  8
0
  6
DOTTED
 62
     2
100
AcDbCircle
 10
439.227723108498
 20
-312.847864826108
 30
0.0
 40
3.000000000000439
100
AcDbArc
 50
270.0000309999957
 51
0.0
  0
ARC
  5
1A5
330
1F
100
AcDbEntity
  8
0
  6
DOTTED
 62
     2
100
AcDbCircle
 10
435.427705108498
 20
-320.447870826109
 30
0.0
 40
4.600000000000968
100
AcDbArc
 50
90.00005299999114
 51
180.0000309999938
  0
ARC
  5
1A6
330
1F
100
AcDbEntity
  8
1
  6
DOTTED
 62
     7
100
AcDbCircle
 10
294.829981505048
 20
-472.35638755338
 30
0.0
 40
0.7439601606842069
100
AcDbArc
 50
12.30288551337409
 51
72.2444924988317
  0
ARC
  5
1A7
330
1F
100
AcDbEntity
  8
1
  6
DOTTED
 62
     7
100
AcDbCircle
 10
296.283731505047
 20
-472.039342098835
 30
0.0
 40
0.7439601606854246
100
AcDbArc
 50
192.3028855134343
 51
252.2444924987807
  0
ARC
  5
1A8
330
1F
100
AcDbEntity
  8
1
  6
DOTTED
 62
     7
100
AcDbCircle
 10
294.829981505048
 20
-476.339342098835
 30
0.0
 40
0.7439601606853274
100
AcDbArc
 50
287.7555075011443
 51
347.6971144865489
  0
ARC
  5
1A9
330
1F
100
AcDbEntity
  8
1
  6
Continuous
 62
     7
100
AcDbCircle
 10
296.283731505047
 20
-476.656387553381
 30
0.0
 40
0.7439601606855973
100
AcDbArc
 50
155.4993672814477
 51
167.6971144865657
  0
ARC
  5
1AA
330
1F
100
AcDbEntity
  8
1
  6
Continuous
 62
     2
100
AcDbCircle
 10
334.383226734922
 20
-455.040339420976
 30
0.0
 40
22.99999999999929
100
AcDbArc
 50
197.2914963985452
 51
201.8044440600644
  0
ARC
  5
1AB
330
1F
100
AcDbEntity
  8
1
  6
Continuous
 62
     2
100
AcDbCircle
 10
301.887231052196
 20
-468.040734206862
 30
0.0
 40
12.00000000000007
100
AcDbArc
 50
332.6003389738609
 51
21.80444406006844
  0
ARC
  5
1AC
330
1F
100
AcDbEntity
  8
1
  6
Continuous
 62
     2
100
AcDbCircle
 10
323.194865638426
 20
-479.08540298143
 30
0.0
 40
12.00000000000455
100
AcDbArc
 50
152.6003389738615
 51
191.6950902046408
  0
ARC
  5
1AD
330
1F
100
AcDbEntity
  8
1
  6
Continuous
 62
     2
100
AcDbCircle
 10
325.194865638426
 20
-479.08540298143
 30
0.0
 40
12.00000000000455
100
AcDbArc
 50
152.6003389738615
 51
191.6950902046408
  0
ARC
  5
1AE
330
1F
100
AcDbEntity
  8
1
  6
Continuous
 62
     2
100
AcDbCircle
 10
303.887231052196
 20
-468.040734206862
 30
0.0
 40
12.00000000000007
100
AcDbArc
 50
332.6003389738609
 51
21.80444406006587
  0
ARC
  5
1AF
330
1F
100
AcDbEntity
  8
1
  6
Continuous
 62
     2
100
AcDbCircle
 10
336.383226734922
 20
-455.040339420976
 30
0.0
 40
22.99999999999986
100
AcDbArc
 50
196.8217588618832
 51
201.8044440600657
  0
ARC
  5
1B0
330
1F
100
AcDbEntity
  8
1
  6
Continuous
 62
     2
100
AcDbCircle
 10
186.59897705059
 20
-313.844233184455
 30
0.0
 40
23.0
100
AcDbArc
 50
270.0
 51
291.8044440600643
  0
ARC
  5
1B1
330
1F
100
AcDbEntity
  8
1
  6
Continuous
 62
     2
100
AcDbCircle
 10
199.599371836476
 20
-346.340228867181
 30
0.0
 40
12.00000000000006
100
AcDbArc
 50
62.60033897386097
 51
111.8044440600687
  0
ARC
  5
1B2
330
1F
100
AcDbEntity
  8
1
  6
Continuous
 62
     2
100
AcDbCircle
 10
210.644040611044
 20
-325.032594280951
 30
0.0
 40
12.00000000000457
100
AcDbArc
 50
242.6003389738613
 51
281.6950902046415
  0
ARC
  5
1B3
330
1F
100
AcDbEntity
  8
1
  6
Continuous
 62
     2
100
AcDbCircle
 10
210.644040611044
 20
-327.032594280951
 30
0.0
 40
12.00000000000457
100
AcDbArc
 50
242.6003389738613
 51
281.6950902046415
  0
ARC
  5
1B4
330
1F
100
AcDbEntity
  8
1
  6
Continuous
 62
     2
100
AcDbCircle
 10
199.599371836476
 20
-348.340228867181
 30
0.0
 40
12.00000000000006
100
AcDbArc
 50
62.60033897386097
 51
111.8044440600659
  0
ARC
  5
1B5
330
1F
100
AcDbEntity
  8
1
  6
Continuous
 62
     2
100
AcDbCircle
 10
186.59897705059
 20
-315.844233184455
 30
0.0
 40
23.0
100
AcDbArc
 50
270.0
 51
291.8044440600657
  0
ARC
  5
1B6
330
1F
100
AcDbEntity
  8
1
  6
Continuous
 62
     7
100
AcDbCircle
 10
193.222771775433
 20
-353.94372841433
 30
0.0
 40
0.7439601606856124
100
AcDbArc
 50
197.7555075012199
 51
257.6971144865678
  0
ARC
  5
1B7
330
1F
100
AcDbEntity
  8
1
  6
Continuous
 62
     7
100
AcDbCircle
 10
192.905726320887
 20
-355.397478414329
 30
0.0
 40
0.7439601606853005
100
AcDbArc
 50
17.75550750114493
 51
77.69711448654893
  0
ARC
  5
1B8
330
1F
100
AcDbEntity
  8
1
  6
Continuous
 62
     7
100
AcDbCircle
 10
188.605726320887
 20
-353.94372841433
 30
0.0
 40
0.7439601606854246
100
AcDbArc
 50
282.3028855134343
 51
342.2444924987807
  0
ARC
  5
1B9
330
1F
100
AcDbEntity
  8
1
  6
Continuous
 62
     7
100
AcDbCircle
 10
188.922771775432
 20
-355.397478414329
 30
0.0
 40
0.743960160684213
100
AcDbArc
 50
102.3028855133762
 51
162.2444924988317
  0
ARC
  5
1BA
330
1F
100
AcDbEntity
  8
1
  6
DOTTED
 62
     7
100
AcDbCircle
 10
209.222783275439
 20
-353.94372841433
 30
0.0
 40
0.7439601606856394
100
AcDbArc
 50
197.7555075012193
 51
257.6971144865657
  0
ARC
  5
1BB
330
1F
100
AcDbEntity
  8
1
  6
DOTTED
 62
     7
100
AcDbCircle
 10
208.905737820893
 20
-355.397478414329
 30
0.0
 40
0.7439601606853005
100
AcDbArc
 50
17.75550750114493
 51
77.69711448654893
  0
ARC
  5
1BC
330
1F
100
AcDbEntity
  8
1
  6
DOTTED
 62
     7
100
AcDbCircle
 10
204.605737820893
 20
-353.94372841433
 30
0.0
 40
0.7439601606854185
100
AcDbArc
 50
282.3028855134322
 51
342.24449249878
  0
ARC
  5
1BD
330
1F
100
AcDbEntity
  8
1
  6
DOTTED
 62
     7
100
AcDbCircle
 10
204.922783275438
 20
-355.397478414329
 30
0.0
 40
0.743960160684213
100
AcDbArc
 50
102.3028855133762
 51
162.2444924988317
  0
ARC
  5
1BE
330
1F
100
AcDbEntity
  8
1
  6
Continuous
 62
     7
100
AcDbCircle
 10
196.922783275438
 20
-355.397478414329
 30
0.0
 40
0.743960160684213
100
AcDbArc
 50
102.3028855133762
 51
162.2444924988317
  0
ARC
  5
1BF
330
1F
100
AcDbEntity
  8
1
  6
Continuous
 62
     7
100
AcDbCircle
 10
196.605737820893
 20
-353.94372841433
 30
0.0
 40
0.7439601606854185
100
AcDbArc
 50
282.3028855134322
 51
342.24449249878
  0
ARC
  5
1C0
330
1F
100
AcDbEntity
  8
1
  6
Continuous
 62
     7
100
AcDbCircle
 10
200.905737820893
 20
-355.397478414329
 30
0.0
 40
0.7439601606853005
100
AcDbArc
 50
17.75550750114493
 51
77.69711448654893
  0
ARC
  5
1C1
330
1F
100
AcDbEntity
  8
1
  6
Continuous
 62
     7
100
AcDbCircle
 10
201.222783275439
 20
-353.94372841433
 30
0.0
 40
0.7439601606856394
100
AcDbArc
 50
197.7555075012193
 51
257.6971144865657
  0
ARC
  5
1C2
330
1F
100
AcDbEntity
  8
1
  6
Continuous
 62
     7
100
AcDbCircle
 10
147.414214548143
 20
-418.847899326126
 30
0.0
 40
1.5
100
AcDbArc
 50
90.0
 51
180.0
  0
ARC
  5
1C3
330
1F
100
AcDbEntity
  8
1
  6
Continuous
 62
     7
100
AcDbCircle
 10
150.351657865773
 20
-421.785308143739
 30
0.0
 40
1.5
100
AcDbArc
 50
90.0
 51
180.0
  0
ARC
  5
1C4
330
1F
100
AcDbEntity
  8
1
  6
Continuous
 62
     7
100
AcDbCircle
 10
150.351657865773
 20
-502.910490508513
 30
0.0
 40
1.5
100
AcDbArc
 50
180.0
 51
270.0
  0
ARC
  5
1C5
330
1F
100
AcDbEntity
  8
1
  6
Continuous
 62
     7
100
AcDbCircle
 10
147.41424904816
 20
-505.847933826143
 30
0.0
 40
1.5
100
AcDbArc
 50
180.0
 51
270.0
  0
ARC
  5
1C6
330
1F
100
AcDbEntity
  8
1
  6
Continuous
 62
     7
100
AcDbCircle
 10
234.414283548178
 20
-505.847899326126
 30
0.0
 40
1.5
100
AcDbArc
 50
270.0
 51
0.0
  0
ARC
  5
1C7
330
1F
100
AcDbEntity
  8
1
  6
Continuous
 62
     7
100
AcDbCircle
 10
231.476840230548
 20
-502.910490508513
 30
0.0
 40
1.5
100
AcDbArc
 50
270.0
 51
0.0
  0
ARC
  5
1C8
330
1F
100
AcDbEntity
  8
1
  6
Continuous
 62
     7
100
AcDbCircle
 10
231.476840230548
 20
-421.785308143739
 30
0.0
 40
1.5
100
AcDbArc
 50
0.0
 51
90.0
  0
ARC
  5
1C9
330
1F
100
AcDbEntity
  8
1
  6
Continuous
 62
     7
100
AcDbCircle
 10
234.41424904816
 20
-418.847864826109
 30
0.0
 40
1.500034500017989
100
AcDbArc
 50
0.0
 51
90.0
  0
ARC
  5
1CA
330
1F
100
AcDbEntity
  8
1
  6
Continuous
 62
     7
100
AcDbCircle
 10
280.856856505047
 20
-431.347864826109
 30
0.0
 40
1.0
100
AcDbArc
 50
0.00000000005862
 51
90.0
  0
ARC
  5
1CB
330
1F
100
AcDbEntity
  8
1
  6
Continuous
 62
     7
100
AcDbCircle
 10
277.856856505047
 20
-431.347864826109
 30
0.0
 40
1.0
100
AcDbArc
 50
90.0
 51
180.0
  0
ARC
  5
1CC
330
1F
100
AcDbEntity
  8
1
  6
Continuous
 62
     7
100
AcDbCircle
 10
277.856856505047
 20
-459.347864826109
 30
0.0
 40
1.0
100
AcDbArc
 50
180.0
 51
270.0
  0
ARC
  5
1CD
330
1F
100
AcDbEntity
  8
1
  6
Continuous
 62
     7
100
AcDbCircle
 10
280.856856505047
 20
-459.347864826109
 30
0.0
 40
1.0
100
AcDbArc
 50
270.0
 51
0.0
  0
ARC
  5
1CE
330
1F
100
AcDbEntity
  8
1
  6
Continuous
 62
     7
100
AcDbCircle
 10
271.856856505047
 20
-459.347864826109
 30
0.0
 40
1.0
100
AcDbArc
 50
270.0
 51
0.0
  0
ARC
  5
1CF
330
1F
100
AcDbEntity
  8
1
  6
Continuous
 62
     7
100
AcDbCircle
 10
268.856856505047
 20
-459.347864826109
 30
0.0
 40
1.0
100
AcDbArc
 50
180.0
 51
270.0
  0
ARC
  5
1D0
330
1F
100
AcDbEntity
  8
1
  6
Continuous
 62
     7
100
AcDbCircle
 10
268.856856505047
 20
-431.347864826109
 30
0.0
 40
1.0
100
AcDbArc
 50
90.0
 51
180.0
  0
ARC
  5
1D1
330
1F
100
AcDbEntity
  8
1
  6
Continuous
 62
     7
100
AcDbCircle
 10
271.856856505047
 20
-431.347864826109
 30
0.0
 40
1.0
100
AcDbArc
 50
0.0
 51
90.0
  0
ARC
  5
1D2
330
1F
100
AcDbEntity
  8
1
  6
Continuous
 62
     7
100
AcDbCircle
 10
271.856856505047
 20
-493.347864826109
 30
0.0
 40
1.0
100
AcDbArc
 50
270.0
 51
0.0
  0
ARC
  5
1D3
330
1F
100
AcDbEntity
  8
1
  6
Continuous
 62
     7
100
AcDbCircle
 10
268.856856505047
 20
-493.347864826109
 30
0.0
 40
1.0
100
AcDbArc
 50
180.0
 51
270.0
  0
ARC
  5
1D4
330
1F
100
AcDbEntity
  8
1
  6
Continuous
 62
     7
100
AcDbCircle
 10
268.856856505047
 20
-465.347864826109
 30
0.0
 40
1.0
100
AcDbArc
 50
90.0
 51
180.0
  0
ARC
  5
1D5
330
1F
100
AcDbEntity
  8
1
  6
Continuous
 62
     7
100
AcDbCircle
 10
271.856856505047
 20
-465.347864826109
 30
0.0
 40
1.0
100
AcDbArc
 50
0.0
 51
90.0
  0
ARC
  5
1D6
330
1F
100
AcDbEntity
  8
1
  6
Continuous
 62
     7
100
AcDbCircle
 10
280.856856505047
 20
-465.347864826109
 30
0.0
 40
1.0
100
AcDbArc
 50
0.0
 51
90.0
  0
ARC
  5
1D7
330
1F
100
AcDbEntity
  8
1
  6
Continuous
 62
     7
100
AcDbCircle
 10
277.856856505047
 20
-465.347864826109
 30
0.0
 40
1.0
100
AcDbArc
 50
90.0
 51
180.0
  0
ARC
  5
1D8
330
1F
100
AcDbEntity
  8
1
  6
Continuous
 62
     7
100
AcDbCircle
 10
277.856856505047
 20
-493.347864826109
 30
0.0
 40
1.0
100
AcDbArc
 50
180.0
 51
270.0
  0
ARC
  5
1D9
330
1F
100
AcDbEntity
  8
1
  6
Continuous
 62
     7
100
AcDbCircle
 10
280.856856505047
 20
-493.347864826109
 30
0.0
 40
1.0
100
AcDbArc
 50
270.0
 51
0.0
  0
ARC
  5
1DA
330
1F
100
AcDbEntity
  8
1
  6
Continuous
 62
     7
100
AcDbCircle
 10
226.365480692369
 20
-385.222641462902
 30
0.0
 40
1.499999999999588
100
AcDbArc
 50
293.2276921791747
 51
354.9999999999753
  0
ARC
  5
1DB
330
1F
100
AcDbEntity
  8
1
  6
Continuous
 62
     7
100
AcDbCircle
 10
215.91424904816
 20
-360.87060341433
 30
0.0
 40
28.0
100
AcDbArc
 50
270.0
 51
293.2276921791769
  0
ARC
  5
1DC
330
1F
100
AcDbEntity
  8
1
  6
Continuous
 62
     7
100
AcDbCircle
 10
165.91424904816
 20
-360.87060341433
 30
0.0
 40
27.99999999999892
100
AcDbArc
 50
246.7723078208223
 51
270.0
  0
ARC
  5
1DD
330
1F
100
AcDbEntity
  8
1
  6
Continuous
 62
     7
100
AcDbCircle
 10
155.463017403949
 20
-385.222641462902
 30
0.0
 40
1.499999999997455
100
AcDbArc
 50
185.0000000000279
 51
246.7723078208797
  0
ARC
  5
1DE
330
1F
100
AcDbEntity
  8
1
  6
Continuous
 62
     7
100
AcDbCircle
 10
225.520346396448
 20
-383.408857422465
 30
0.0
 40
0.9999999999998183
100
AcDbArc
 50
293.0843342941233
 51
354.9999999999821
  0
ARC
  5
1DF
330
1F
100
AcDbEntity
  8
1
  6
Continuous
 62
     7
100
AcDbCircle
 10
215.91424904816
 20
-360.87060341433
 30
0.0
 40
25.50000000000034
100
AcDbArc
 50
289.4712206344904
 51
293.0843342941528
  0
ARC
  5
1E0
330
1F
100
AcDbEntity
  8
1
  6
Continuous
 62
     7
100
AcDbCircle
 10
226.748534477857
 20
-369.37060341433
 30
0.0
 40
1.000000000000295
100
AcDbArc
 50
354.9999999999821
 51
90.0
  0
ARC
  5
1E1
330
1F
100
AcDbEntity
  8
1
  6
Continuous
 62
     7
100
AcDbCircle
 10
155.079963618462
 20
-369.37060341433
 30
0.0
 40
1.0
100
AcDbArc
 50
90.0
 51
185.000000000018
  0
ARC
  5
1E2
330
1F
100
AcDbEntity
  8
1
  6
Continuous
 62
     7
100
AcDbCircle
 10
156.308151699871
 20
-383.408857422465
 30
0.0
 40
1.000000000000266
100
AcDbArc
 50
185.000000000018
 51
246.9156657058243
  0
ARC
  5
1E3
330
1F
100
AcDbEntity
  8
1
  6
Continuous
 62
     7
100
AcDbCircle
 10
215.91424904816
 20
-360.87060341433
 30
0.0
 40
25.5000000000001
100
AcDbArc
 50
271.1235186577004
 51
282.4557926259056
  0
ARC
  5
1E4
330
1F
100
AcDbEntity
  8
1
  6
Continuous
 62
     7
100
AcDbCircle
 10
215.91424904816
 20
-360.87060341433
 30
0.0
 40
25.49999999999953
100
AcDbArc
 50
282.4557926259056
 51
289.4712206344904
  0
ARC
  5
1E5
330
1F
100
AcDbEntity
  8
1
  6
Continuous
 62
     7
100
AcDbCircle
 10
215.91424904816
 20
-360.87060341433
 30
0.0
 40
25.5
100
AcDbArc
 50
270.0
 51
271.1235186577004
  0
ARC
  5
1E6
330
1F
100
AcDbEntity
  8
1
  6
Continuous
 62
     7
100
AcDbCircle
 10
165.91424904816
 20
-360.87060341433
 30
0.0
 40
25.49999999999953
100
AcDbArc
 50
257.5442073740944
 51
268.8764813422996
  0
ARC
  5
1E7
330
1F
100
AcDbEntity
  8
1
  6
Continuous
 62
     7
100
AcDbCircle
 10
165.91424904816
 20
-360.87060341433
 30
0.0
 40
25.50000000000034
100
AcDbArc
 50
250.5287793655096
 51
257.5442073740944
  0
ARC
  5
1E8
330
1F
100
AcDbEntity
  8
1
  6
Continuous
 62
     7
100
AcDbCircle
 10
165.91424904816
 20
-360.87060341433
 30
0.0
 40
25.50000000000061
100
AcDbArc
 50
246.915665705843
 51
250.5287793655096
  0
ARC
  5
1E9
330
1F
100
AcDbEntity
  8
1
  6
Continuous
 62
     7
100
AcDbCircle
 10
165.91424904816
 20
-360.87060341433
 30
0.0
 40
25.5000000000001
100
AcDbArc
 50
268.8764813422996
 51
270.0
  0
ARC
  5
1EA
330
1F
100
AcDbEntity
  8
1
  6
Continuous
 62
     7
100
AcDbCircle
 10
288.731467945628
 20
-419.232017046717
 30
0.0
 40
1.500000000000433
100
AcDbArc
 50
95.00000000002015
 51
135.0
  0
ARC
  5
1EB
330
1F
100
AcDbEntity
  8
1
  6
Continuous
 62
     7
100
AcDbCircle
 10
287.056856505047
 20
-420.906628487298
 30
0.0
 40
1.500000000000253
100
AcDbArc
 50
135.0
 51
180.0
  0
ARC
  5
1EC
330
1F
100
AcDbEntity
  8
1
  6
Continuous
 62
     7
100
AcDbCircle
 10
287.056856505047
 20
-503.789101164918
 30
0.0
 40
1.5
100
AcDbArc
 50
180.0
 51
225.0
  0
ARC
  5
1ED
330
1F
100
AcDbEntity
  8
1
  6
Continuous
 62
     7
100
AcDbCircle
 10
288.731467945628
 20
-505.463712605498
 30
0.0
 40
1.500000000000253
100
AcDbArc
 50
225.0
 51
264.9999999999798
  0
ARC
  5
1EE
330
1F
100
AcDbEntity
  8
1
  6
Continuous
 62
     7
100
AcDbCircle
 10
147.798412768776
 20
-361.495991973749
 30
0.0
 40
1.500000000000339
100
AcDbArc
 50
184.999999999979
 51
224.9999999999984
  0
ARC
  5
1EF
330
1F
100
AcDbEntity
  8
1
  6
Continuous
 62
     7
100
AcDbCircle
 10
149.473024209356
 20
-363.17060341433
 30
0.0
 40
1.500000000000253
100
AcDbArc
 50
225.0
 51
270.0
  0
ARC
  5
1F0
330
1F
100
AcDbEntity
  8
1
  6
Continuous
 62
     7
100
AcDbCircle
 10
232.355496886976
 20
-363.17060341433
 30
0.0
 40
1.5
100
AcDbArc
 50
270.0
 51
315.0
  0
ARC
  5
1F1
330
1F
100
AcDbEntity
  8
1
  6
Continuous
 62
     7
100
AcDbCircle
 10
234.030108327557
 20
-361.495991973749
 30
0.0
 40
1.500000000000213
100
AcDbArc
 50
315.0000000000015
 51
355.0000000000177
  0
ARC
  5
1F2
330
1F
100
AcDbEntity
  8
1
  6
Continuous
 62
     7
100
AcDbCircle
 10
205.014260548166
 20
-355.67060341433
 30
0.0
 40
0.5
100
AcDbArc
 50
90.0
 51
180.0
  0
ARC
  5
1F3
330
1F
100
AcDbEntity
  8
1
  6
Continuous
 62
     7
100
AcDbCircle
 10
208.814260548166
 20
-355.67060341433
 30
0.0
 40
0.5
100
AcDbArc
 50
0.0
 51
90.0
  0
ARC
  5
1F4
330
1F
100
AcDbEntity
  8
1
  6
Continuous
 62
     7
100
AcDbCircle
 10
208.814266298169
 20
-355.67060341433
 30
0.0
 40
0.4999999999993822
100
AcDbArc
 50
78.46304096717073
 51
90.0
  0
ARC
  5
1F5
330
1F
100
AcDbEntity
  8
1
  6
Continuous
 62
     7
100
AcDbCircle
 10
200.814266298169
 20
-355.67060341433
 30
0.0
 40
0.4999999999993822
100
AcDbArc
 50
78.46304096717073
 51
90.0
  0
ARC
  5
1F6
330
1F
100
AcDbEntity
  8
1
  6
Continuous
 62
     7
100
AcDbCircle
 10
200.814260548166
 20
-355.67060341433
 30
0.0
 40
0.5
100
AcDbArc
 50
0.0
 51
90.0
  0
ARC
  5
1F7
330
1F
100
AcDbEntity
  8
1
  6
Continuous
 62
     7
100
AcDbCircle
 10
197.014260548166
 20
-355.67060341433
 30
0.0
 40
0.5
100
AcDbArc
 50
90.0
 51
180.0
  0
ARC
  5
1F8
330
1F
100
AcDbEntity
  8
1
  6
Continuous
 62
     7
100
AcDbCircle
 10
189.014260548166
 20
-355.67060341433
 30
0.0
 40
0.5
100
AcDbArc
 50
90.0
 51
180.0
  0
ARC
  5
1F9
330
1F
100
AcDbEntity
  8
1
  6
Continuous
 62
     7
100
AcDbCircle
 10
192.814260548166
 20
-355.67060341433
 30
0.0
 40
0.5
100
AcDbArc
 50
0.0
 51
90.0
  0
ARC
  5
1FA
330
1F
100
AcDbEntity
  8
1
  6
Continuous
 62
     7
100
AcDbCircle
 10
192.814266298169
 20
-355.67060341433
 30
0.0
 40
0.4999999999993822
100
AcDbArc
 50
78.46304096717073
 51
90.0
  0
CIRCLE
  5
1FB
330
1F
100
AcDbEntity
  8
1
  6
Continuous
 62
     7
100
AcDbCircle
 10
336.07102614532
 20
-333.347864826108
 30
0.0
 40
3.196432272409993
  0
CIRCLE
  5
1FC
330
1F
100
AcDbEntity
  8
1
  6
Continuous
 62
     7
100
AcDbCircle
 10
336.07102614532
 20
-333.347864826108
 30
0.0
 40
4.500034500017989
  0
CIRCLE
  5
1FD
330
1F
100
AcDbEntity
  8
1
  6
Continuous
 62
     7
100
AcDbCircle
 10
336.07102614532
 20
-389.34783032609
 30
0.0
 40
4.500034500017989
  0
CIRCLE
  5
1FE
330
1F
100
AcDbEntity
  8
1
  6
Continuous
 62
     7
100
AcDbCircle
 10
336.07102614532
 20
-389.34783032609
 30
0.0
 40
3.196432272409993
  0
CIRCLE
  5
1FF
330
1F
100
AcDbEntity
  8
1
  6
Continuous
 62
     7
100
AcDbCircle
 10
405.070911145261
 20
-333.347864826108
 30
0.0
 40
3.19643227240698
  0
CIRCLE
  5
200
330
1F
100
AcDbEntity
  8
1
  6
Continuous
 62
     7
100
AcDbCircle
 10
405.070911145261
 20
-333.347864826108
 30
0.0
 40
4.500034500017023
  0
CIRCLE
  5
201
330
1F
100
AcDbEntity
  8
1
  6
Continuous
 62
     7
100
AcDbCircle
 10
405.070911145261
 20
-389.34783032609
 30
0.0
 40
4.500034500017023
  0
CIRCLE
  5
202
330
1F
100
AcDbEntity
  8
1
  6
Continuous
 62
     7
100
AcDbCircle
 10
405.070911145261
 20
-389.34783032609
 30
0.0
 40
3.19643227240698
  0
CIRCLE
  5
203
330
1F
100
AcDbEntity
  8
1
  6
Continuous
 62
     2
100
AcDbCircle
 10
336.07102614532
 20
-333.347864826108
 30
0.0
 40
1.5
  0
CIRCLE
  5
204
330
1F
100
AcDbEntity
  8
1
  6
Continuous
 62
     7
100
AcDbCircle
 10
336.07102614532
 20
-333.347864826108
 30
0.0
 40
1.0
  0
CIRCLE
  5
205
330
1F
100
AcDbEntity
  8
1
  6
Continuous
 62
     7
100
AcDbCircle
 10
405.070911145261
 20
-333.347864826108
 30
0.0
 40
1.0
  0
CIRCLE
  5
206
330
1F
100
AcDbEntity
  8
1
  6
Continuous
 62
     2
100
AcDbCircle
 10
405.070911145261
 20
-333.347864826108
 30
0.0
 40
1.5
  0
CIRCLE
  5
207
330
1F
100
AcDbEntity
  8
1
  6
Continuous
 62
     2
100
AcDbCircle
 10
405.070911145261
 20
-389.34783032609
 30
0.0
 40
1.5
  0
CIRCLE
  5
208
330
1F
100
AcDbEntity
  8
1
  6
Continuous
 62
     7
100
AcDbCircle
 10
405.070911145261
 20
-389.34783032609
 30
0.0
 40
1.0
  0
CIRCLE
  5
209
330
1F
100
AcDbEntity
  8
1
  6
Continuous
 62
     7
100
AcDbCircle
 10
337.22097764529
 20
-355.347864826108
 30
0.0
 40
2.199999999999989
  0
CIRCLE
  5
20A
330
1F
100
AcDbEntity
  8
1
  6
Continuous
 62
     7
100
AcDbCircle
 10
370.57096864529
 20
-388.697855826108
 30
0.0
 40
2.199999999999989
  0
CIRCLE
  5
20B
330
1F
100
AcDbEntity
  8
1
  6
Continuous
 62
     7
100
AcDbCircle
 10
403.92095964529
 20
-355.347864826108
 30
0.0
 40
2.199999999999989
  0
CIRCLE
  5
20C
330
1F
100
AcDbEntity
  8
1
  6
Continuous
 62
     7
100
AcDbCircle
 10
370.57096864529
 20
-321.997873826108
 30
0.0
 40
2.199999999999989
  0
CIRCLE
  5
20D
330
1F
100
AcDbEntity
  8
1
  6
Continuous
 62
     7
100
AcDbCircle
 10
336.07102614532
 20
-389.34783032609
 30
0.0
 40
1.0
  0
CIRCLE
  5
20E
330
1F
100
AcDbEntity
  8
1
  6
Continuous
 62
     2
100
AcDbCircle
 10
336.07102614532
 20
-389.34783032609
 30
0.0
 40
1.5
  0
LEADER
  5
20F
330
1F
100
AcDbEntity
  8
1
  6
Continuous
 62
     2
100
AcDbLeader
  3
Standard
 71
     0
 76
     2
 10
443.827729108498
 20
-302.347864826108
 30
0.0
 10
449.295026782303
 20
-292.878227474974
 30
0.0
  0
LEADER
  5
210
330
1F
100
AcDbEntity
  8
1
  6
Continuous
 62
     2
100
AcDbLeader
  3
Standard
 71
     0
 76
     2
 10
371.67096864529
 20
-390.603111714433
 30
0.0
 10
379.89516077026
 20
-404.84783032609
 30
0.0
  0
TEXT
  5
212
330
1F
100
AcDbEntity
  8
1
 62
     2
100
AcDbText
 10
448.968885159984
 20
-291.878227474974
 30
0.0
 40
2.5
  1
Outlet box cover (To be supplied by the user)
 41
0.81
  7
CONVERTER_12
100
AcDbText
  0
TEXT
  5
213
330
1F
100
AcDbEntity
  8
1
 62
     2
100
AcDbText
 10
311.882776643944
 20
-496.0
 30
0.0
 40
3.5
  1
Wiring differs depending on the specification.
 41
0.81
  7
CONVERTER_12
100
AcDbText
  0
TEXT
  5
214
330
1F
100
AcDbEntity
  8
1
 62
     2
100
AcDbText
 10
361.882776643944
 20
-422.0
 30
0.0
 40
3.5
  1
Mounting plate size
 41
0.81
  7
CONVERTER_12
100
AcDbText
  0
MTEXT
  5
215
330
1F
100
AcDbEntity
  8
1
 62
     2
100
AcDbMText
 10
311.882776643944
 20
-491.0
 30
0.0
 40
3.5
 41
0.0
 71
     7
 72
     1
  1
\U+914d\U+7dda\U+306f\U+4ed5\U+69d8\U+306b\U+3088\U+308a\U+7570\U+306a\U+308b
  7
CONVERTER_12
 73
     1
 44
1.0
  0
MTEXT
  5
216
330
1F
100
AcDbEntity
  8
1
 62
     2
100
AcDbMText
 10
448.968885159984
 20
-287.878227474974
 30
0.0
 40
2.5
 41
0.0
 71
     7
 72
     1
  1
\U+53d6\U+4ed8\U+30dc\U+30c3\U+30af\U+30b9\U+30ab\U+30d0\U+30fc\U+3000\U+3000\U+ff08\U+304a\U+5ba2\U+69d8\U+306b\U+3066\U+6e96\U+5099\U+ff09
  7
CONVERTER_12
 73
     1
 44
1.0
  0
MTEXT
  5
217
330
1F
100
AcDbEntity
  8
1
 62
     2
100
AcDbMText
 10
361.882776643944
 20
-417.0
 30
0.0
 40
3.5
 41
0.0
 71
     7
 72
     1
  1
\U+30a2\U+30c6\U+677f\U+5bf8\U+6cd5
  7
CONVERTER_12
 73
     1
 44
1.0
  0
MTEXT
  5
218
330
1F
100
AcDbEntity
  8
1
 62
     2
100
AcDbMText
 10
380.920839148339
 20
-403.84783032609
 30
0.0
 40
2.5
 41
0.0
 71
     7
 72
     1
  1
{\Fgdt;n}4.4
  7
CONVERTER_12
 73
     1
 44
1.0
  0
MTEXT
  5
219
330
1F
100
AcDbEntity
  8
1
 62
     7
100
AcDbMText
 10
370.81142802805
 20
-532.833181955862
 30
0.0
 40
4.0
 41
0.0
 71
     4
 72
     1
  1
DSW-100
  7
CONVERTER_11
 73
     1
 44
1.0
  0
DIMENSION
  5
22C
330
1F
100
AcDbEntity
  8
1
100
AcDbDimension
  2
*D2
 10
430.8277291084979
 20
-305.847830326089
 30
0.0
 11
430.027729108498
 21
-303.597830326089
 31
0.0
 70
    32
  1
1.6
 71
     5
 42
-1.0
 53
0.00013888888889
  3
ME10_DIM_10
100
AcDbAlignedDimension
 13
429.227729108498
 23
-312.84783032609
 33
0.0
 14
430.827729108498
 24
-312.84783032609
 34
0.0
100
AcDbRotatedDimension
  0
DIMENSION
  5
239
330
1F
100
AcDbEntity
  8
1
100
AcDbDimension
  2
*D4
 10
314.07096864529
 20
-312.847830326089
 30
0.0
 11
311.82096864529
 21
-355.347830326089
 31
0.0
 70
    32
  1
85
 71
     5
 42
-1.0
 53
90.0
  3
ME10_DIM_11
100
AcDbAlignedDimension
 13
329.07096864529
 23
-397.847830326089
 33
0.0
 14
329.07096864529
 24
-312.847830326089
 34
0.0
 50
90.0
100
AcDbRotatedDimension
  0
DIMENSION
  5
246
330
1F
100
AcDbEntity
  8
1
100
AcDbDimension
  2
*D5
 10
321.07096864529
 20
-321.997873826108
 30
0.0
 11
318.82096864529
 21
-355.347864826108
 31
0.0
 70
    32
  1
66.7
 71
     5
 42
-1.0
 53
90.0
  3
ME10_DIM_12
100
AcDbAlignedDimension
 13
366.964151234346
 23
-388.697855826108
 33
0.0
 14
367.102857535294
 24
-321.997873826108
 34
0.0
 50
90.0
100
AcDbRotatedDimension
  0
DIMENSION
  5
253
330
1F
100
AcDbEntity
  8
1
100
AcDbDimension
  2
*D6
 10
328.07096864529
 20
-298.847830326089
 30
0.0
 11
370.57096864529
 21
-296.597830326089
 31
0.0
 70
    32
  1
85
 71
     5
 42
-1.0
 53
0.00013888888889
  3
ME10_DIM_13
100
AcDbAlignedDimension
 13
413.07096864529
 23
-313.847830326089
 33
0.0
 14
328.07096864529
 24
-313.847830326089
 34
0.0
100
AcDbRotatedDimension
  0
DIMENSION
  5
260
330
1F
100
AcDbEntity
  8
1
100
AcDbDimension
  2
*D7
 10
337.22097764529
 20
-305.847830326089
 30
0.0
 11
370.57096864529
 21
-303.597830326089
 31
0.0
 70
    32
  1
66.7
 71
     5
 42
-1.0
 53
0.00013888888889
  3
ME10_DIM_14
100
AcDbAlignedDimension
 13
403.92095964529
 23
-351.879753716112
 33
0.0
 14
337.22097764529
 24
-351.741047415164
 34
0.0
100
AcDbRotatedDimension
  0
DIMENSION
  5
26D
330
1F
100
AcDbEntity
  8
1
100
AcDbDimension
  2
*D8
 10
138.914179021811
 20
-300.2880156828542
 30
0.0
 11
136.664179021811
 21
-328.729309548592
 31
0.0
 70
    32
  1
300
 71
     5
 42
-1.0
 53
90.0
  3
ME10_DIM_15
100
AcDbAlignedDimension
 13
145.914260548167
 23
-357.17060341433
 33
0.0
 14
189.61419154813
 24
-300.288015682854
 34
0.0
 50
90.0
100
AcDbRotatedDimension
  0
DIMENSION
  5
27A
330
1F
100
AcDbEntity
  8
1
100
AcDbDimension
  2
*D9
 10
131.914196624119
 20
-388.87060341433
 30
0.0
 11
129.664196624119
 21
-373.02060341433
 31
0.0
 70
    32
  1
32
 71
     5
 42
-1.0
 53
90.0
  3
ME10_DIM_16
100
AcDbAlignedDimension
 13
145.914260548167
 23
-357.17060341433
 33
0.0
 14
165.91424904816
 24
-388.87060341433
 34
0.0
 50
90.0
100
AcDbRotatedDimension
  0
DIMENSION
  5
287
330
1F
100
AcDbEntity
  8
1
100
AcDbDimension
  2
*D10
 10
138.914191323553
 20
-357.17060341433
 30
0.0
 11
136.664191323553
 21
-360.92060341433
 31
0.0
 70
    32
  1
7.5
 71
     5
 42
-1.0
 53
90.0
  3
ME10_DIM_17
100
AcDbAlignedDimension
 13
149.473024209356
 23
-364.67060341433
 33
0.0
 14
145.914260548167
 24
-357.17060341433
 34
0.0
 50
90.0
100
AcDbRotatedDimension
  0
DIMENSION
  5
294
330
1F
100
AcDbEntity
  8
1
100
AcDbDimension
  2
*D11
 10
145.9142145481424
 20
-403.347864783268
 30
0.0
 11
190.91424904816
 21
-401.097864783268
 31
0.0
 70
    32
  1
90
 71
     5
 42
-1.0
 53
0.00013888888889
  3
ME10_DIM_18
100
AcDbAlignedDimension
 13
235.914283548178
 23
-418.847864826109
 33
0.0
 14
145.914214548143
 24
-418.847899326126
 34
0.0
100
AcDbRotatedDimension
  0
DIMENSION
  5
2A1
330
1F
100
AcDbEntity
  8
1
100
AcDbDimension
  2
*D12
 10
151.91424904816
 20
-410.347864261434
 30
0.0
 11
190.91424904816
 21
-408.097864261434
 31
0.0
 70
    32
  1
78
 71
     5
 42
-1.0
 53
0.00013888888889
  3
ME10_DIM_19
100
AcDbAlignedDimension
 13
229.91424904816
 23
-423.847864826108
 33
0.0
 14
151.91424904816
 24
-423.847864826108
 34
0.0
100
AcDbRotatedDimension
  0
DIMENSION
  5
2AE
330
1F
100
AcDbEntity
  8
1
100
AcDbDimension
  2
*D13
 10
138.914231919564
 20
-501.347864826108
 30
0.0
 11
136.664231919564
 21
-462.347864826108
 31
0.0
 70
    32
  1
78
 71
     5
 42
-1.0
 53
90.0
  3
ME10_DIM_20
100
AcDbAlignedDimension
 13
152.41424904816
 23
-423.347864826108
 33
0.0
 14
152.41424904816
 24
-501.347864826108
 34
0.0
 50
90.0
100
AcDbRotatedDimension
  0
DIMENSION
  5
2BB
330
1F
100
AcDbEntity
  8
1
100
AcDbDimension
  2
*D14
 10
131.914231793599
 20
-507.3479338261425
 30
0.0
 11
129.664231793599
 21
-462.347916576134
 31
0.0
 70
    32
  1
90
 71
     5
 42
-1.0
 53
90.0
  3
ME10_DIM_21
100
AcDbAlignedDimension
 13
147.414214548143
 23
-417.347899326126
 33
0.0
 14
147.41424904816
 24
-507.347933826143
 34
0.0
 50
90.0
100
AcDbRotatedDimension
  0
ENDSEC
  0
SECTION
  2
OBJECTS
  0
DICTIONARY
  5
C
330
0
100
AcDbDictionary
281
     1
  3
ACAD_GROUP
350
D
  3
ACAD_LAYOUT
350
1A
  3
ACAD_MATERIAL
350
3B
  3
ACAD_MLEADERSTYLE
350
2BE
  3
ACAD_MLINESTYLE
350
17
  3
ACAD_PLOTSETTINGS
350
19
  3
ACAD_PLOTSTYLENAME
350
E
  3
ACAD_VISUALSTYLE
350
2A
  3
AcDbVariableDictionary
350
2BC
  0
DICTIONARY
  5
D
102
{ACAD_REACTORS
330
C
102
}
330
C
100
AcDbDictionary
281
     1
  0
DICTIONARY
  5
1A
102
{ACAD_REACTORS
330
C
102
}
330
C
100
AcDbDictionary
281
     1
  3
Layout1
350
1E
  3
Layout2
350
26
  3
Model
350
22
  0
DICTIONARY
  5
3B
102
{ACAD_REACTORS
330
C
102
}
330
C
100
AcDbDictionary
281
     1
  3
ByBlock
350
3D
  3
ByLayer
350
3C
  3
Global
350
3E
  0
DICTIONARY
  5
2BE
102
{ACAD_REACTORS
330
C
102
}
330
C
100
AcDbDictionary
281
     1
  0
DICTIONARY
  5
17
102
{ACAD_REACTORS
330
C
102
}
330
C
100
AcDbDictionary
281
     1
  3
Standard
350
18
  0
DICTIONARY
  5
19
102
{ACAD_REACTORS
330
C
102
}
330
C
100
AcDbDictionary
281
     1
  0
ACDBDICTIONARYWDFLT
  5
E
102
{ACAD_REACTORS
330
C
102
}
330
C
100
AcDbDictionary
281
     1
  3
Normal
350
F
100
AcDbDictionaryWithDefault
340
F
  0
DICTIONARY
  5
2A
102
{ACAD_REACTORS
330
C
102
}
330
C
100
AcDbDictionary
281
     1
  3
2dWireframe
350
2F
  3
3D Hidden
350
31
  3
3dWireframe
350
30
  3
Basic
350
32
  3
Brighten
350
36
  3
ColorChange
350
3A
  3
Conceptual
350
34
  3
Dim
350
35
  3
Facepattern
350
39
  3
Flat
350
2B
  3
FlatWithEdges
350
2C
  3
Gouraud
350
2D
  3
GouraudWithEdges
350
2E
  3
Linepattern
350
38
  3
Realistic
350
33
  3
Thicken
350
37
  0
DICTIONARY
  5
2BC
102
{ACAD_REACTORS
330
C
102
}
330
C
100
AcDbDictionary
281
     1
  3
DIMASSOC
350
2BF
  3
HIDETEXT
350
2C0
  0
LAYOUT
  5
1E
102
{ACAD_REACTORS
330
1A
102
}
330
1A
100
AcDbPlotSettings
  1

  2
none_device
  4

  6

 40
0.0
 41
0.0
 42
0.0
 43
0.0
 44
0.0
 45
0.0
 46
0.0
 47
0.0
 48
0.0
 49
0.0
140
0.0
141
0.0
142
1.0
143
1.0
 70
   688
 72
     0
 73
     0
 74
     5
  7

 75
    16
147
1.0
148
0.0
149
0.0
100
AcDbLayout
  1
Layout1
 70
     1
 71
     1
 10
0.0
 20
0.0
 11
12.0
 21
9.0
 12
0.0
 22
0.0
 32
0.0
 14
1.00000000000000E+20
 24
1.00000000000000E+20
 34
1.00000000000000E+20
 15
-1.00000000000000E+20
 25
-1.00000000000000E+20
 35
-1.00000000000000E+20
146
0.0
 13
0.0
 23
0.0
 33
0.0
 16
1.0
 26
0.0
 36
0.0
 17
0.0
 27
1.0
 37
0.0
 76
     0
330
1B
  0
LAYOUT
  5
26
102
{ACAD_REACTORS
330
1A
102
}
330
1A
100
AcDbPlotSettings
  1

  2
none_device
  4

  6

 40
0.0
 41
0.0
 42
0.0
 43
0.0
 44
0.0
 45
0.0
 46
0.0
 47
0.0
 48
0.0
 49
0.0
140
0.0
141
0.0
142
1.0
143
1.0
 70
   688
 72
     0
 73
     0
 74
     5
  7

 75
    16
147
1.0
148
0.0
149
0.0
100
AcDbLayout
  1
Layout2
 70
     1
 71
     2
 10
0.0
 20
0.0
 11
0.0
 21
0.0
 12
0.0
 22
0.0
 32
0.0
 14
0.0
 24
0.0
 34
0.0
 15
0.0
 25
0.0
 35
0.0
146
0.0
 13
0.0
 23
0.0
 33
0.0
 16
1.0
 26
0.0
 36
0.0
 17
0.0
 27
1.0
 37
0.0
 76
     0
330
23
  0
LAYOUT
  5
22
102
{ACAD_REACTORS
330
1A
102
}
330
1A
100
AcDbPlotSettings
  1

  2
none_device
  4

  6

 40
0.0
 41
0.0
 42
0.0
 43
0.0
 44
0.0
 45
0.0
 46
0.0
 47
0.0
 48
0.0
 49
0.0
140
0.0
141
0.0
142
1.0
143
1.0
 70
  1712
 72
     0
 73
     0
 74
     0
  7

 75
     0
147
1.0
148
0.0
149
0.0
100
AcDbLayout
  1
Model
 70
     1
 71
     0
 10
0.0
 20
0.0
 11
12.0
 21
9.0
 12
0.0
 22
0.0
 32
0.0
 14
128.414196624119
 24
-534.833181955862
 34
0.0
 15
530.295026782303
 25
-285.378227474974
 35
0.0
146
0.0
 13
0.0
 23
0.0
 33
0.0
 16
1.0
 26
0.0
 36
0.0
 17
0.0
 27
1.0
 37
0.0
 76
     0
330
1F
331
29
  0
MATERIAL
  5
3D
102
{ACAD_REACTORS
330
3B
102
}
102
{ACAD_XDICTIONARY
360
2E3
102
}
330
3B
100
AcDbMaterial
  1
ByBlock
  0
MATERIAL
  5
3C
102
{ACAD_REACTORS
330
3B
102
}
102
{ACAD_XDICTIONARY
360
2E1
102
}
330
3B
100
AcDbMaterial
  1
ByLayer
  0
MATERIAL
  5
3E
102
{ACAD_REACTORS
330
3B
102
}
102
{ACAD_XDICTIONARY
360
2E5
102
}
330
3B
100
AcDbMaterial
  1
Global
  0
MLINESTYLE
  5
18
102
{ACAD_REACTORS
330
17
102
}
330
17
100
AcDbMlineStyle
  2
Standard
 70
     0
  3

 62
   256
 51
90.0
 52
90.0
 71
     2
 49
0.5
 62
   256
  6
BYLAYER
 49
-0.5
 62
   256
  6
BYLAYER
  0
ACDBPLACEHOLDER
  5
F
102
{ACAD_REACTORS
330
E
102
}
330
E
  0
VISUALSTYLE
  5
2F
102
{ACAD_REACTORS
330
2A
102
}
102
{ACAD_XDICTIONARY
360
2C9
102
}
330
2A
100
AcDbVisualStyle
  2
2dWireframe
 70
     4
 71
     0
 72
     2
 73
     0
 90
        0
 40
-0.6
 41
-30.0
 62
     5
 63
     7
 74
     1
 91
        4
 64
     7
 65
   257
 75
     1
175
     1
 42
1.0
 92
        0
 66
   257
 43
1.0
 76
     1
 77
     6
 78
     2
 67
     7
 79
     5
170
     0
171
     0
290
     0
174
     0
 93
        1
 44
0.0
173
     0
291
     0
 45
0.0
1001
ACAD
1000
AcDbSavedByObjectVersion
1070
     0
  0
VISUALSTYLE
  5
31
102
{ACAD_REACTORS
330
2A
102
}
102
{ACAD_XDICTIONARY
360
2CD
102
}
330
2A
100
AcDbVisualStyle
  2
3D Hidden
 70
     6
 71
     1
 72
     2
 73
     2
 90
        0
 40
-0.6
 41
-30.0
 62
     5
 63
     7
 74
     2
 91
        2
 64
     7
 65
   257
 75
     2
175
     1
 42
40.0
 92
        0
 66
   257
 43
1.0
 76
     1
 77
     6
 78
     2
 67
     7
 79
     3
170
     0
171
     0
290
     0
174
     0
 93
        1
 44
0.0
173
     0
291
     0
 45
0.0
1001
ACAD
1000
AcDbSavedByObjectVersion
1070
     0
  0
VISUALSTYLE
  5
30
102
{ACAD_REACTORS
330
2A
102
}
102
{ACAD_XDICTIONARY
360
2CB
102
}
330
2A
100
AcDbVisualStyle
  2
3dWireframe
 70
     5
 71
     0
 72
     2
 73
     0
 90
        0
 40
-0.6
 41
-30.0
 62
     5
 63
     7
 74
     1
 91
        4
 64
     7
 65
   257
 75
     1
175
     1
 42
1.0
 92
        0
 66
   257
 43
1.0
 76
     1
 77
     6
 78
     2
 67
     7
 79
     5
170
     0
171
     0
290
     0
174
     0
 93
        1
 44
0.0
173
     0
291
     0
 45
0.0
1001
ACAD
1000
AcDbSavedByObjectVersion
1070
     0
  0
VISUALSTYLE
  5
32
102
{ACAD_REACTORS
330
2A
102
}
102
{ACAD_XDICTIONARY
360
2CF
102
}
330
2A
100
AcDbVisualStyle
  2
Basic
 70
     7
 71
     1
 72
     0
 73
     1
 90
        0
 40
-0.6
 41
-30.0
 62
     5
 63
     7
 74
     0
 91
        4
 64
     7
 65
   257
 75
     1
175
     1
 42
1.0
 92
        8
 66
     7
 43
1.0
 76
     1
 77
     6
 78
     2
 67
     7
 79
     5
170
     0
171
     0
290
     0
174
     0
 93
        1
 44
0.0
173
     0
291
     1
 45
0.0
1001
ACAD
1000
AcDbSavedByObjectVersion
1070
     0
  0
VISUALSTYLE
  5
36
102
{ACAD_REACTORS
330
2A
102
}
102
{ACAD_XDICTIONARY
360
2D7
102
}
330
2A
100
AcDbVisualStyle
  2
Brighten
 70
    12
 71
     2
 72
     2
 73
     0
 90
        0
 40
-0.6
 41
-30.0
 62
     5
 63
     7
 74
     1
 91
        4
 64
     7
 65
   257
 75
     1
175
     1
 42
1.0
 92
        8
 66
     7
 43
1.0
 76
     1
 77
     6
 78
     2
 67
     7
 79
     5
170
     0
171
     0
290
     0
174
     0
 93
        1
 44
50.0
173
     0
291
     1
 45
0.0
1001
ACAD
1000
AcDbSavedByObjectVersion
1070
     0
  0
VISUALSTYLE
  5
3A
102
{ACAD_REACTORS
330
2A
102
}
102
{ACAD_XDICTIONARY
360
2DF
102
}
330
2A
100
AcDbVisualStyle
  2
ColorChange
 70
    16
 71
     2
 72
     2
 73
     3
 90
        0
 40
-0.6
 41
-30.0
 62
     5
 63
     8
 74
     1
 91
        4
 64
     7
 65
   257
 75
     1
175
     1
 42
1.0
 92
        8
 66
     8
 43
1.0
 76
     1
 77
     6
 78
     2
 67
     7
 79
     5
170
     0
171
     0
290
     0
174
     0
 93
        1
 44
0.0
173
     0
291
     1
 45
0.0
1001
ACAD
1000
AcDbSavedByObjectVersion
1070
     0
  0
VISUALSTYLE
  5
34
102
{ACAD_REACTORS
330
2A
102
}
102
{ACAD_XDICTIONARY
360
2D3
102
}
330
2A
100
AcDbVisualStyle
  2
Conceptual
 70
     9
 71
     3
 72
     2
 73
     0
 90
        0
 40
-0.6
 41
-30.0
 62
     5
 63
     7
 74
     2
 91
        2
 64
     7
 65
   257
 75
     1
175
     1
 42
40.0
 92
        8
 66
     7
 43
1.0
 76
     1
 77
     6
 78
     2
 67
     7
 79
     3
170
     0
171
     0
290
     0
174
     0
 93
        1
 44
0.0
173
     0
291
     0
 45
0.0
1001
ACAD
1000
AcDbSavedByObjectVersion
1070
     0
  0
VISUALSTYLE
  5
35
102
{ACAD_REACTORS
330
2A
102
}
102
{ACAD_XDICTIONARY
360
2D5
102
}
330
2A
100
AcDbVisualStyle
  2
Dim
 70
    11
 71
     2
 72
     2
 73
     0
 90
        0
 40
-0.6
 41
-30.0
 62
     5
 63
     7
 74
     1
 91
        4
 64
     7
 65
   257
 75
     1
175
     1
 42
1.0
 92
        8
 66
     7
 43
1.0
 76
     1
 77
     6
 78
     2
 67
     7
 79
     5
170
     0
171
     0
290
     0
174
     0
 93
        1
 44
-50.0
173
     0
291
     1
 45
0.0
1001
ACAD
1000
AcDbSavedByObjectVersion
1070
     0
  0
VISUALSTYLE
  5
39
102
{ACAD_REACTORS
330
2A
102
}
102
{ACAD_XDICTIONARY
360
2DD
102
}
330
2A
100
AcDbVisualStyle
  2
Facepattern
 70
    15
 71
     2
 72
     2
 73
     0
 90
        0
 40
-0.6
 41
-30.0
 62
     5
 63
     7
 74
     1
 91
        4
 64
     7
 65
   257
 75
     1
175
     1
 42
1.0
 92
        8
 66
     7
 43
1.0
 76
     1
 77
     6
 78
     2
 67
     7
 79
     5
170
     0
171
     0
290
     0
174
     0
 93
        1
 44
0.0
173
     0
291
     1
 45
0.0
1001
ACAD
1000
AcDbSavedByObjectVersion
1070
     0
  0
VISUALSTYLE
  5
2B
102
{ACAD_REACTORS
330
2A
102
}
102
{ACAD_XDICTIONARY
360
2C1
102
}
330
2A
100
AcDbVisualStyle
  2
Flat
 70
     0
 71
     2
 72
     1
 73
     1
 90
        2
 40
-0.6
 41
30.0
 62
     5
 63
     7
 74
     0
 91
        4
 64
     7
 65
   257
 75
     1
175
     1
 42
1.0
 92
        8
 66
     7
 43
1.0
 76
     1
 77
     6
 78
     2
 67
     7
 79
     5
170
     0
171
     0
290
     0
174
     0
 93
       13
 44
0.0
173
     0
291
     1
 45
0.0
1001
ACAD
1000
AcDbSavedByObjectVersion
1070
     0
  0
VISUALSTYLE
  5
2C
102
{ACAD_REACTORS
330
2A
102
}
102
{ACAD_XDICTIONARY
360
2C3
102
}
330
2A
100
AcDbVisualStyle
  2
FlatWithEdges
 70
     1
 71
     2
 72
     1
 73
     1
 90
        2
 40
-0.6
 41
30.0
 62
     5
 63
     7
 74
     1
 91
        4
 64
     7
 65
   257
 75
     1
175
     1
 42
1.0
 92
        0
 66
   257
 43
1.0
 76
     1
 77
     6
 78
     2
 67
     7
 79
     5
170
     0
171
     0
290
     0
174
     0
 93
       13
 44
0.0
173
     0
291
     1
 45
0.0
1001
ACAD
1000
AcDbSavedByObjectVersion
1070
     0
  0
VISUALSTYLE
  5
2D
102
{ACAD_REACTORS
330
2A
102
}
102
{ACAD_XDICTIONARY
360
2C5
102
}
330
2A
100
AcDbVisualStyle
  2
Gouraud
 70
     2
 71
     2
 72
     2
 73
     1
 90
        2
 40
-0.6
 41
30.0
 62
     5
 63
     7
 74
     0
 91
        4
 64
     7
 65
   257
 75
     1
175
     1
 42
1.0
 92
        0
 66
     7
 43
1.0
 76
     1
 77
     6
 78
     2
 67
     7
 79
     5
170
     0
171
     0
290
     0
174
     0
 93
       13
 44
0.0
173
     0
291
     1
 45
0.0
1001
ACAD
1000
AcDbSavedByObjectVersion
1070
     0
  0
VISUALSTYLE
  5
2E
102
{ACAD_REACTORS
330
2A
102
}
102
{ACAD_XDICTIONARY
360
2C7
102
}
330
2A
100
AcDbVisualStyle
  2
GouraudWithEdges
 70
     3
 71
     2
 72
     2
 73
     1
 90
        2
 40
-0.6
 41
30.0
 62
     5
 63
     7
 74
     1
 91
        4
 64
     7
 65
   257
 75
     1
175
     1
 42
1.0
 92
        0
 66
   257
 43
1.0
 76
     1
 77
     6
 78
     2
 67
     7
 79
     5
170
     0
171
     0
290
     0
174
     0
 93
       13
 44
0.0
173
     0
291
     1
 45
0.0
1001
ACAD
1000
AcDbSavedByObjectVersion
1070
     0
  0
VISUALSTYLE
  5
38
102
{ACAD_REACTORS
330
2A
102
}
102
{ACAD_XDICTIONARY
360
2DB
102
}
330
2A
100
AcDbVisualStyle
  2
Linepattern
 70
    14
 71
     2
 72
     2
 73
     0
 90
        0
 40
-0.6
 41
-30.0
 62
     5
 63
     7
 74
     1
 91
        4
 64
     7
 65
   257
 75
     7
175
     7
 42
1.0
 92
        8
 66
     7
 43
1.0
 76
     1
 77
     6
 78
     2
 67
     7
 79
     5
170
     0
171
     0
290
     0
174
     0
 93
        1
 44
0.0
173
     0
291
     1
 45
0.0
1001
ACAD
1000
AcDbSavedByObjectVersion
1070
     0
  0
VISUALSTYLE
  5
33
102
{ACAD_REACTORS
330
2A
102
}
102
{ACAD_XDICTIONARY
360
2D1
102
}
330
2A
100
AcDbVisualStyle
  2
Realistic
 70
     8
 71
     2
 72
     2
 73
     0
 90
        0
 40
-0.6
 41
-30.0
 62
     5
 63
     7
 74
     1
 91
        0
 64
     7
 65
   257
 75
     1
175
     1
 42
1.0
 92
        8
 66
     8
 43
1.0
 76
     1
 77
     6
 78
     2
 67
     7
 79
     5
170
     0
171
     0
290
     0
174
     0
 93
       13
 44
0.0
173
     0
291
     0
 45
0.0
1001
ACAD
1000
AcDbSavedByObjectVersion
1070
     0
  0
VISUALSTYLE
  5
37
102
{ACAD_REACTORS
330
2A
102
}
102
{ACAD_XDICTIONARY
360
2D9
102
}
330
2A
100
AcDbVisualStyle
  2
Thicken
 70
    13
 71
     2
 72
     2
 73
     0
 90
        0
 40
-0.6
 41
-30.0
 62
     5
 63
     7
 74
     1
 91
        4
 64
     7
 65
   257
 75
     1
175
     1
 42
1.0
 92
       12
 66
     7
 43
1.0
 76
     1
 77
     6
 78
     2
 67
     7
 79
     5
170
     0
171
     0
290
     0
174
     0
 93
        1
 44
0.0
173
     0
291
     1
 45
0.0
1001
ACAD
1000
AcDbSavedByObjectVersion
1070
     0
  0
DICTIONARYVAR
  5
2BF
102
{ACAD_REACTORS
330
2BC
102
}
330
2BC
100
DictionaryVariables
280
     0
  1
2
  0
DICTIONARYVAR
  5
2C0
102
{ACAD_REACTORS
330
2BC
102
}
330
2BC
100
DictionaryVariables
280
     0
  1
1
  0
DICTIONARY
  5
2E3
330
3D
100
AcDbDictionary
280
     1
281
     1
  3
ACAD_XREC_ROUNDTRIP
360
2E4
  0
DICTIONARY
  5
2E1
330
3C
100
AcDbDictionary
280
     1
281
     1
  3
ACAD_XREC_ROUNDTRIP
360
2E2
  0
DICTIONARY
  5
2E5
330
3E
100
AcDbDictionary
280
     1
281
     1
  3
ACAD_XREC_ROUNDTRIP
360
2E6
  0
DICTIONARY
  5
2C9
330
2F
100
AcDbDictionary
280
     1
281
     1
  3
ACAD_XREC_ROUNDTRIP
360
2CA
  0
DICTIONARY
  5
2CD
330
31
100
AcDbDictionary
280
     1
281
     1
  3
ACAD_XREC_ROUNDTRIP
360
2CE
  0
DICTIONARY
  5
2CB
330
30
100
AcDbDictionary
280
     1
281
     1
  3
ACAD_XREC_ROUNDTRIP
360
2CC
  0
DICTIONARY
  5
2CF
330
32
100
AcDbDictionary
280
     1
281
     1
  3
ACAD_XREC_ROUNDTRIP
360
2D0
  0
DICTIONARY
  5
2D7
330
36
100
AcDbDictionary
280
     1
281
     1
  3
ACAD_XREC_ROUNDTRIP
360
2D8
  0
DICTIONARY
  5
2DF
330
3A
100
AcDbDictionary
280
     1
281
     1
  3
ACAD_XREC_ROUNDTRIP
360
2E0
  0
DICTIONARY
  5
2D3
330
34
100
AcDbDictionary
280
     1
281
     1
  3
ACAD_XREC_ROUNDTRIP
360
2D4
  0
DICTIONARY
  5
2D5
330
35
100
AcDbDictionary
280
     1
281
     1
  3
ACAD_XREC_ROUNDTRIP
360
2D6
  0
DICTIONARY
  5
2DD
330
39
100
AcDbDictionary
280
     1
281
     1
  3
ACAD_XREC_ROUNDTRIP
360
2DE
  0
DICTIONARY
  5
2C1
330
2B
100
AcDbDictionary
280
     1
281
     1
  3
ACAD_XREC_ROUNDTRIP
360
2C2
  0
DICTIONARY
  5
2C3
330
2C
100
AcDbDictionary
280
     1
281
     1
  3
ACAD_XREC_ROUNDTRIP
360
2C4
  0
DICTIONARY
  5
2C5
330
2D
100
AcDbDictionary
280
     1
281
     1
  3
ACAD_XREC_ROUNDTRIP
360
2C6
  0
DICTIONARY
  5
2C7
330
2E
100
AcDbDictionary
280
     1
281
     1
  3
ACAD_XREC_ROUNDTRIP
360
2C8
  0
DICTIONARY
  5
2DB
330
38
100
AcDbDictionary
280
     1
281
     1
  3
ACAD_XREC_ROUNDTRIP
360
2DC
  0
DICTIONARY
  5
2D1
330
33
100
AcDbDictionary
280
     1
281
     1
  3
ACAD_XREC_ROUNDTRIP
360
2D2
  0
DICTIONARY
  5
2D9
330
37
100
AcDbDictionary
280
     1
281
     1
  3
ACAD_XREC_ROUNDTRIP
360
2DA
  0
XRECORD
  5
2E4
102
{ACAD_REACTORS
330
2E3
102
}
330
2E3
100
AcDbXrecord
280
     1
102
MATERIAL
148
0.0
149
0.0
149
0.0
 93
        0
 94
      127
282
     0
 72
     1
 77
     1
171
     1
175
     1
179
     1
273
     0
  0
XRECORD
  5
2E2
102
{ACAD_REACTORS
330
2E1
102
}
330
2E1
100
AcDbXrecord
280
     1
102
MATERIAL
148
0.0
149
0.0
149
0.0
 93
        0
 94
      127
282
     0
 72
     1
 77
     1
171
     1
175
     1
179
     1
273
     0
  0
XRECORD
  5
2E6
102
{ACAD_REACTORS
330
2E5
102
}
330
2E5
100
AcDbXrecord
280
     1
102
MATERIAL
148
0.0
149
0.0
149
0.0
 93
        0
 94
      127
282
     0
 72
     1
 77
     1
171
     1
175
     1
179
     1
273
     0
  0
XRECORD
  5
2CA
102
{ACAD_REACTORS
330
2C9
102
}
330
2C9
100
AcDbXrecord
280
     1
102
RTVSPropertyOp0
 70
     1
102
RTVSPropertyOp1
 70
     1
102
RTVSPropertyOp2
 70
     1
102
RTVSPropertyOp3
 70
     1
102
RTVSPropertyOp4
 70
     1
102
RTVSPropertyOp5
 70
     1
102
RTVSPropertyOp6
 70
     1
102
RTVSPropertyOp7
 70
     1
102
RTVSPropertyOp8
 70
     1
102
RTVSPropertyOp9
 70
     1
102
RTVSPropertyOp10
 70
     1
102
RTVSPropertyOp11
 70
     1
102
RTVSPropertyOp12
 70
     1
102
RTVSPropertyOp13
 70
     1
102
RTVSPropertyOp14
 70
     1
102
RTVSPropertyOp15
 70
     1
102
RTVSPropertyOp16
 70
     1
102
RTVSPropertyOp17
 70
     1
102
RTVSPropertyOp18
 70
     1
102
RTVSPropertyOp19
 70
     1
102
RTVSPropertyOp20
 70
     1
102
RTVSPropertyOp21
 70
     1
102
RTVSPropertyOp22
 70
     1
102
RTVSPropertyOp23
 70
     1
102
RTVSPropertyOp24
 70
     1
102
RTVSPropertyOp25
 70
     1
102
RTVSPropertyOp26
 70
     1
102
RTVSPropertyOp27
 70
     1
102
RTVSPropertyOp28
 70
     1
102
RTVSPropertyOp29
 70
     1
102
RTVSPropertyOp30
 70
     1
102
RTVSPropertyOp31
 70
     1
102
RTVSPropertyOp32
 70
     1
  0
XRECORD
  5
2CE
102
{ACAD_REACTORS
330
2CD
102
}
330
2CD
100
AcDbXrecord
280
     1
102
RTVSPropertyOp0
 70
     1
102
RTVSPropertyOp1
 70
     1
102
RTVSPropertyOp2
 70
     1
102
RTVSPropertyOp3
 70
     1
102
RTVSPropertyOp4
 70
     1
102
RTVSPropertyOp5
 70
     1
102
RTVSPropertyOp6
 70
     1
102
RTVSPropertyOp7
 70
     1
102
RTVSPropertyOp8
 70
     1
102
RTVSPropertyOp9
 70
     1
102
RTVSPropertyOp10
 70
     1
102
RTVSPropertyOp11
 70
     1
102
RTVSPropertyOp12
 70
     1
102
RTVSPropertyOp13
 70
     1
102
RTVSPropertyOp14
 70
     1
102
RTVSPropertyOp15
 70
     1
102
RTVSPropertyOp16
 70
     1
102
RTVSPropertyOp17
 70
     1
102
RTVSPropertyOp18
 70
     1
102
RTVSPropertyOp19
 70
     1
102
RTVSPropertyOp20
 70
     1
102
RTVSPropertyOp21
 70
     1
102
RTVSPropertyOp22
 70
     1
102
RTVSPropertyOp23
 70
     1
102
RTVSPropertyOp24
 70
     1
102
RTVSPropertyOp25
 70
     1
102
RTVSPropertyOp26
 70
     1
102
RTVSPropertyOp27
 70
     1
102
RTVSPropertyOp28
 70
     1
102
RTVSPropertyOp29
 70
     1
102
RTVSPropertyOp30
 70
     1
102
RTVSPropertyOp31
 70
     1
102
RTVSPropertyOp32
 70
     1
  0
XRECORD
  5
2CC
102
{ACAD_REACTORS
330
2CB
102
}
330
2CB
100
AcDbXrecord
280
     1
102
RTVSPropertyOp0
 70
     1
102
RTVSPropertyOp1
 70
     1
102
RTVSPropertyOp2
 70
     1
102
RTVSPropertyOp3
 70
     1
102
RTVSPropertyOp4
 70
     1
102
RTVSPropertyOp5
 70
     1
102
RTVSPropertyOp6
 70
     1
102
RTVSPropertyOp7
 70
     1
102
RTVSPropertyOp8
 70
     1
102
RTVSPropertyOp9
 70
     1
102
RTVSPropertyOp10
 70
     1
102
RTVSPropertyOp11
 70
     1
102
RTVSPropertyOp12
 70
     1
102
RTVSPropertyOp13
 70
     1
102
RTVSPropertyOp14
 70
     1
102
RTVSPropertyOp15
 70
     1
102
RTVSPropertyOp16
 70
     1
102
RTVSPropertyOp17
 70
     1
102
RTVSPropertyOp18
 70
     1
102
RTVSPropertyOp19
 70
     1
102
RTVSPropertyOp20
 70
     1
102
RTVSPropertyOp21
 70
     1
102
RTVSPropertyOp22
 70
     1
102
RTVSPropertyOp23
 70
     1
102
RTVSPropertyOp24
 70
     1
102
RTVSPropertyOp25
 70
     1
102
RTVSPropertyOp26
 70
     1
102
RTVSPropertyOp27
 70
     1
102
RTVSPropertyOp28
 70
     1
102
RTVSPropertyOp29
 70
     1
102
RTVSPropertyOp30
 70
     1
102
RTVSPropertyOp31
 70
     1
102
RTVSPropertyOp32
 70
     1
  0
XRECORD
  5
2D0
102
{ACAD_REACTORS
330
2CF
102
}
330
2CF
100
AcDbXrecord
280
     1
102
RTVSPropertyOp0
 70
     1
102
RTVSPropertyOp1
 70
     1
102
RTVSPropertyOp2
 70
     1
102
RTVSPropertyOp3
 70
     1
102
RTVSPropertyOp4
 70
     1
102
RTVSPropertyOp5
 70
     1
102
RTVSPropertyOp6
 70
     1
102
RTVSPropertyOp7
 70
     1
102
RTVSPropertyOp8
 70
     1
102
RTVSPropertyOp9
 70
     1
102
RTVSPropertyOp10
 70
     1
102
RTVSPropertyOp11
 70
     1
102
RTVSPropertyOp12
 70
     1
102
RTVSPropertyOp13
 70
     1
102
RTVSPropertyOp14
 70
     1
102
RTVSPropertyOp15
 70
     1
102
RTVSPropertyOp16
 70
     1
102
RTVSPropertyOp17
 70
     1
102
RTVSPropertyOp18
 70
     1
102
RTVSPropertyOp19
 70
     1
102
RTVSPropertyOp20
 70
     1
102
RTVSPropertyOp21
 70
     1
102
RTVSPropertyOp22
 70
     1
102
RTVSPropertyOp23
 70
     1
102
RTVSPropertyOp24
 70
     1
102
RTVSPropertyOp25
 70
     1
102
RTVSPropertyOp26
 70
     1
102
RTVSPropertyOp27
 70
     1
102
RTVSPropertyOp28
 70
     1
102
RTVSPropertyOp29
 70
     1
102
RTVSPropertyOp30
 70
     1
102
RTVSPropertyOp31
 70
     1
102
RTVSPropertyOp32
 70
     1
  0
XRECORD
  5
2D8
102
{ACAD_REACTORS
330
2D7
102
}
330
2D7
100
AcDbXrecord
280
     1
102
RTVSPropertyOp0
 70
     1
102
RTVSPropertyOp1
 70
     1
102
RTVSPropertyOp2
 70
     1
102
RTVSPropertyOp3
 70
     1
102
RTVSPropertyOp4
 70
     1
102
RTVSPropertyOp5
 70
     1
102
RTVSPropertyOp6
 70
     1
102
RTVSPropertyOp7
 70
     1
102
RTVSPropertyOp8
 70
     1
102
RTVSPropertyOp9
 70
     1
102
RTVSPropertyOp10
 70
     1
102
RTVSPropertyOp11
 70
     1
102
RTVSPropertyOp12
 70
     1
102
RTVSPropertyOp13
 70
     1
102
RTVSPropertyOp14
 70
     1
102
RTVSPropertyOp15
 70
     1
102
RTVSPropertyOp16
 70
     1
102
RTVSPropertyOp17
 70
     1
102
RTVSPropertyOp18
 70
     1
102
RTVSPropertyOp19
 70
     1
102
RTVSPropertyOp20
 70
     1
102
RTVSPropertyOp21
 70
     1
102
RTVSPropertyOp22
 70
     1
102
RTVSPropertyOp23
 70
     1
102
RTVSPropertyOp24
 70
     1
102
RTVSPropertyOp25
 70
     1
102
RTVSPropertyOp26
 70
     1
102
RTVSPropertyOp27
 70
     1
102
RTVSPropertyOp28
 70
     1
102
RTVSPropertyOp29
 70
     1
102
RTVSPropertyOp30
 70
     1
102
RTVSPropertyOp31
 70
     1
102
RTVSPropertyOp32
 70
     1
  0
XRECORD
  5
2E0
102
{ACAD_REACTORS
330
2DF
102
}
330
2DF
100
AcDbXrecord
280
     1
102
RTVSPropertyOp0
 70
     1
102
RTVSPropertyOp1
 70
     1
102
RTVSPropertyOp2
 70
     1
102
RTVSPropertyOp3
 70
     1
102
RTVSPropertyOp4
 70
     1
102
RTVSPropertyOp5
 70
     1
102
RTVSPropertyOp6
 70
     1
102
RTVSPropertyOp7
 70
     1
102
RTVSPropertyOp8
 70
     1
102
RTVSPropertyOp9
 70
     1
102
RTVSPropertyOp10
 70
     1
102
RTVSPropertyOp11
 70
     1
102
RTVSPropertyOp12
 70
     1
102
RTVSPropertyOp13
 70
     1
102
RTVSPropertyOp14
 70
     1
102
RTVSPropertyOp15
 70
     1
102
RTVSPropertyOp16
 70
     1
102
RTVSPropertyOp17
 70
     1
102
RTVSPropertyOp18
 70
     1
102
RTVSPropertyOp19
 70
     1
102
RTVSPropertyOp20
 70
     1
102
RTVSPropertyOp21
 70
     1
102
RTVSPropertyOp22
 70
     1
102
RTVSPropertyOp23
 70
     1
102
RTVSPropertyOp24
 70
     1
102
RTVSPropertyOp25
 70
     1
102
RTVSPropertyOp26
 70
     1
102
RTVSPropertyOp27
 70
     1
102
RTVSPropertyOp28
 70
     1
102
RTVSPropertyOp29
 70
     1
102
RTVSPropertyOp30
 70
     1
102
RTVSPropertyOp31
 70
     1
102
RTVSPropertyOp32
 70
     1
  0
XRECORD
  5
2D4
102
{ACAD_REACTORS
330
2D3
102
}
330
2D3
100
AcDbXrecord
280
     1
102
RTVSPropertyOp0
 70
     1
102
RTVSPropertyOp1
 70
     1
102
RTVSPropertyOp2
 70
     1
102
RTVSPropertyOp3
 70
     1
102
RTVSPropertyOp4
 70
     1
102
RTVSPropertyOp5
 70
     1
102
RTVSPropertyOp6
 70
     1
102
RTVSPropertyOp7
 70
     1
102
RTVSPropertyOp8
 70
     1
102
RTVSPropertyOp9
 70
     1
102
RTVSPropertyOp10
 70
     1
102
RTVSPropertyOp11
 70
     1
102
RTVSPropertyOp12
 70
     1
102
RTVSPropertyOp13
 70
     1
102
RTVSPropertyOp14
 70
     1
102
RTVSPropertyOp15
 70
     1
102
RTVSPropertyOp16
 70
     1
102
RTVSPropertyOp17
 70
     1
102
RTVSPropertyOp18
 70
     1
102
RTVSPropertyOp19
 70
     1
102
RTVSPropertyOp20
 70
     1
102
RTVSPropertyOp21
 70
     1
102
RTVSPropertyOp22
 70
     1
102
RTVSPropertyOp23
 70
     1
102
RTVSPropertyOp24
 70
     1
102
RTVSPropertyOp25
 70
     1
102
RTVSPropertyOp26
 70
     1
102
RTVSPropertyOp27
 70
     1
102
RTVSPropertyOp28
 70
     1
102
RTVSPropertyOp29
 70
     1
102
RTVSPropertyOp30
 70
     1
102
RTVSPropertyOp31
 70
     1
102
RTVSPropertyOp32
 70
     1
  0
XRECORD
  5
2D6
102
{ACAD_REACTORS
330
2D5
102
}
330
2D5
100
AcDbXrecord
280
     1
102
RTVSPropertyOp0
 70
     1
102
RTVSPropertyOp1
 70
     1
102
RTVSPropertyOp2
 70
     1
102
RTVSPropertyOp3
 70
     1
102
RTVSPropertyOp4
 70
     1
102
RTVSPropertyOp5
 70
     1
102
RTVSPropertyOp6
 70
     1
102
RTVSPropertyOp7
 70
     1
102
RTVSPropertyOp8
 70
     1
102
RTVSPropertyOp9
 70
     1
102
RTVSPropertyOp10
 70
     1
102
RTVSPropertyOp11
 70
     1
102
RTVSPropertyOp12
 70
     1
102
RTVSPropertyOp13
 70
     1
102
RTVSPropertyOp14
 70
     1
102
RTVSPropertyOp15
 70
     1
102
RTVSPropertyOp16
 70
     1
102
RTVSPropertyOp17
 70
     1
102
RTVSPropertyOp18
 70
     1
102
RTVSPropertyOp19
 70
     1
102
RTVSPropertyOp20
 70
     1
102
RTVSPropertyOp21
 70
     1
102
RTVSPropertyOp22
 70
     1
102
RTVSPropertyOp23
 70
     1
102
RTVSPropertyOp24
 70
     1
102
RTVSPropertyOp25
 70
     1
102
RTVSPropertyOp26
 70
     1
102
RTVSPropertyOp27
 70
     1
102
RTVSPropertyOp28
 70
     1
102
RTVSPropertyOp29
 70
     1
102
RTVSPropertyOp30
 70
     1
102
RTVSPropertyOp31
 70
     1
102
RTVSPropertyOp32
 70
     1
  0
XRECORD
  5
2DE
102
{ACAD_REACTORS
330
2DD
102
}
330
2DD
100
AcDbXrecord
280
     1
102
RTVSPropertyOp0
 70
     1
102
RTVSPropertyOp1
 70
     1
102
RTVSPropertyOp2
 70
     1
102
RTVSPropertyOp3
 70
     1
102
RTVSPropertyOp4
 70
     1
102
RTVSPropertyOp5
 70
     1
102
RTVSPropertyOp6
 70
     1
102
RTVSPropertyOp7
 70
     1
102
RTVSPropertyOp8
 70
     1
102
RTVSPropertyOp9
 70
     1
102
RTVSPropertyOp10
 70
     1
102
RTVSPropertyOp11
 70
     1
102
RTVSPropertyOp12
 70
     1
102
RTVSPropertyOp13
 70
     1
102
RTVSPropertyOp14
 70
     1
102
RTVSPropertyOp15
 70
     1
102
RTVSPropertyOp16
 70
     1
102
RTVSPropertyOp17
 70
     1
102
RTVSPropertyOp18
 70
     1
102
RTVSPropertyOp19
 70
     1
102
RTVSPropertyOp20
 70
     1
102
RTVSPropertyOp21
 70
     1
102
RTVSPropertyOp22
 70
     1
102
RTVSPropertyOp23
 70
     1
102
RTVSPropertyOp24
 70
     1
102
RTVSPropertyOp25
 70
     1
102
RTVSPropertyOp26
 70
     1
102
RTVSPropertyOp27
 70
     1
102
RTVSPropertyOp28
 70
     1
102
RTVSPropertyOp29
 70
     1
102
RTVSPropertyOp30
 70
     1
102
RTVSPropertyOp31
 70
     1
102
RTVSPropertyOp32
 70
     1
  0
XRECORD
  5
2C2
102
{ACAD_REACTORS
330
2C1
102
}
330
2C1
100
AcDbXrecord
280
     1
102
RTVSPropertyOp0
 70
     1
102
RTVSPropertyOp1
 70
     1
102
RTVSPropertyOp2
 70
     1
102
RTVSPropertyOp3
 70
     1
102
RTVSPropertyOp4
 70
     1
102
RTVSPropertyOp5
 70
     1
102
RTVSPropertyOp6
 70
     1
102
RTVSPropertyOp7
 70
     1
102
RTVSPropertyOp8
 70
     1
102
RTVSPropertyOp9
 70
     1
102
RTVSPropertyOp10
 70
     1
102
RTVSPropertyOp11
 70
     1
102
RTVSPropertyOp12
 70
     1
102
RTVSPropertyOp13
 70
     1
102
RTVSPropertyOp14
 70
     1
102
RTVSPropertyOp15
 70
     1
102
RTVSPropertyOp16
 70
     1
102
RTVSPropertyOp17
 70
     1
102
RTVSPropertyOp18
 70
     1
102
RTVSPropertyOp19
 70
     1
102
RTVSPropertyOp20
 70
     1
102
RTVSPropertyOp21
 70
     1
102
RTVSPropertyOp22
 70
     1
102
RTVSPropertyOp23
 70
     1
102
RTVSPropertyOp24
 70
     1
102
RTVSPropertyOp25
 70
     1
102
RTVSPropertyOp26
 70
     1
102
RTVSPropertyOp27
 70
     1
102
RTVSPropertyOp28
 70
     1
102
RTVSPropertyOp29
 70
     1
102
RTVSPropertyOp30
 70
     1
102
RTVSPropertyOp31
 70
     1
102
RTVSPropertyOp32
 70
     1
  0
XRECORD
  5
2C4
102
{ACAD_REACTORS
330
2C3
102
}
330
2C3
100
AcDbXrecord
280
     1
102
RTVSPropertyOp0
 70
     1
102
RTVSPropertyOp1
 70
     1
102
RTVSPropertyOp2
 70
     1
102
RTVSPropertyOp3
 70
     1
102
RTVSPropertyOp4
 70
     1
102
RTVSPropertyOp5
 70
     1
102
RTVSPropertyOp6
 70
     1
102
RTVSPropertyOp7
 70
     1
102
RTVSPropertyOp8
 70
     1
102
RTVSPropertyOp9
 70
     1
102
RTVSPropertyOp10
 70
     1
102
RTVSPropertyOp11
 70
     1
102
RTVSPropertyOp12
 70
     1
102
RTVSPropertyOp13
 70
     1
102
RTVSPropertyOp14
 70
     1
102
RTVSPropertyOp15
 70
     1
102
RTVSPropertyOp16
 70
     1
102
RTVSPropertyOp17
 70
     1
102
RTVSPropertyOp18
 70
     1
102
RTVSPropertyOp19
 70
     1
102
RTVSPropertyOp20
 70
     1
102
RTVSPropertyOp21
 70
     1
102
RTVSPropertyOp22
 70
     1
102
RTVSPropertyOp23
 70
     1
102
RTVSPropertyOp24
 70
     1
102
RTVSPropertyOp25
 70
     1
102
RTVSPropertyOp26
 70
     1
102
RTVSPropertyOp27
 70
     1
102
RTVSPropertyOp28
 70
     1
102
RTVSPropertyOp29
 70
     1
102
RTVSPropertyOp30
 70
     1
102
RTVSPropertyOp31
 70
     1
102
RTVSPropertyOp32
 70
     1
  0
XRECORD
  5
2C6
102
{ACAD_REACTORS
330
2C5
102
}
330
2C5
100
AcDbXrecord
280
     1
102
RTVSPropertyOp0
 70
     1
102
RTVSPropertyOp1
 70
     1
102
RTVSPropertyOp2
 70
     1
102
RTVSPropertyOp3
 70
     1
102
RTVSPropertyOp4
 70
     1
102
RTVSPropertyOp5
 70
     1
102
RTVSPropertyOp6
 70
     1
102
RTVSPropertyOp7
 70
     1
102
RTVSPropertyOp8
 70
     1
102
RTVSPropertyOp9
 70
     1
102
RTVSPropertyOp10
 70
     1
102
RTVSPropertyOp11
 70
     1
102
RTVSPropertyOp12
 70
     1
102
RTVSPropertyOp13
 70
     1
102
RTVSPropertyOp14
 70
     1
102
RTVSPropertyOp15
 70
     1
102
RTVSPropertyOp16
 70
     1
102
RTVSPropertyOp17
 70
     1
102
RTVSPropertyOp18
 70
     1
102
RTVSPropertyOp19
 70
     1
102
RTVSPropertyOp20
 70
     1
102
RTVSPropertyOp21
 70
     1
102
RTVSPropertyOp22
 70
     1
102
RTVSPropertyOp23
 70
     1
102
RTVSPropertyOp24
 70
     1
102
RTVSPropertyOp25
 70
     1
102
RTVSPropertyOp26
 70
     1
102
RTVSPropertyOp27
 70
     1
102
RTVSPropertyOp28
 70
     1
102
RTVSPropertyOp29
 70
     1
102
RTVSPropertyOp30
 70
     1
102
RTVSPropertyOp31
 70
     1
102
RTVSPropertyOp32
 70
     1
  0
XRECORD
  5
2C8
102
{ACAD_REACTORS
330
2C7
102
}
330
2C7
100
AcDbXrecord
280
     1
102
RTVSPropertyOp0
 70
     1
102
RTVSPropertyOp1
 70
     1
102
RTVSPropertyOp2
 70
     1
102
RTVSPropertyOp3
 70
     1
102
RTVSPropertyOp4
 70
     1
102
RTVSPropertyOp5
 70
     1
102
RTVSPropertyOp6
 70
     1
102
RTVSPropertyOp7
 70
     1
102
RTVSPropertyOp8
 70
     1
102
RTVSPropertyOp9
 70
     1
102
RTVSPropertyOp10
 70
     1
102
RTVSPropertyOp11
 70
     1
102
RTVSPropertyOp12
 70
     1
102
RTVSPropertyOp13
 70
     1
102
RTVSPropertyOp14
 70
     1
102
RTVSPropertyOp15
 70
     1
102
RTVSPropertyOp16
 70
     1
102
RTVSPropertyOp17
 70
     1
102
RTVSPropertyOp18
 70
     1
102
RTVSPropertyOp19
 70
     1
102
RTVSPropertyOp20
 70
     1
102
RTVSPropertyOp21
 70
     1
102
RTVSPropertyOp22
 70
     1
102
RTVSPropertyOp23
 70
     1
102
RTVSPropertyOp24
 70
     1
102
RTVSPropertyOp25
 70
     1
102
RTVSPropertyOp26
 70
     1
102
RTVSPropertyOp27
 70
     1
102
RTVSPropertyOp28
 70
     1
102
RTVSPropertyOp29
 70
     1
102
RTVSPropertyOp30
 70
     1
102
RTVSPropertyOp31
 70
     1
102
RTVSPropertyOp32
 70
     1
  0
XRECORD
  5
2DC
102
{ACAD_REACTORS
330
2DB
102
}
330
2DB
100
AcDbXrecord
280
     1
102
RTVSPropertyOp0
 70
     1
102
RTVSPropertyOp1
 70
     1
102
RTVSPropertyOp2
 70
     1
102
RTVSPropertyOp3
 70
     1
102
RTVSPropertyOp4
 70
     1
102
RTVSPropertyOp5
 70
     1
102
RTVSPropertyOp6
 70
     1
102
RTVSPropertyOp7
 70
     1
102
RTVSPropertyOp8
 70
     1
102
RTVSPropertyOp9
 70
     1
102
RTVSPropertyOp10
 70
     1
102
RTVSPropertyOp11
 70
     1
102
RTVSPropertyOp12
 70
     1
102
RTVSPropertyOp13
 70
     1
102
RTVSPropertyOp14
 70
     1
102
RTVSPropertyOp15
 70
     1
102
RTVSPropertyOp16
 70
     1
102
RTVSPropertyOp17
 70
     1
102
RTVSPropertyOp18
 70
     1
102
RTVSPropertyOp19
 70
     1
102
RTVSPropertyOp20
 70
     1
102
RTVSPropertyOp21
 70
     1
102
RTVSPropertyOp22
 70
     1
102
RTVSPropertyOp23
 70
     1
102
RTVSPropertyOp24
 70
     1
102
RTVSPropertyOp25
 70
     1
102
RTVSPropertyOp26
 70
     1
102
RTVSPropertyOp27
 70
     1
102
RTVSPropertyOp28
 70
     1
102
RTVSPropertyOp29
 70
     1
102
RTVSPropertyOp30
 70
     1
102
RTVSPropertyOp31
 70
     1
102
RTVSPropertyOp32
 70
     1
  0
XRECORD
  5
2D2
102
{ACAD_REACTORS
330
2D1
102
}
330
2D1
100
AcDbXrecord
280
     1
102
RTVSPropertyOp0
 70
     1
102
RTVSPropertyOp1
 70
     1
102
RTVSPropertyOp2
 70
     1
102
RTVSPropertyOp3
 70
     1
102
RTVSPropertyOp4
 70
     1
102
RTVSPropertyOp5
 70
     1
102
RTVSPropertyOp6
 70
     1
102
RTVSPropertyOp7
 70
     1
102
RTVSPropertyOp8
 70
     1
102
RTVSPropertyOp9
 70
     1
102
RTVSPropertyOp10
 70
     1
102
RTVSPropertyOp11
 70
     1
102
RTVSPropertyOp12
 70
     1
102
RTVSPropertyOp13
 70
     1
102
RTVSPropertyOp14
 70
     1
102
RTVSPropertyOp15
 70
     1
102
RTVSPropertyOp16
 70
     1
102
RTVSPropertyOp17
 70
     1
102
RTVSPropertyOp18
 70
     1
102
RTVSPropertyOp19
 70
     1
102
RTVSPropertyOp20
 70
     1
102
RTVSPropertyOp21
 70
     1
102
RTVSPropertyOp22
 70
     1
102
RTVSPropertyOp23
 70
     1
102
RTVSPropertyOp24
 70
     1
102
RTVSPropertyOp25
 70
     1
102
RTVSPropertyOp26
 70
     1
102
RTVSPropertyOp27
 70
     1
102
RTVSPropertyOp28
 70
     1
102
RTVSPropertyOp29
 70
     1
102
RTVSPropertyOp30
 70
     1
102
RTVSPropertyOp31
 70
     1
102
RTVSPropertyOp32
 70
     1
  0
XRECORD
  5
2DA
102
{ACAD_REACTORS
330
2D9
102
}
330
2D9
100
AcDbXrecord
280
     1
102
RTVSPropertyOp0
 70
     1
102
RTVSPropertyOp1
 70
     1
102
RTVSPropertyOp2
 70
     1
102
RTVSPropertyOp3
 70
     1
102
RTVSPropertyOp4
 70
     1
102
RTVSPropertyOp5
 70
     1
102
RTVSPropertyOp6
 70
     1
102
RTVSPropertyOp7
 70
     1
102
RTVSPropertyOp8
 70
     1
102
RTVSPropertyOp9
 70
     1
102
RTVSPropertyOp10
 70
     1
102
RTVSPropertyOp11
 70
     1
102
RTVSPropertyOp12
 70
     1
102
RTVSPropertyOp13
 70
     1
102
RTVSPropertyOp14
 70
     1
102
RTVSPropertyOp15
 70
     1
102
RTVSPropertyOp16
 70
     1
102
RTVSPropertyOp17
 70
     1
102
RTVSPropertyOp18
 70
     1
102
RTVSPropertyOp19
 70
     1
102
RTVSPropertyOp20
 70
     1
102
RTVSPropertyOp21
 70
     1
102
RTVSPropertyOp22
 70
     1
102
RTVSPropertyOp23
 70
     1
102
RTVSPropertyOp24
 70
     1
102
RTVSPropertyOp25
 70
     1
102
RTVSPropertyOp26
 70
     1
102
RTVSPropertyOp27
 70
     1
102
RTVSPropertyOp28
 70
     1
102
RTVSPropertyOp29
 70
     1
102
RTVSPropertyOp30
 70
     1
102
RTVSPropertyOp31
 70
     1
102
RTVSPropertyOp32
 70
     1
  0
ENDSEC
  0
EOF
