  0
SECTION
  2
HEADER
  9
$ACADVER
  1
AC1014
  9
$ACADMAINTVER
 70
     9
  9
$DWGCODEPAGE
  3
ANSI_932
  9
$INSBASE
 10
0.0
 20
0.0
 30
0.0
  9
$EXTMIN
 10
86.41888011877592
 20
107.627652856
 30
0.0
  9
$EXTMAX
 10
268.98610776574
 20
212.7489747488
 30
0.0
  9
$LIMMIN
 10
0.0
 20
0.0
  9
$LIMMAX
 10
12.0
 20
9.0
  9
$ORTHOMODE
 70
     0
  9
$REGENMODE
 70
     1
  9
$FILLMODE
 70
     1
  9
$QTEXTMODE
 70
     0
  9
$MIRRTEXT
 70
     1
  9
$DRAGMODE
 70
     2
  9
$LTSCALE
 40
1.0
  9
$OSMODE
 70
    37
  9
$ATTMODE
 70
     1
  9
$TEXTSIZE
 40
0.2
  9
$TRACEWID
 40
0.05
  9
$TEXTSTYLE
  7
STANDARD
  9
$CLAYER
  8
0
  9
$CELTYPE
  6
BYLAYER
  9
$CECOLOR
 62
   256
  9
$CELTSCALE
 40
1.0
  9
$DELOBJ
 70
     1
  9
$DISPSILH
 70
     0
  9
$DIMSCALE
 40
1.0
  9
$DIMASZ
 40
0.18
  9
$DIMEXO
 40
0.0625
  9
$DIMDLI
 40
0.38
  9
$DIMRND
 40
0.0
  9
$DIMDLE
 40
0.0
  9
$DIMEXE
 40
0.18
  9
$DIMTP
 40
0.0
  9
$DIMTM
 40
0.0
  9
$DIMTXT
 40
0.18
  9
$DIMCEN
 40
0.09
  9
$DIMTSZ
 40
0.0
  9
$DIMTOL
 70
     0
  9
$DIMLIM
 70
     0
  9
$DIMTIH
 70
     1
  9
$DIMTOH
 70
     1
  9
$DIMSE1
 70
     0
  9
$DIMSE2
 70
     0
  9
$DIMTAD
 70
     0
  9
$DIMZIN
 70
     0
  9
$DIMBLK
  1

  9
$DIMASO
 70
     1
  9
$DIMSHO
 70
     1
  9
$DIMPOST
  1

  9
$DIMAPOST
  1

  9
$DIMALT
 70
     0
  9
$DIMALTD
 70
     2
  9
$DIMALTF
 40
25.4
  9
$DIMLFAC
 40
1.0
  9
$DIMTOFL
 70
     0
  9
$DIMTVP
 40
0.0
  9
$DIMTIX
 70
     0
  9
$DIMSOXD
 70
     0
  9
$DIMSAH
 70
     0
  9
$DIMBLK1
  1

  9
$DIMBLK2
  1

  9
$DIMSTYLE
  2
STANDARD
  9
$DIMCLRD
 70
     0
  9
$DIMCLRE
 70
     0
  9
$DIMCLRT
 70
     0
  9
$DIMTFAC
 40
1.0
  9
$DIMGAP
 40
0.09
  9
$DIMJUST
 70
     0
  9
$DIMSD1
 70
     0
  9
$DIMSD2
 70
     0
  9
$DIMTOLJ
 70
     1
  9
$DIMTZIN
 70
     0
  9
$DIMALTZ
 70
     0
  9
$DIMALTTZ
 70
     0
  9
$DIMFIT
 70
     3
  9
$DIMUPT
 70
     0
  9
$DIMUNIT
 70
     2
  9
$DIMDEC
 70
     4
  9
$DIMTDEC
 70
     4
  9
$DIMALTU
 70
     2
  9
$DIMALTTD
 70
     2
  9
$DIMTXSTY
  7
STANDARD
  9
$DIMAUNIT
 70
     0
  9
$LUNITS
 70
     2
  9
$LUPREC
 70
     4
  9
$SKETCHINC
 40
0.1
  9
$FILLETRAD
 40
0.5
  9
$AUNITS
 70
     0
  9
$AUPREC
 70
     0
  9
$MENU
  1
.
  9
$ELEVATION
 40
0.0
  9
$PELEVATION
 40
0.0
  9
$THICKNESS
 40
0.0
  9
$LIMCHECK
 70
     0
  9
$CHAMFERA
 40
0.0
  9
$CHAMFERB
 40
0.0
  9
$CHAMFERC
 40
0.0
  9
$CHAMFERD
 40
0.0
  9
$SKPOLY
 70
     0
  9
$TDCREATE
 40
2458268.736710359
  9
$TDUPDATE
 40
2458268.736710555
  9
$TDINDWG
 40
0.0000000116
  9
$TDUSRTIMER
 40
0.0000000116
  9
$USRTIMER
 70
     1
  9
$ANGBASE
 50
0.0
  9
$ANGDIR
 70
     0
  9
$PDMODE
 70
     0
  9
$PDSIZE
 40
0.0
  9
$PLINEWID
 40
0.0
  9
$COORDS
 70
     1
  9
$SPLFRAME
 70
     0
  9
$SPLINETYPE
 70
     6
  9
$SPLINESEGS
 70
     8
  9
$ATTDIA
 70
     0
  9
$ATTREQ
 70
     1
  9
$HANDLING
 70
     1
  9
$HANDSEED
  5
4FD
  9
$SURFTAB1
 70
     6
  9
$SURFTAB2
 70
     6
  9
$SURFTYPE
 70
     6
  9
$SURFU
 70
     6
  9
$SURFV
 70
     6
  9
$UCSNAME
  2

  9
$UCSORG
 10
0.0
 20
0.0
 30
0.0
  9
$UCSXDIR
 10
1.0
 20
0.0
 30
0.0
  9
$UCSYDIR
 10
0.0
 20
1.0
 30
0.0
  9
$PUCSNAME
  2

  9
$PUCSORG
 10
0.0
 20
0.0
 30
0.0
  9
$PUCSXDIR
 10
1.0
 20
0.0
 30
0.0
  9
$PUCSYDIR
 10
0.0
 20
1.0
 30
0.0
  9
$USERI1
 70
     0
  9
$USERI2
 70
     0
  9
$USERI3
 70
     0
  9
$USERI4
 70
     0
  9
$USERI5
 70
     0
  9
$USERR1
 40
20.0
  9
$USERR2
 40
0.0
  9
$USERR3
 40
0.0
  9
$USERR4
 40
0.0
  9
$USERR5
 40
0.0
  9
$WORLDVIEW
 70
     1
  9
$SHADEDGE
 70
     3
  9
$SHADEDIF
 70
    70
  9
$TILEMODE
 70
     1
  9
$MAXACTVP
 70
    64
  9
$PINSBASE
 10
0.0
 20
0.0
 30
0.0
  9
$PLIMCHECK
 70
     0
  9
$PEXTMIN
 10
1.00000000000000E+20
 20
1.00000000000000E+20
 30
1.00000000000000E+20
  9
$PEXTMAX
 10
-1.00000000000000E+20
 20
-1.00000000000000E+20
 30
-1.00000000000000E+20
  9
$PLIMMIN
 10
0.0
 20
0.0
  9
$PLIMMAX
 10
12.0
 20
9.0
  9
$UNITMODE
 70
     0
  9
$VISRETAIN
 70
     1
  9
$PLINEGEN
 70
     0
  9
$PSLTSCALE
 70
     1
  9
$TREEDEPTH
 70
  3020
  9
$PICKSTYLE
 70
     1
  9
$CMLSTYLE
  2
STANDARD
  9
$CMLJUST
 70
     0
  9
$CMLSCALE
 40
1.0
  9
$PROXYGRAPHICS
 70
     1
  9
$MEASUREMENT
 70
     1
  0
ENDSEC
  0
SECTION
  2
CLASSES
  0
CLASS
  1
ACDBDICTIONARYWDFLT
  2
AcDbDictionaryWithDefault
  3
ObjectDBX Classes
 90
        0
280
     0
281
     0
  0
CLASS
  1
VISUALSTYLE
  2
AcDbVisualStyle
  3
ObjectDBX Classes
 90
     4095
280
     0
281
     0
  0
CLASS
  1
MATERIAL
  2
AcDbMaterial
  3
ObjectDBX Classes
 90
     1153
280
     0
281
     0
  0
CLASS
  1
SCALE
  2
AcDbScale
  3
ObjectDBX Classes
 90
     1153
280
     0
281
     0
  0
CLASS
  1
TABLESTYLE
  2
AcDbTableStyle
  3
ObjectDBX Classes
 90
     4095
280
     0
281
     0
  0
CLASS
  1
MLEADERSTYLE
  2
AcDbMLeaderStyle
  3
ACDB_MLEADERSTYLE_CLASS
 90
     4095
280
     0
281
     0
  0
CLASS
  1
SUN
  2
AcDbSun
  3
SCENEOE
 90
     1153
280
     0
281
     0
  0
CLASS
  1
DICTIONARYVAR
  2
AcDbDictionaryVar
  3
ObjectDBX Classes
 90
        0
280
     0
281
     0
  0
CLASS
  1
XRECORD
  2
AcDbXrecord
  3
ObjectDBX Classes
 90
        0
280
     0
281
     0
  0
CLASS
  1
LWPOLYLINE
  2
AcDbPolyline
  3
ObjectDBX Classes
 90
        0
280
     0
281
     1
  0
CLASS
  1
HATCH
  2
AcDbHatch
  3
ObjectDBX Classes
 90
        0
280
     0
281
     1
  0
CLASS
  1
ACDBPLACEHOLDER
  2
AcDbPlaceHolder
  3
ObjectDBX Classes
 90
        0
280
     0
281
     0
  0
CLASS
  1
LAYOUT
  2
AcDbLayout
  3
ObjectDBX Classes
 90
        0
280
     0
281
     0
  0
ENDSEC
  0
SECTION
  2
TABLES
  0
TABLE
  2
VPORT
  5
8
102
{ACAD_XDICTIONARY
360
4F2
102
}
330
0
100
AcDbSymbolTable
 70
     1
  0
VPORT
  5
29
330
8
100
AcDbSymbolTableRecord
100
AcDbViewportTableRecord
  2
*ACTIVE
 70
     0
 10
0.0
 20
0.0
 11
1.0
 21
1.0
 12
177.7024939422579
 22
160.1883138024
 13
0.0
 23
0.0
 14
0.5
 24
0.5
 15
0.5
 25
0.5
 16
0.0
 26
0.0
 36
1.0
 17
0.0
 27
0.0
 37
0.0
 40
125.3051946858272
 41
1.60267857142857
 42
50.0
 43
0.0
 44
0.0
 50
0.0
 51
0.0
 71
     0
 72
   100
 73
     1
 74
     3
 75
     0
 76
     0
 77
     0
 78
     0
  0
ENDTAB
  0
TABLE
  2
LTYPE
  5
5
330
0
100
AcDbSymbolTable
 70
     8
  0
LTYPE
  5
14
330
5
100
AcDbSymbolTableRecord
100
AcDbLinetypeTableRecord
  2
BYBLOCK
 70
     0
  3

 72
    65
 73
     0
 40
0.0
  0
LTYPE
  5
15
330
5
100
AcDbSymbolTableRecord
100
AcDbLinetypeTableRecord
  2
BYLAYER
 70
     0
  3

 72
    65
 73
     0
 40
0.0
  0
LTYPE
  5
16
330
5
100
AcDbSymbolTableRecord
100
AcDbLinetypeTableRecord
  2
CONTINUOUS
 70
     0
  3
Solid line
 72
    65
 73
     0
 40
0.0
  0
LTYPE
  5
6E
330
5
100
AcDbSymbolTableRecord
100
AcDbLinetypeTableRecord
  2
DASHED
 70
     0
  3
Dashed
 72
    65
 73
     2
 40
15.0
 49
7.0
 74
     0
 49
-8.0
 74
     0
  0
LTYPE
  5
6F
330
5
100
AcDbSymbolTableRecord
100
AcDbLinetypeTableRecord
  2
DOTTED
 70
     0
  3
Dotted
 72
    65
 73
     2
 40
1.0
 49
0.0
 74
     0
 49
-1.0
 74
     0
  0
LTYPE
  5
70
330
5
100
AcDbSymbolTableRecord
100
AcDbLinetypeTableRecord
  2
DOT_CENTER
 70
     0
  3
Dot_Center
 72
    65
 73
     4
 40
14.0
 49
12.0
 74
     0
 49
-1.0
 74
     0
 49
0.0
 74
     0
 49
-1.0
 74
     0
  0
LTYPE
  5
71
330
5
100
AcDbSymbolTableRecord
100
AcDbLinetypeTableRecord
  2
LONG_DASHED
 70
     0
  3
Long_Dashed
 72
    65
 73
     2
 40
15.0
 49
10.0
 74
     0
 49
-5.0
 74
     0
  0
LTYPE
  5
72
330
5
100
AcDbSymbolTableRecord
100
AcDbLinetypeTableRecord
  2
DASH_CENTER
 70
     0
  3
Dash_Center
 72
    65
 73
     4
 40
14.0
 49
11.0
 74
     0
 49
-1.0
 74
     0
 49
1.0
 74
     0
 49
-1.0
 74
     0
  0
LTYPE
  5
73
330
5
100
AcDbSymbolTableRecord
100
AcDbLinetypeTableRecord
  2
PHANTOM
 70
     0
  3
Phantom
 72
    65
 73
     6
 40
13.0
 49
10.0
 74
     0
 49
-1.0
 74
     0
 49
0.0
 74
     0
 49
-1.0
 74
     0
 49
0.0
 74
     0
 49
-1.0
 74
     0
  0
LTYPE
  5
74
330
5
100
AcDbSymbolTableRecord
100
AcDbLinetypeTableRecord
  2
CENTER_DASH_DASH
 70
     0
  3
Center_Dash_Dash
 72
    65
 73
     6
 40
14.0
 49
9.0
 74
     0
 49
-1.0
 74
     0
 49
1.0
 74
     0
 49
-1.0
 74
     0
 49
1.0
 74
     0
 49
-1.0
 74
     0
  0
ENDTAB
  0
TABLE
  2
LAYER
  5
2
330
0
100
AcDbSymbolTable
 70
     5
  0
LAYER
  5
10
330
2
100
AcDbSymbolTableRecord
100
AcDbLayerTableRecord
  2
0
 70
     0
 62
     7
  6
CONTINUOUS
  0
LAYER
  5
75
330
2
100
AcDbSymbolTableRecord
100
AcDbLayerTableRecord
  2
1
 70
     0
 62
     7
  6
CONTINUOUS
  0
LAYER
  5
76
330
2
100
AcDbSymbolTableRecord
100
AcDbLayerTableRecord
  2
Z_OM_DIM
 70
     0
 62
     7
  6
CONTINUOUS
  0
LAYER
  5
77
330
2
100
AcDbSymbolTableRecord
100
AcDbLayerTableRecord
  2
Z_OM_OUTLINE
 70
     0
 62
     7
  6
CONTINUOUS
  0
LAYER
  5
78
330
2
100
AcDbSymbolTableRecord
100
AcDbLayerTableRecord
  2
黒地
 70
     0
 62
     7
  6
CONTINUOUS
  0
ENDTAB
  0
TABLE
  2
STYLE
  5
3
330
0
100
AcDbSymbolTable
 70
     2
  0
STYLE
  5
11
330
3
100
AcDbSymbolTableRecord
100
AcDbTextStyleTableRecord
  2
STANDARD
 70
     0
 40
0.0
 41
1.0
 50
0.0
 71
     0
 42
0.2
  3
txt
  4

  0
STYLE
  5
470
330
3
100
AcDbSymbolTableRecord
100
AcDbTextStyleTableRecord
  2
CONVERTER_11
 70
     0
 40
0.0
 41
0.9
 50
0.0
 71
     0
 42
0.2
  3
txt.shx
  4

  0
ENDTAB
  0
TABLE
  2
VIEW
  5
6
330
0
100
AcDbSymbolTable
 70
     0
  0
ENDTAB
  0
TABLE
  2
UCS
  5
7
330
0
100
AcDbSymbolTable
 70
     0
  0
ENDTAB
  0
TABLE
  2
APPID
  5
9
330
0
100
AcDbSymbolTable
 70
     2
  0
APPID
  5
12
330
9
100
AcDbSymbolTableRecord
100
AcDbRegAppTableRecord
  2
ACAD
 70
     0
  0
APPID
  5
4FC
330
9
100
AcDbSymbolTableRecord
100
AcDbRegAppTableRecord
  2
ACAD_MLEADERVER
 70
     0
  0
ENDTAB
  0
TABLE
  2
DIMSTYLE
  5
A
330
0
100
AcDbSymbolTable
 70
     8
  0
DIMSTYLE
105
27
330
A
100
AcDbSymbolTableRecord
100
AcDbDimStyleTableRecord
  2
STANDARD
 70
     0
  3

  4

  5

  6

  7

 40
1.0
 41
0.18
 42
0.0625
 43
0.38
 44
0.18
 45
0.0
 46
0.0
 47
0.0
 48
0.0
140
0.18
141
0.09
142
0.0
143
25.4
144
1.0
145
0.0
146
1.0
147
0.09
 71
     0
 72
     0
 73
     1
 74
     1
 75
     0
 76
     0
 77
     0
 78
     0
170
     0
171
     2
172
     0
173
     0
174
     0
175
     0
176
     0
177
     0
178
     0
270
     2
271
     4
272
     4
273
     2
274
     2
340
11
275
     0
280
     0
281
     0
282
     0
283
     1
284
     0
285
     0
286
     0
287
     3
288
     0
  0
DIMSTYLE
105
47A
102
{ACAD_REACTORS
330
47B
102
}
330
A
100
AcDbSymbolTableRecord
100
AcDbDimStyleTableRecord
  2
ME10_DIM_10
 70
     0
  3

  4

  5

  6
OPEN30
  7
OPEN30
 40
1.0
 41
2.5
 42
0.5
 43
0.38
 44
2.121320343
 45
0.0
 46
0.0
 47
0.0
 48
0.0
140
2.5
141
0.09
142
0.0
143
25.4
144
1.0
145
0.0
146
1.0
147
1.0
 71
     0
 72
     0
 73
     0
 74
     0
 75
     0
 76
     0
 77
     1
 78
     8
170
     0
171
     2
172
     1
173
     1
174
     1
175
     1
176
     2
177
     2
178
     2
270
     2
271
     2
272
     4
273
     2
274
     2
340
470
275
     0
280
     0
281
     0
282
     0
283
     1
284
     0
285
     0
286
     0
287
     3
288
     0
  0
DIMSTYLE
105
487
102
{ACAD_REACTORS
330
488
102
}
330
A
100
AcDbSymbolTableRecord
100
AcDbDimStyleTableRecord
  2
ME10_DIM_11
 70
     0
  3

  4

  5

  6
OPEN30
  7
OPEN30
 40
1.0
 41
2.5
 42
0.5
 43
0.38
 44
2.121320343
 45
0.0
 46
0.0
 47
0.0
 48
0.0
140
2.5
141
0.09
142
0.0
143
25.4
144
1.0
145
0.0
146
1.0
147
1.0
 71
     0
 72
     0
 73
     0
 74
     0
 75
     0
 76
     0
 77
     1
 78
     8
170
     0
171
     2
172
     1
173
     1
174
     1
175
     1
176
     2
177
     2
178
     2
270
     2
271
     2
272
     4
273
     2
274
     2
340
470
275
     0
280
     0
281
     0
282
     0
283
     1
284
     0
285
     0
286
     0
287
     3
288
     0
  0
DIMSTYLE
105
494
102
{ACAD_REACTORS
330
495
102
}
330
A
100
AcDbSymbolTableRecord
100
AcDbDimStyleTableRecord
  2
ME10_DIM_12
 70
     0
  3

  4

  5

  6
OPEN30
  7
OPEN30
 40
1.0
 41
2.5
 42
0.5
 43
0.38
 44
2.121320343
 45
0.0
 46
0.0
 47
0.0
 48
0.0
140
2.5
141
0.09
142
0.0
143
25.4
144
1.0
145
0.0
146
1.0
147
1.0
 71
     0
 72
     0
 73
     0
 74
     0
 75
     0
 76
     0
 77
     1
 78
     8
170
     0
171
     2
172
     1
173
     1
174
     1
175
     1
176
     2
177
     2
178
     2
270
     2
271
     2
272
     4
273
     2
274
     2
340
470
275
     0
280
     0
281
     0
282
     0
283
     1
284
     0
285
     0
286
     0
287
     3
288
     0
  0
DIMSTYLE
105
4A1
102
{ACAD_REACTORS
330
4A2
102
}
330
A
100
AcDbSymbolTableRecord
100
AcDbDimStyleTableRecord
  2
ME10_DIM_13
 70
     0
  3

  4

  5

  6
OPEN30
  7
OPEN30
 40
1.0
 41
2.5
 42
0.5
 43
0.38
 44
2.121320343
 45
0.0
 46
0.0
 47
0.0
 48
0.0
140
2.5
141
0.09
142
0.0
143
25.4
144
1.0
145
0.0
146
1.0
147
1.0
 71
     0
 72
     0
 73
     0
 74
     0
 75
     0
 76
     0
 77
     1
 78
     8
170
     0
171
     2
172
     1
173
     1
174
     1
175
     1
176
     2
177
     2
178
     2
270
     2
271
     2
272
     4
273
     2
274
     2
340
470
275
     0
280
     0
281
     0
282
     0
283
     1
284
     0
285
     0
286
     0
287
     3
288
     0
  0
DIMSTYLE
105
4AE
102
{ACAD_REACTORS
330
4AF
102
}
330
A
100
AcDbSymbolTableRecord
100
AcDbDimStyleTableRecord
  2
ME10_DIM_14
 70
     0
  3

  4

  5

  6
OPEN30
  7
OPEN30
 40
1.0
 41
2.5
 42
0.5
 43
0.38
 44
2.121320343
 45
0.0
 46
0.0
 47
0.0
 48
0.0
140
2.5
141
0.09
142
0.0
143
25.4
144
1.0
145
0.0
146
1.0
147
1.0
 71
     0
 72
     0
 73
     0
 74
     0
 75
     0
 76
     0
 77
     1
 78
     8
170
     0
171
     2
172
     1
173
     1
174
     1
175
     1
176
     2
177
     2
178
     2
270
     2
271
     2
272
     4
273
     2
274
     2
340
470
275
     0
280
     0
281
     0
282
     0
283
     1
284
     0
285
     0
286
     0
287
     3
288
     0
  0
DIMSTYLE
105
4BB
102
{ACAD_REACTORS
330
4BC
102
}
330
A
100
AcDbSymbolTableRecord
100
AcDbDimStyleTableRecord
  2
ME10_DIM_15
 70
     0
  3

  4

  5

  6
OPEN30
  7
OPEN30
 40
1.0
 41
2.5
 42
0.5
 43
0.38
 44
2.121320343
 45
0.0
 46
0.0
 47
0.0
 48
0.0
140
2.5
141
0.09
142
0.0
143
25.4
144
1.0
145
0.0
146
1.0
147
1.0
 71
     0
 72
     0
 73
     0
 74
     0
 75
     0
 76
     0
 77
     1
 78
     8
170
     0
171
     2
172
     1
173
     1
174
     1
175
     1
176
     2
177
     2
178
     2
270
     2
271
     2
272
     4
273
     2
274
     2
340
470
275
     0
280
     0
281
     0
282
     0
283
     1
284
     0
285
     0
286
     0
287
     3
288
     0
  0
DIMSTYLE
105
4C8
102
{ACAD_REACTORS
330
4C9
102
}
330
A
100
AcDbSymbolTableRecord
100
AcDbDimStyleTableRecord
  2
ME10_DIM_16
 70
     0
  3

  4

  5

  6
OPEN30
  7
OPEN30
 40
1.0
 41
2.5
 42
0.5
 43
0.38
 44
2.121320343
 45
0.0
 46
0.0
 47
0.0
 48
0.0
140
2.5
141
0.09
142
0.0
143
25.4
144
1.0
145
0.0
146
1.0
147
1.0
 71
     0
 72
     0
 73
     0
 74
     0
 75
     0
 76
     0
 77
     1
 78
     8
170
     0
171
     2
172
     1
173
     1
174
     1
175
     1
176
     2
177
     2
178
     2
270
     2
271
     2
272
     4
273
     2
274
     2
340
470
275
     0
280
     0
281
     0
282
     0
283
     1
284
     0
285
     0
286
     0
287
     3
288
     0
  0
ENDTAB
  0
TABLE
  2
BLOCK_RECORD
  5
1
330
0
100
AcDbSymbolTable
 70
     9
  0
BLOCK_RECORD
  5
1F
330
1
100
AcDbSymbolTableRecord
100
AcDbBlockTableRecord
  2
*MODEL_SPACE
  0
BLOCK_RECORD
  5
1B
330
1
100
AcDbSymbolTableRecord
100
AcDbBlockTableRecord
  2
*PAPER_SPACE
  0
BLOCK_RECORD
  5
468
330
1
100
AcDbSymbolTableRecord
100
AcDbBlockTableRecord
  2
*D1
  0
BLOCK_RECORD
  5
474
330
1
100
AcDbSymbolTableRecord
100
AcDbBlockTableRecord
  2
_OPEN30
  0
BLOCK_RECORD
  5
47C
330
1
100
AcDbSymbolTableRecord
100
AcDbBlockTableRecord
  2
*D3
  0
BLOCK_RECORD
  5
489
330
1
100
AcDbSymbolTableRecord
100
AcDbBlockTableRecord
  2
*D4
  0
BLOCK_RECORD
  5
496
330
1
100
AcDbSymbolTableRecord
100
AcDbBlockTableRecord
  2
*D5
  0
BLOCK_RECORD
  5
4A3
330
1
100
AcDbSymbolTableRecord
100
AcDbBlockTableRecord
  2
*D6
  0
BLOCK_RECORD
  5
4B0
330
1
100
AcDbSymbolTableRecord
100
AcDbBlockTableRecord
  2
*D7
  0
BLOCK_RECORD
  5
4BD
330
1
100
AcDbSymbolTableRecord
100
AcDbBlockTableRecord
  2
*D8
  0
ENDTAB
  0
ENDSEC
  0
SECTION
  2
BLOCKS
  0
BLOCK
  5
20
330
1F
100
AcDbEntity
  8
0
100
AcDbBlockBegin
  2
*MODEL_SPACE
 70
     0
 10
0.0
 20
0.0
 30
0.0
  3
*MODEL_SPACE
  1

  0
ENDBLK
  5
21
330
1F
100
AcDbEntity
  8
0
100
AcDbBlockEnd
  0
BLOCK
  5
1C
330
1B
100
AcDbEntity
 67
     1
  8
0
100
AcDbBlockBegin
  2
*PAPER_SPACE
 70
     0
 10
0.0
 20
0.0
 30
0.0
  3
*PAPER_SPACE
  1

  0
ENDBLK
  5
1D
330
1B
100
AcDbEntity
 67
     1
  8
0
100
AcDbBlockEnd
  0
BLOCK
  5
472
330
468
100
AcDbEntity
  8
0
100
AcDbBlockBegin
  2
*D1
 70
     1
 10
0.0
 20
0.0
 30
0.0
  3
*D1
  1

  0
LINE
  5
469
330
468
100
AcDbEntity
  8
1
  6
CONTINUOUS
 62
     2
100
AcDbLine
 10
232.8962499931
 20
116.748973199
 30
0.0
 11
262.8962499931
 21
116.748973199
 31
0.0
  0
LINE
  5
46A
330
468
100
AcDbEntity
  8
1
  6
CONTINUOUS
 62
     2
100
AcDbLine
 10
262.8962499931
 20
135.0888041499398
 30
0.0
 11
262.8962499931
 21
114.627652856
 31
0.0
  0
LINE
  5
46B
330
468
100
AcDbEntity
  8
1
  6
CONTINUOUS
 62
     2
100
AcDbLine
 10
232.8962499931
 20
158.0888041499398
 30
0.0
 11
232.8962499931
 21
114.627652856
 31
0.0
  0
LINE
  5
46C
330
468
100
AcDbEntity
  8
1
 62
     2
100
AcDbLine
 10
232.8962499931
 20
116.748973199
 30
0.0
 11
235.3962499931
 21
117.4188461800778
 31
0.0
  0
LINE
  5
46D
330
468
100
AcDbEntity
  8
1
 62
     2
100
AcDbLine
 10
232.8962499931
 20
116.748973199
 30
0.0
 11
235.3962499931
 21
116.0791002179222
 31
0.0
  0
LINE
  5
46E
330
468
100
AcDbEntity
  8
1
 62
     2
100
AcDbLine
 10
262.8962499931
 20
116.748973199
 30
0.0
 11
260.3962499931
 21
116.0791002179222
 31
0.0
  0
LINE
  5
46F
330
468
100
AcDbEntity
  8
1
 62
     2
100
AcDbLine
 10
262.8962499931
 20
116.748973199
 30
0.0
 11
260.3962499931
 21
117.4188461800778
 31
0.0
  0
MTEXT
  5
471
330
468
100
AcDbEntity
  8
1
 62
     2
100
AcDbMText
 10
246.0212499931
 20
117.748973199
 30
0.0
 40
2.5
 41
0.0
 71
     7
 72
     1
  1
30
  7
CONVERTER_11
 11
0.9999999999970619
 21
2.424068405545306E-6
 31
0.0
1001
ACAD
1000
MTEXTBEGIN
1070
    44
1040
0.60024009603842
1000
MTEXTEND
  0
ENDBLK
  5
473
330
468
100
AcDbEntity
  8
0
100
AcDbBlockEnd
  0
BLOCK
  5
475
330
474
100
AcDbEntity
  8
0
100
AcDbBlockBegin
  2
_OPEN30
 70
     0
 10
0.0
 20
0.0
 30
0.0
  3
_OPEN30
  1

  0
LINE
  5
477
330
474
100
AcDbEntity
  8
0
  6
BYBLOCK
 62
     0
100
AcDbLine
 10
-1.0
 20
0.267949
 30
0.0
 11
0.0
 21
0.0
 31
0.0
  0
LINE
  5
478
330
474
100
AcDbEntity
  8
0
  6
BYBLOCK
 62
     0
100
AcDbLine
 10
0.0
 20
0.0
 30
0.0
 11
-1.0
 21
-0.267949
 31
0.0
  0
LINE
  5
479
330
474
100
AcDbEntity
  8
0
  6
BYBLOCK
 62
     0
100
AcDbLine
 10
0.0
 20
0.0
 30
0.0
 11
-1.0
 21
0.0
 31
0.0
  0
ENDBLK
  5
476
330
474
100
AcDbEntity
  8
0
100
AcDbBlockEnd
  0
BLOCK
  5
485
330
47C
100
AcDbEntity
  8
0
100
AcDbBlockBegin
  2
*D3
 70
     1
 10
0.0
 20
0.0
 30
0.0
  3
*D3
  1

  0
LINE
  5
47D
330
47C
100
AcDbEntity
  8
1
  6
CONTINUOUS
 62
     2
100
AcDbLine
 10
127.4367123728933
 20
109.748973199
 30
0.0
 11
98.4367123728933
 21
109.748973199
 31
0.0
  0
LINE
  5
47E
330
47C
100
AcDbEntity
  8
1
  6
CONTINUOUS
 62
     2
100
AcDbLine
 10
98.4367123728933
 20
140.3091429467798
 30
0.0
 11
98.4367123728933
 21
107.627652856
 31
0.0
  0
LINE
  5
47F
330
47C
100
AcDbEntity
  8
1
  6
CONTINUOUS
 62
     2
100
AcDbLine
 10
127.4367123728933
 20
140.3091429467798
 30
0.0
 11
127.4367123728933
 21
107.627652856
 31
0.0
  0
LINE
  5
480
330
47C
100
AcDbEntity
  8
1
 62
     2
100
AcDbLine
 10
127.4367123728933
 20
109.748973199
 30
0.0
 11
124.9367123728933
 21
109.0791002179222
 31
0.0
  0
LINE
  5
481
330
47C
100
AcDbEntity
  8
1
 62
     2
100
AcDbLine
 10
127.4367123728933
 20
109.748973199
 30
0.0
 11
124.9367123728933
 21
110.4188461800778
 31
0.0
  0
LINE
  5
482
330
47C
100
AcDbEntity
  8
1
 62
     2
100
AcDbLine
 10
98.4367123728933
 20
109.748973199
 30
0.0
 11
100.9367123728933
 21
110.4188461800778
 31
0.0
  0
LINE
  5
483
330
47C
100
AcDbEntity
  8
1
 62
     2
100
AcDbLine
 10
98.4367123728933
 20
109.748973199
 30
0.0
 11
100.9367123728933
 21
109.0791002179222
 31
0.0
  0
MTEXT
  5
484
330
47C
100
AcDbEntity
  8
1
 62
     2
100
AcDbMText
 10
109.5304623728933
 20
110.748973199
 30
0.0
 40
2.5
 41
0.0
 71
     7
 72
     1
  1
29.5
  7
CONVERTER_11
 11
0.9999999999970619
 21
2.424068405545306E-6
 31
0.0
1001
ACAD
1000
MTEXTBEGIN
1070
    44
1040
0.60024009603842
1000
MTEXTEND
  0
ENDBLK
  5
486
330
47C
100
AcDbEntity
  8
0
100
AcDbBlockEnd
  0
BLOCK
  5
492
330
489
100
AcDbEntity
  8
0
100
AcDbBlockBegin
  2
*D4
 70
     1
 10
0.0
 20
0.0
 30
0.0
  3
*D4
  1

  0
LINE
  5
48A
330
489
100
AcDbEntity
  8
1
  6
CONTINUOUS
 62
     2
100
AcDbLine
 10
101.7291108389
 20
116.748973199
 30
0.0
 11
124.2291117329
 21
116.748973199
 31
0.0
  0
LINE
  5
48B
330
489
100
AcDbEntity
  8
1
  6
CONTINUOUS
 62
     2
100
AcDbLine
 10
101.7291108389
 20
124.1957929813
 30
0.0
 11
101.7291108389
 21
114.627652856
 31
0.0
  0
LINE
  5
48C
330
489
100
AcDbEntity
  8
1
  6
CONTINUOUS
 62
     2
100
AcDbLine
 10
124.2291117329
 20
124.1957929813
 30
0.0
 11
124.2291117329
 21
114.627652856
 31
0.0
  0
LINE
  5
48D
330
489
100
AcDbEntity
  8
1
 62
     2
100
AcDbLine
 10
101.7291108389
 20
116.748973199
 30
0.0
 11
104.2291108389
 21
117.4188461800778
 31
0.0
  0
LINE
  5
48E
330
489
100
AcDbEntity
  8
1
 62
     2
100
AcDbLine
 10
101.7291108389
 20
116.748973199
 30
0.0
 11
104.2291108389
 21
116.0791002179222
 31
0.0
  0
LINE
  5
48F
330
489
100
AcDbEntity
  8
1
 62
     2
100
AcDbLine
 10
124.2291117329
 20
116.748973199
 30
0.0
 11
121.7291117329
 21
116.0791002179222
 31
0.0
  0
LINE
  5
490
330
489
100
AcDbEntity
  8
1
 62
     2
100
AcDbLine
 10
124.2291117329
 20
116.748973199
 30
0.0
 11
121.7291117329
 21
117.4188461800778
 31
0.0
  0
MTEXT
  5
491
330
489
100
AcDbEntity
  8
1
 62
     2
100
AcDbMText
 10
109.5728612859
 20
117.748973199
 30
0.0
 40
2.5
 41
0.0
 71
     7
 72
     1
  1
22.5
  7
CONVERTER_11
 11
0.9999999999970619
 21
2.424068405545306E-6
 31
0.0
1001
ACAD
1000
MTEXTBEGIN
1070
    44
1040
0.60024009603842
1000
MTEXTEND
  0
ENDBLK
  5
493
330
489
100
AcDbEntity
  8
0
100
AcDbBlockEnd
  0
BLOCK
  5
49F
330
496
100
AcDbEntity
  8
0
100
AcDbBlockBegin
  2
*D5
 70
     1
 10
0.0
 20
0.0
 30
0.0
  3
*D5
  1

  0
LINE
  5
497
330
496
100
AcDbEntity
  8
1
  6
CONTINUOUS
 62
     2
100
AcDbLine
 10
145.833685757168
 20
123.748973199
 30
0.0
 11
145.833685757168
 21
212.7489747488
 31
0.0
  0
LINE
  5
498
330
496
100
AcDbEntity
  8
1
  6
CONTINUOUS
 62
     2
100
AcDbLine
 10
123.729111569
 20
123.748973199
 30
0.0
 11
147.955006100168
 21
123.748973199
 31
0.0
  0
LINE
  5
499
330
496
100
AcDbEntity
  8
1
  6
CONTINUOUS
 62
     2
100
AcDbLine
 10
123.729111569
 20
212.7489747488
 30
0.0
 11
147.955006100168
 21
212.7489747488
 31
0.0
  0
LINE
  5
49A
330
496
100
AcDbEntity
  8
1
 62
     2
100
AcDbLine
 10
145.833685757168
 20
123.748973199
 30
0.0
 11
145.1638127760902
 21
126.248973199
 31
0.0
  0
LINE
  5
49B
330
496
100
AcDbEntity
  8
1
 62
     2
100
AcDbLine
 10
145.833685757168
 20
123.748973199
 30
0.0
 11
146.5035587382458
 21
126.248973199
 31
0.0
  0
LINE
  5
49C
330
496
100
AcDbEntity
  8
1
 62
     2
100
AcDbLine
 10
145.833685757168
 20
212.7489747488
 30
0.0
 11
146.5035587382458
 21
210.2489747488
 31
0.0
  0
LINE
  5
49D
330
496
100
AcDbEntity
  8
1
 62
     2
100
AcDbLine
 10
145.833685757168
 20
212.7489747488
 30
0.0
 11
145.1638127760902
 21
210.2489747488
 31
0.0
  0
MTEXT
  5
49E
330
496
100
AcDbEntity
  8
1
 62
     2
100
AcDbMText
 10
144.833685757168
 20
166.3739739739
 30
0.0
 40
2.5
 41
0.0
 71
     7
 72
     1
  1
89
  7
CONVERTER_11
 11
0.0
 21
1.0
 31
0.0
1001
ACAD
1000
MTEXTBEGIN
1070
    44
1040
0.60024009603842
1000
MTEXTEND
  0
ENDBLK
  5
4A0
330
496
100
AcDbEntity
  8
0
100
AcDbBlockEnd
  0
BLOCK
  5
4AC
330
4A3
100
AcDbEntity
  8
0
100
AcDbBlockBegin
  2
*D6
 70
     1
 10
0.0
 20
0.0
 30
0.0
  3
*D6
  1

  0
LINE
  5
4A4
330
4A3
100
AcDbEntity
  8
1
  6
CONTINUOUS
 62
     2
100
AcDbLine
 10
162.8962496951
 20
116.748973199
 30
0.0
 11
152.8962496950439
 21
116.748973199
 31
0.0
  0
LINE
  5
4A5
330
4A3
100
AcDbEntity
  8
1
  6
CONTINUOUS
 62
     2
100
AcDbLine
 10
162.8962496951
 20
125.2488990211
 30
0.0
 11
162.8962496951
 21
114.627652856
 31
0.0
  0
LINE
  5
4A6
330
4A3
100
AcDbEntity
  8
1
  6
CONTINUOUS
 62
     2
100
AcDbLine
 10
152.8962496950439
 20
167.417631280651
 30
0.0
 11
152.8962496950439
 21
114.627652856
 31
0.0
  0
LINE
  5
4A7
330
4A3
100
AcDbEntity
  8
1
 62
     2
100
AcDbLine
 10
162.8962496951
 20
116.748973199
 30
0.0
 11
160.3962496951
 21
116.0791002179222
 31
0.0
  0
LINE
  5
4A8
330
4A3
100
AcDbEntity
  8
1
 62
     2
100
AcDbLine
 10
162.8962496951
 20
116.748973199
 30
0.0
 11
160.3962496951
 21
117.4188461800778
 31
0.0
  0
LINE
  5
4A9
330
4A3
100
AcDbEntity
  8
1
 62
     2
100
AcDbLine
 10
152.8962496950439
 20
116.748973199
 30
0.0
 11
155.3962496950439
 21
117.4188461800778
 31
0.0
  0
LINE
  5
4AA
330
4A3
100
AcDbEntity
  8
1
 62
     2
100
AcDbLine
 10
152.8962496950439
 20
116.748973199
 30
0.0
 11
155.3962496950439
 21
116.0791002179222
 31
0.0
  0
MTEXT
  5
4AB
330
4A3
100
AcDbEntity
  8
1
 62
     2
100
AcDbMText
 10
156.396249695072
 20
117.748973199
 30
0.0
 40
2.5
 41
0.0
 71
     7
 72
     1
  1
10
  7
CONVERTER_11
 11
0.9999999999970619
 21
2.424068405545306E-6
 31
0.0
1001
ACAD
1000
MTEXTBEGIN
1070
    44
1040
0.60024009603842
1000
MTEXTEND
  0
ENDBLK
  5
4AD
330
4A3
100
AcDbEntity
  8
0
100
AcDbBlockEnd
  0
BLOCK
  5
4B9
330
4B0
100
AcDbEntity
  8
0
100
AcDbBlockBegin
  2
*D7
 70
     1
 10
0.0
 20
0.0
 30
0.0
  3
*D7
  1

  0
LINE
  5
4B1
330
4B0
100
AcDbEntity
  8
1
  6
CONTINUOUS
 62
     2
100
AcDbLine
 10
232.8962499931
 20
116.748973199
 30
0.0
 11
162.8962496951
 21
116.748973199
 31
0.0
  0
LINE
  5
4B2
330
4B0
100
AcDbEntity
  8
1
  6
CONTINUOUS
 62
     2
100
AcDbLine
 10
232.8962499931
 20
125.7489745401
 30
0.0
 11
232.8962499931
 21
114.627652856
 31
0.0
  0
LINE
  5
4B3
330
4B0
100
AcDbEntity
  8
1
  6
CONTINUOUS
 62
     2
100
AcDbLine
 10
162.8962496951
 20
125.2488990211
 30
0.0
 11
162.8962496951
 21
114.627652856
 31
0.0
  0
LINE
  5
4B4
330
4B0
100
AcDbEntity
  8
1
 62
     2
100
AcDbLine
 10
232.8962499931
 20
116.748973199
 30
0.0
 11
230.3962499931
 21
116.0791002179222
 31
0.0
  0
LINE
  5
4B5
330
4B0
100
AcDbEntity
  8
1
 62
     2
100
AcDbLine
 10
232.8962499931
 20
116.748973199
 30
0.0
 11
230.3962499931
 21
117.4188461800778
 31
0.0
  0
LINE
  5
4B6
330
4B0
100
AcDbEntity
  8
1
 62
     2
100
AcDbLine
 10
162.8962496951
 20
116.748973199
 30
0.0
 11
165.3962496951
 21
117.4188461800778
 31
0.0
  0
LINE
  5
4B7
330
4B0
100
AcDbEntity
  8
1
 62
     2
100
AcDbLine
 10
162.8962496951
 20
116.748973199
 30
0.0
 11
165.3962496951
 21
116.0791002179222
 31
0.0
  0
MTEXT
  5
4B8
330
4B0
100
AcDbEntity
  8
1
 62
     2
100
AcDbMText
 10
196.0212498441
 20
117.748973199
 30
0.0
 40
2.5
 41
0.0
 71
     7
 72
     1
  1
70
  7
CONVERTER_11
 11
0.9999999999970619
 21
2.424068405545306E-6
 31
0.0
1001
ACAD
1000
MTEXTBEGIN
1070
    44
1040
0.60024009603842
1000
MTEXTEND
  0
ENDBLK
  5
4BA
330
4B0
100
AcDbEntity
  8
0
100
AcDbBlockEnd
  0
BLOCK
  5
4C6
330
4BD
100
AcDbEntity
  8
0
100
AcDbBlockBegin
  2
*D8
 70
     1
 10
0.0
 20
0.0
 30
0.0
  3
*D8
  1

  0
LINE
  5
4BE
330
4BD
100
AcDbEntity
  8
1
  6
CONTINUOUS
 62
     2
100
AcDbLine
 10
138.833685757168
 20
175.5887888911399
 30
0.0
 11
138.833685757168
 21
212.7489747488
 31
0.0
  0
LINE
  5
4BF
330
4BD
100
AcDbEntity
  8
1
  6
CONTINUOUS
 62
     2
100
AcDbLine
 10
133.236623159917
 20
175.5887888911399
 30
0.0
 11
140.955006100168
 21
175.5887888911399
 31
0.0
  0
LINE
  5
4C0
330
4BD
100
AcDbEntity
  8
1
  6
CONTINUOUS
 62
     2
100
AcDbLine
 10
123.729111569
 20
212.7489747488
 30
0.0
 11
140.955006100168
 21
212.7489747488
 31
0.0
  0
LINE
  5
4C1
330
4BD
100
AcDbEntity
  8
1
 62
     2
100
AcDbLine
 10
138.833685757168
 20
175.5887888911399
 30
0.0
 11
138.1638127760902
 21
178.0887888911399
 31
0.0
  0
LINE
  5
4C2
330
4BD
100
AcDbEntity
  8
1
 62
     2
100
AcDbLine
 10
138.833685757168
 20
175.5887888911399
 30
0.0
 11
139.5035587382458
 21
178.0887888911399
 31
0.0
  0
LINE
  5
4C3
330
4BD
100
AcDbEntity
  8
1
 62
     2
100
AcDbLine
 10
138.833685757168
 20
212.7489747488
 30
0.0
 11
139.5035587382458
 21
210.2489747488
 31
0.0
  0
LINE
  5
4C4
330
4BD
100
AcDbEntity
  8
1
 62
     2
100
AcDbLine
 10
138.833685757168
 20
212.7489747488
 30
0.0
 11
138.1638127760902
 21
210.2489747488
 31
0.0
  0
MTEXT
  5
4C5
330
4BD
100
AcDbEntity
  8
1
 62
     2
100
AcDbMText
 10
137.833685757168
 20
193.737167223687
 30
0.0
 40
2.5
 41
0.0
 71
     7
 72
     1
  1
37
  7
CONVERTER_11
 11
0.0
 21
1.0
 31
0.0
1001
ACAD
1000
MTEXTBEGIN
1070
    44
1040
0.60024009603842
1000
MTEXTEND
  0
ENDBLK
  5
4C7
330
4BD
100
AcDbEntity
  8
0
100
AcDbBlockEnd
  0
ENDSEC
  0
SECTION
  2
ENTITIES
  0
POINT
  5
79
330
1F
100
AcDbEntity
  8
Z_OM_DIM
 62
     7
100
AcDbPoint
 10
126.355356453104
 20
211.5888041499399
 30
0.0
  0
POINT
  5
7A
330
1F
100
AcDbEntity
  8
Z_OM_DIM
 62
     7
100
AcDbPoint
 10
98.4367123728933
 20
211.5888041499399
 30
0.0
  0
POINT
  5
7B
330
1F
100
AcDbEntity
  8
Z_OM_DIM
 62
     7
100
AcDbPoint
 10
98.4367123728933
 20
140.8091429467798
 30
0.0
  0
POINT
  5
7C
330
1F
100
AcDbEntity
  8
Z_OM_DIM
 62
     7
100
AcDbPoint
 10
98.4367123728933
 20
140.8091429467798
 30
0.0
  0
POINT
  5
7D
330
1F
100
AcDbEntity
  8
Z_OM_DIM
 62
     7
100
AcDbPoint
 10
127.4367122850017
 20
140.7477030023468
 30
0.0
  0
POINT
  5
7E
330
1F
100
AcDbEntity
  8
1
 62
     3
 60
     1
100
AcDbPoint
 10
102.7291108864
 20
129.2664298796
 30
0.0
  0
POINT
  5
7F
330
1F
100
AcDbEntity
  8
1
 62
     3
 60
     1
100
AcDbPoint
 10
102.729110838874
 20
129.2664298796
 30
0.0
  0
POINT
  5
80
330
1F
100
AcDbEntity
  8
1
 62
     3
 60
     1
100
AcDbPoint
 10
102.7291108864
 20
207.7315190815
 30
0.0
  0
POINT
  5
81
330
1F
100
AcDbEntity
  8
1
 62
     3
 60
     1
100
AcDbPoint
 10
102.729110838874
 20
207.7315190815
 30
0.0
  0
POINT
  5
82
330
1F
100
AcDbEntity
  8
1
 62
     3
 60
     1
100
AcDbPoint
 10
218.5962500706
 20
209.0489754461
 30
0.0
  0
POINT
  5
83
330
1F
100
AcDbEntity
  8
1
 62
     3
 60
     1
100
AcDbPoint
 10
218.2983088031
 20
209.0489754461
 30
0.0
  0
POINT
  5
84
330
1F
100
AcDbEntity
  8
1
 62
     3
100
AcDbPoint
 10
152.8962496950439
 20
167.917631280651
 30
0.0
  0
LINE
  5
85
330
1F
100
AcDbEntity
  8
1
  6
CONTINUOUS
 62
     7
100
AcDbLine
 10
119.7467981445768
 20
206.9468809543942
 30
0.0
 11
119.6711981445768
 21
207.48897397765
 31
0.0
  0
LINE
  5
86
330
1F
100
AcDbEntity
  8
1
  6
CONTINUOUS
 62
     7
100
AcDbLine
 10
119.9861981445768
 20
206.5366483962546
 30
0.0
 11
119.7467981445768
 21
206.9468809543942
 31
0.0
  0
LINE
  5
87
330
1F
100
AcDbEntity
  8
1
  6
CONTINUOUS
 62
     7
100
AcDbLine
 10
120.2633981445768
 20
206.3168809543942
 30
0.0
 11
119.9861981445768
 21
206.5366483962546
 31
0.0
  0
LINE
  5
88
330
1F
100
AcDbEntity
  8
1
  6
CONTINUOUS
 62
     7
100
AcDbLine
 10
120.6161981445768
 20
206.2436251404407
 30
0.0
 11
120.2633981445768
 21
206.3168809543942
 31
0.0
  0
LINE
  5
89
330
1F
100
AcDbEntity
  8
1
  6
CONTINUOUS
 62
     7
100
AcDbLine
 10
120.9059981445768
 20
206.3022297916035
 30
0.0
 11
120.6161981445768
 21
206.2436251404407
 31
0.0
  0
LINE
  5
8A
330
1F
100
AcDbEntity
  8
1
  6
CONTINUOUS
 62
     7
100
AcDbLine
 10
121.1453981445768
 20
206.4926949078825
 30
0.0
 11
120.9059981445768
 21
206.3022297916035
 31
0.0
  0
LINE
  5
8B
330
1F
100
AcDbEntity
  8
1
  6
CONTINUOUS
 62
     7
100
AcDbLine
 10
121.2209981445768
 20
206.2436251404407
 30
0.0
 11
121.1453981445768
 21
206.4926949078825
 31
0.0
  0
LINE
  5
8C
330
1F
100
AcDbEntity
  8
1
  6
CONTINUOUS
 62
     7
100
AcDbLine
 10
121.4351981445768
 20
206.2436251404407
 30
0.0
 11
121.2209981445768
 21
206.2436251404407
 31
0.0
  0
LINE
  5
8D
330
1F
100
AcDbEntity
  8
1
  6
CONTINUOUS
 62
     7
100
AcDbLine
 10
121.4351981445768
 20
207.5036251404407
 30
0.0
 11
121.4351981445768
 21
206.2436251404407
 31
0.0
  0
LINE
  5
8E
330
1F
100
AcDbEntity
  8
1
  6
CONTINUOUS
 62
     7
100
AcDbLine
 10
120.7925981445768
 20
207.5036251404407
 30
0.0
 11
121.4351981445768
 21
207.5036251404407
 31
0.0
  0
LINE
  5
8F
330
1F
100
AcDbEntity
  8
1
  6
CONTINUOUS
 62
     7
100
AcDbLine
 10
120.7925981445768
 20
207.2106018846267
 30
0.0
 11
120.7925981445768
 21
207.5036251404407
 31
0.0
  0
LINE
  5
90
330
1F
100
AcDbEntity
  8
1
  6
CONTINUOUS
 62
     7
100
AcDbLine
 10
121.1453981445768
 20
207.2106018846267
 30
0.0
 11
120.7925981445768
 21
207.2106018846267
 31
0.0
  0
LINE
  5
91
330
1F
100
AcDbEntity
  8
1
  6
CONTINUOUS
 62
     7
100
AcDbLine
 10
121.1453981445768
 20
207.005485605557
 30
0.0
 11
121.1453981445768
 21
207.2106018846267
 31
0.0
  0
LINE
  5
92
330
1F
100
AcDbEntity
  8
1
  6
CONTINUOUS
 62
     7
100
AcDbLine
 10
121.0949981445768
 20
206.8443228148593
 30
0.0
 11
121.1453981445768
 21
207.005485605557
 31
0.0
  0
LINE
  5
93
330
1F
100
AcDbEntity
  8
1
  6
CONTINUOUS
 62
     7
100
AcDbLine
 10
120.9941981445768
 20
206.6831600241616
 30
0.0
 11
121.0949981445768
 21
206.8443228148593
 31
0.0
  0
LINE
  5
94
330
1F
100
AcDbEntity
  8
1
  6
CONTINUOUS
 62
     7
100
AcDbLine
 10
120.8303981445768
 20
206.5512995590453
 30
0.0
 11
120.9941981445768
 21
206.6831600241616
 31
0.0
  0
LINE
  5
95
330
1F
100
AcDbEntity
  8
1
  6
CONTINUOUS
 62
     7
100
AcDbLine
 10
120.6413981445768
 20
206.5219972334639
 30
0.0
 11
120.8303981445768
 21
206.5512995590453
 31
0.0
  0
LINE
  5
96
330
1F
100
AcDbEntity
  8
1
  6
CONTINUOUS
 62
     7
100
AcDbLine
 10
120.3893981445768
 20
206.565950721836
 30
0.0
 11
120.6413981445768
 21
206.5219972334639
 31
0.0
  0
LINE
  5
97
330
1F
100
AcDbEntity
  8
1
  6
CONTINUOUS
 62
     7
100
AcDbLine
 10
120.2003981445768
 20
206.712462349743
 30
0.0
 11
120.3893981445768
 21
206.565950721836
 31
0.0
  0
LINE
  5
98
330
1F
100
AcDbEntity
  8
1
  6
CONTINUOUS
 62
     7
100
AcDbLine
 10
120.0239981445768
 20
207.0347879311384
 30
0.0
 11
120.2003981445768
 21
206.712462349743
 31
0.0
  0
LINE
  5
99
330
1F
100
AcDbEntity
  8
1
  6
CONTINUOUS
 62
     7
100
AcDbLine
 10
119.9735981445768
 20
207.48897397765
 30
0.0
 11
120.0239981445768
 21
207.0347879311384
 31
0.0
  0
LINE
  5
9A
330
1F
100
AcDbEntity
  8
1
  6
CONTINUOUS
 62
     7
100
AcDbLine
 10
120.0239981445768
 20
207.9578111869523
 30
0.0
 11
119.9735981445768
 21
207.48897397765
 31
0.0
  0
LINE
  5
9B
330
1F
100
AcDbEntity
  8
1
  6
CONTINUOUS
 62
     7
100
AcDbLine
 10
120.1877981445768
 20
208.2947879311384
 30
0.0
 11
120.0239981445768
 21
207.9578111869523
 31
0.0
  0
LINE
  5
9C
330
1F
100
AcDbEntity
  8
1
  6
CONTINUOUS
 62
     7
100
AcDbLine
 10
120.3641981445768
 20
208.4266483962547
 30
0.0
 11
120.1877981445768
 21
208.2947879311384
 31
0.0
  0
LINE
  5
9D
330
1F
100
AcDbEntity
  8
1
  6
CONTINUOUS
 62
     7
100
AcDbLine
 10
120.5783981445768
 20
208.4852530474174
 30
0.0
 11
120.3641981445768
 21
208.4266483962547
 31
0.0
  0
LINE
  5
9E
330
1F
100
AcDbEntity
  8
1
  6
CONTINUOUS
 62
     7
100
AcDbLine
 10
120.7925981445768
 20
208.4412995590454
 30
0.0
 11
120.5783981445768
 21
208.4852530474174
 31
0.0
  0
LINE
  5
9F
330
1F
100
AcDbEntity
  8
1
  6
CONTINUOUS
 62
     7
100
AcDbLine
 10
120.9563981445768
 20
208.3240902567198
 30
0.0
 11
120.7925981445768
 21
208.4412995590454
 31
0.0
  0
LINE
  5
A0
330
1F
100
AcDbEntity
  8
1
  6
CONTINUOUS
 62
     7
100
AcDbLine
 10
121.0445981445768
 20
208.1336251404407
 30
0.0
 11
120.9563981445768
 21
208.3240902567198
 31
0.0
  0
LINE
  5
A1
330
1F
100
AcDbEntity
  8
1
  6
CONTINUOUS
 62
     7
100
AcDbLine
 10
121.0949981445768
 20
207.9285088613709
 30
0.0
 11
121.0445981445768
 21
208.1336251404407
 31
0.0
  0
LINE
  5
A2
330
1F
100
AcDbEntity
  8
1
  6
CONTINUOUS
 62
     7
100
AcDbLine
 10
121.3973981445768
 20
207.9285088613709
 30
0.0
 11
121.0949981445768
 21
207.9285088613709
 31
0.0
  0
LINE
  5
A3
330
1F
100
AcDbEntity
  8
1
  6
CONTINUOUS
 62
     7
100
AcDbLine
 10
121.3343981445768
 20
208.2215321171849
 30
0.0
 11
121.3973981445768
 21
207.9285088613709
 31
0.0
  0
LINE
  5
A4
330
1F
100
AcDbEntity
  8
1
  6
CONTINUOUS
 62
     7
100
AcDbLine
 10
121.1831981445768
 20
208.4852530474174
 30
0.0
 11
121.3343981445768
 21
208.2215321171849
 31
0.0
  0
LINE
  5
A5
330
1F
100
AcDbEntity
  8
1
  6
CONTINUOUS
 62
     7
100
AcDbLine
 10
120.9185981445768
 20
208.6757181636965
 30
0.0
 11
121.1831981445768
 21
208.4852530474174
 31
0.0
  0
LINE
  5
A6
330
1F
100
AcDbEntity
  8
1
  6
CONTINUOUS
 62
     7
100
AcDbLine
 10
120.5783981445768
 20
208.74897397765
 30
0.0
 11
120.9185981445768
 21
208.6757181636965
 31
0.0
  0
LINE
  5
A7
330
1F
100
AcDbEntity
  8
1
  6
CONTINUOUS
 62
     7
100
AcDbLine
 10
120.2381981445768
 20
208.6757181636965
 30
0.0
 11
120.5783981445768
 21
208.74897397765
 31
0.0
  0
LINE
  5
A8
330
1F
100
AcDbEntity
  8
1
  6
CONTINUOUS
 62
     7
100
AcDbLine
 10
119.9609981445768
 20
208.4559507218361
 30
0.0
 11
120.2381981445768
 21
208.6757181636965
 31
0.0
  0
LINE
  5
A9
330
1F
100
AcDbEntity
  8
1
  6
CONTINUOUS
 62
     7
100
AcDbLine
 10
119.7341981445768
 20
208.0457181636965
 30
0.0
 11
119.9609981445768
 21
208.4559507218361
 31
0.0
  0
LINE
  5
AA
330
1F
100
AcDbEntity
  8
1
  6
CONTINUOUS
 62
     7
100
AcDbLine
 10
119.6711981445768
 20
207.48897397765
 30
0.0
 11
119.7341981445768
 21
208.0457181636965
 31
0.0
  0
LINE
  5
AB
330
1F
100
AcDbEntity
  8
1
  6
CONTINUOUS
 62
     7
100
AcDbLine
 10
117.7811981445768
 20
207.8845553729988
 30
0.0
 11
117.7559981445768
 21
208.0750204892779
 31
0.0
  0
LINE
  5
AC
330
1F
100
AcDbEntity
  8
1
  6
CONTINUOUS
 62
     7
100
AcDbLine
 10
117.8693981445768
 20
207.7380437450919
 30
0.0
 11
117.7811981445768
 21
207.8845553729988
 31
0.0
  0
LINE
  5
AD
330
1F
100
AcDbEntity
  8
1
  6
CONTINUOUS
 62
     7
100
AcDbLine
 10
117.9449981445768
 20
207.6501367683477
 30
0.0
 11
117.8693981445768
 21
207.7380437450919
 31
0.0
  0
LINE
  5
AE
330
1F
100
AcDbEntity
  8
1
  6
CONTINUOUS
 62
     7
100
AcDbLine
 10
118.0457981445768
 20
207.6061832799756
 30
0.0
 11
117.9449981445768
 21
207.6501367683477
 31
0.0
  0
LINE
  5
AF
330
1F
100
AcDbEntity
  8
1
  6
CONTINUOUS
 62
     7
100
AcDbLine
 10
118.1969981445768
 20
207.5182763032314
 30
0.0
 11
118.0457981445768
 21
207.6061832799756
 31
0.0
  0
LINE
  5
B0
330
1F
100
AcDbEntity
  8
1
  6
CONTINUOUS
 62
     7
100
AcDbLine
 10
118.3985981445768
 20
207.4303693264872
 30
0.0
 11
118.1969981445768
 21
207.5182763032314
 31
0.0
  0
LINE
  5
B1
330
1F
100
AcDbEntity
  8
1
  6
CONTINUOUS
 62
     7
100
AcDbLine
 10
118.5623981445768
 20
207.3278111869523
 30
0.0
 11
118.3985981445768
 21
207.4303693264872
 31
0.0
  0
LINE
  5
B2
330
1F
100
AcDbEntity
  8
1
  6
CONTINUOUS
 62
     7
100
AcDbLine
 10
118.7135981445768
 20
207.2545553729988
 30
0.0
 11
118.5623981445768
 21
207.3278111869523
 31
0.0
  0
LINE
  5
B3
330
1F
100
AcDbEntity
  8
1
  6
CONTINUOUS
 62
     7
100
AcDbLine
 10
118.8269981445768
 20
207.1812995590453
 30
0.0
 11
118.7135981445768
 21
207.2545553729988
 31
0.0
  0
LINE
  5
B4
330
1F
100
AcDbEntity
  8
1
  6
CONTINUOUS
 62
     7
100
AcDbLine
 10
118.9151981445768
 20
207.1080437450918
 30
0.0
 11
118.8269981445768
 21
207.1812995590453
 31
0.0
  0
LINE
  5
B5
330
1F
100
AcDbEntity
  8
1
  6
CONTINUOUS
 62
     7
100
AcDbLine
 10
118.9655981445768
 20
207.005485605557
 30
0.0
 11
118.9151981445768
 21
207.1080437450918
 31
0.0
  0
LINE
  5
B6
330
1F
100
AcDbEntity
  8
1
  6
CONTINUOUS
 62
     7
100
AcDbLine
 10
118.9907981445768
 20
206.8882763032314
 30
0.0
 11
118.9655981445768
 21
207.005485605557
 31
0.0
  0
LINE
  5
B7
330
1F
100
AcDbEntity
  8
1
  6
CONTINUOUS
 62
     7
100
AcDbLine
 10
118.9655981445768
 20
206.7710670009058
 30
0.0
 11
118.9907981445768
 21
206.8882763032314
 31
0.0
  0
LINE
  5
B8
330
1F
100
AcDbEntity
  8
1
  6
CONTINUOUS
 62
     7
100
AcDbLine
 10
118.8899981445768
 20
206.6685088613709
 30
0.0
 11
118.9655981445768
 21
206.7710670009058
 31
0.0
  0
LINE
  5
B9
330
1F
100
AcDbEntity
  8
1
  6
CONTINUOUS
 62
     7
100
AcDbLine
 10
118.7261981445768
 20
206.5512995590453
 30
0.0
 11
118.8899981445768
 21
206.6685088613709
 31
0.0
  0
LINE
  5
BA
330
1F
100
AcDbEntity
  8
1
  6
CONTINUOUS
 62
     7
100
AcDbLine
 10
118.5119981445768
 20
206.5219972334639
 30
0.0
 11
118.7261981445768
 21
206.5512995590453
 31
0.0
  0
LINE
  5
BB
330
1F
100
AcDbEntity
  8
1
  6
CONTINUOUS
 62
     7
100
AcDbLine
 10
118.2599981445768
 20
206.5512995590453
 30
0.0
 11
118.5119981445768
 21
206.5219972334639
 31
0.0
  0
LINE
  5
BC
330
1F
100
AcDbEntity
  8
1
  6
CONTINUOUS
 62
     7
100
AcDbLine
 10
118.0835981445768
 20
206.6831600241616
 30
0.0
 11
118.2599981445768
 21
206.5512995590453
 31
0.0
  0
LINE
  5
BD
330
1F
100
AcDbEntity
  8
1
  6
CONTINUOUS
 62
     7
100
AcDbLine
 10
118.0079981445768
 20
206.8296716520686
 30
0.0
 11
118.0835981445768
 21
206.6831600241616
 31
0.0
  0
LINE
  5
BE
330
1F
100
AcDbEntity
  8
1
  6
CONTINUOUS
 62
     7
100
AcDbLine
 10
117.9953981445768
 20
207.0494390939291
 30
0.0
 11
118.0079981445768
 21
206.8296716520686
 31
0.0
  0
LINE
  5
BF
330
1F
100
AcDbEntity
  8
1
  6
CONTINUOUS
 62
     7
100
AcDbLine
 10
117.7055981445768
 20
207.0494390939291
 30
0.0
 11
117.9953981445768
 21
207.0494390939291
 31
0.0
  0
LINE
  5
C0
330
1F
100
AcDbEntity
  8
1
  6
CONTINUOUS
 62
     7
100
AcDbLine
 10
117.7433981445768
 20
206.7271135125337
 30
0.0
 11
117.7055981445768
 21
207.0494390939291
 31
0.0
  0
LINE
  5
C1
330
1F
100
AcDbEntity
  8
1
  6
CONTINUOUS
 62
     7
100
AcDbLine
 10
117.8693981445768
 20
206.5073460706732
 30
0.0
 11
117.7433981445768
 21
206.7271135125337
 31
0.0
  0
LINE
  5
C2
330
1F
100
AcDbEntity
  8
1
  6
CONTINUOUS
 62
     7
100
AcDbLine
 10
118.1339981445768
 20
206.3022297916035
 30
0.0
 11
117.8693981445768
 21
206.5073460706732
 31
0.0
  0
LINE
  5
C3
330
1F
100
AcDbEntity
  8
1
  6
CONTINUOUS
 62
     7
100
AcDbLine
 10
118.4993981445768
 20
206.2436251404407
 30
0.0
 11
118.1339981445768
 21
206.3022297916035
 31
0.0
  0
LINE
  5
C4
330
1F
100
AcDbEntity
  8
1
  6
CONTINUOUS
 62
     7
100
AcDbLine
 10
118.8521981445768
 20
206.2875786288128
 30
0.0
 11
118.4993981445768
 21
206.2436251404407
 31
0.0
  0
LINE
  5
C5
330
1F
100
AcDbEntity
  8
1
  6
CONTINUOUS
 62
     7
100
AcDbLine
 10
119.1041981445768
 20
206.4633925823011
 30
0.0
 11
118.8521981445768
 21
206.2875786288128
 31
0.0
  0
LINE
  5
C6
330
1F
100
AcDbEntity
  8
1
  6
CONTINUOUS
 62
     7
100
AcDbLine
 10
119.2175981445768
 20
206.6831600241616
 30
0.0
 11
119.1041981445768
 21
206.4633925823011
 31
0.0
  0
LINE
  5
C7
330
1F
100
AcDbEntity
  8
1
  6
CONTINUOUS
 62
     7
100
AcDbLine
 10
119.2679981445768
 20
206.9468809543942
 30
0.0
 11
119.2175981445768
 21
206.6831600241616
 31
0.0
  0
LINE
  5
C8
330
1F
100
AcDbEntity
  8
1
  6
CONTINUOUS
 62
     7
100
AcDbLine
 10
119.2301981445768
 20
207.1519972334639
 30
0.0
 11
119.2679981445768
 21
206.9468809543942
 31
0.0
  0
LINE
  5
C9
330
1F
100
AcDbEntity
  8
1
  6
CONTINUOUS
 62
     7
100
AcDbLine
 10
119.1293981445768
 20
207.3278111869523
 30
0.0
 11
119.2301981445768
 21
207.1519972334639
 31
0.0
  0
LINE
  5
CA
330
1F
100
AcDbEntity
  8
1
  6
CONTINUOUS
 62
     7
100
AcDbLine
 10
119.0411981445768
 20
207.4010670009058
 30
0.0
 11
119.1293981445768
 21
207.3278111869523
 31
0.0
  0
LINE
  5
CB
330
1F
100
AcDbEntity
  8
1
  6
CONTINUOUS
 62
     7
100
AcDbLine
 10
118.9529981445768
 20
207.4596716520686
 30
0.0
 11
119.0411981445768
 21
207.4010670009058
 31
0.0
  0
LINE
  5
CC
330
1F
100
AcDbEntity
  8
1
  6
CONTINUOUS
 62
     7
100
AcDbLine
 10
118.6001981445768
 20
207.635485605557
 30
0.0
 11
118.9529981445768
 21
207.4596716520686
 31
0.0
  0
LINE
  5
CD
330
1F
100
AcDbEntity
  8
1
  6
CONTINUOUS
 62
     7
100
AcDbLine
 10
118.3103981445768
 20
207.7966483962546
 30
0.0
 11
118.6001981445768
 21
207.635485605557
 31
0.0
  0
LINE
  5
CE
330
1F
100
AcDbEntity
  8
1
  6
CONTINUOUS
 62
     7
100
AcDbLine
 10
118.1717981445768
 20
207.8699042102081
 30
0.0
 11
118.3103981445768
 21
207.7966483962546
 31
0.0
  0
LINE
  5
CF
330
1F
100
AcDbEntity
  8
1
  6
CONTINUOUS
 62
     7
100
AcDbLine
 10
118.0835981445768
 20
207.9431600241616
 30
0.0
 11
118.1717981445768
 21
207.8699042102081
 31
0.0
  0
LINE
  5
D0
330
1F
100
AcDbEntity
  8
1
  6
CONTINUOUS
 62
     7
100
AcDbLine
 10
118.0457981445768
 20
208.0164158381151
 30
0.0
 11
118.0835981445768
 21
207.9431600241616
 31
0.0
  0
LINE
  5
D1
330
1F
100
AcDbEntity
  8
1
  6
CONTINUOUS
 62
     7
100
AcDbLine
 10
118.0457981445768
 20
208.11897397765
 30
0.0
 11
118.0457981445768
 21
208.0164158381151
 31
0.0
  0
LINE
  5
D2
330
1F
100
AcDbEntity
  8
1
  6
CONTINUOUS
 62
     7
100
AcDbLine
 10
118.0583981445768
 20
208.2361832799756
 30
0.0
 11
118.0457981445768
 21
208.11897397765
 31
0.0
  0
LINE
  5
D3
330
1F
100
AcDbEntity
  8
1
  6
CONTINUOUS
 62
     7
100
AcDbLine
 10
118.1213981445768
 20
208.3533925823012
 30
0.0
 11
118.0583981445768
 21
208.2361832799756
 31
0.0
  0
LINE
  5
D4
330
1F
100
AcDbEntity
  8
1
  6
CONTINUOUS
 62
     7
100
AcDbLine
 10
118.2599981445768
 20
208.4412995590454
 30
0.0
 11
118.1213981445768
 21
208.3533925823012
 31
0.0
  0
LINE
  5
D5
330
1F
100
AcDbEntity
  8
1
  6
CONTINUOUS
 62
     7
100
AcDbLine
 10
118.4867981445768
 20
208.4706018846267
 30
0.0
 11
118.2599981445768
 21
208.4412995590454
 31
0.0
  0
LINE
  5
D6
330
1F
100
AcDbEntity
  8
1
  6
CONTINUOUS
 62
     7
100
AcDbLine
 10
118.6757981445768
 20
208.4266483962547
 30
0.0
 11
118.4867981445768
 21
208.4706018846267
 31
0.0
  0
LINE
  5
D7
330
1F
100
AcDbEntity
  8
1
  6
CONTINUOUS
 62
     7
100
AcDbLine
 10
118.8269981445768
 20
208.3387414195105
 30
0.0
 11
118.6757981445768
 21
208.4266483962547
 31
0.0
  0
LINE
  5
D8
330
1F
100
AcDbEntity
  8
1
  6
CONTINUOUS
 62
     7
100
AcDbLine
 10
118.9025981445768
 20
208.2068809543942
 30
0.0
 11
118.8269981445768
 21
208.3387414195105
 31
0.0
  0
LINE
  5
D9
330
1F
100
AcDbEntity
  8
1
  6
CONTINUOUS
 62
     7
100
AcDbLine
 10
118.9277981445768
 20
208.0603693264872
 30
0.0
 11
118.9025981445768
 21
208.2068809543942
 31
0.0
  0
LINE
  5
DA
330
1F
100
AcDbEntity
  8
1
  6
CONTINUOUS
 62
     7
100
AcDbLine
 10
119.2049981445768
 20
208.0603693264872
 30
0.0
 11
118.9277981445768
 21
208.0603693264872
 31
0.0
  0
LINE
  5
DB
330
1F
100
AcDbEntity
  8
1
  6
CONTINUOUS
 62
     7
100
AcDbLine
 10
119.1545981445768
 20
208.3094390939291
 30
0.0
 11
119.2049981445768
 21
208.0603693264872
 31
0.0
  0
LINE
  5
DC
330
1F
100
AcDbEntity
  8
1
  6
CONTINUOUS
 62
     7
100
AcDbLine
 10
119.0411981445768
 20
208.5292065357895
 30
0.0
 11
119.1545981445768
 21
208.3094390939291
 31
0.0
  0
LINE
  5
DD
330
1F
100
AcDbEntity
  8
1
  6
CONTINUOUS
 62
     7
100
AcDbLine
 10
118.7891981445768
 20
208.6903693264872
 30
0.0
 11
119.0411981445768
 21
208.5292065357895
 31
0.0
  0
LINE
  5
DE
330
1F
100
AcDbEntity
  8
1
  6
CONTINUOUS
 62
     7
100
AcDbLine
 10
118.4615981445768
 20
208.74897397765
 30
0.0
 11
118.7891981445768
 21
208.6903693264872
 31
0.0
  0
LINE
  5
DF
330
1F
100
AcDbEntity
  8
1
  6
CONTINUOUS
 62
     7
100
AcDbLine
 10
118.1465981445768
 20
208.6903693264872
 30
0.0
 11
118.4615981445768
 21
208.74897397765
 31
0.0
  0
LINE
  5
E0
330
1F
100
AcDbEntity
  8
1
  6
CONTINUOUS
 62
     7
100
AcDbLine
 10
117.9323981445768
 20
208.5585088613709
 30
0.0
 11
118.1465981445768
 21
208.6903693264872
 31
0.0
  0
LINE
  5
E1
330
1F
100
AcDbEntity
  8
1
  6
CONTINUOUS
 62
     7
100
AcDbLine
 10
117.7937981445768
 20
208.3240902567198
 30
0.0
 11
117.9323981445768
 21
208.5585088613709
 31
0.0
  0
LINE
  5
E2
330
1F
100
AcDbEntity
  8
1
  6
CONTINUOUS
 62
     7
100
AcDbLine
 10
117.7559981445768
 20
208.0750204892779
 30
0.0
 11
117.7937981445768
 21
208.3240902567198
 31
0.0
  0
LINE
  5
E3
330
1F
100
AcDbEntity
  8
1
  6
CONTINUOUS
 62
     7
100
AcDbLine
 10
111.1165951371858
 20
159.6732902783006
 30
0.0
 11
111.1165951371858
 21
159.9035228364402
 31
0.0
  0
LINE
  5
E4
330
1F
100
AcDbEntity
  8
1
  6
CONTINUOUS
 62
     7
100
AcDbLine
 10
111.3235951371858
 20
159.6732902783006
 30
0.0
 11
111.1165951371858
 21
159.6732902783006
 31
0.0
  0
LINE
  5
E5
330
1F
100
AcDbEntity
  8
1
  6
CONTINUOUS
 62
     7
100
AcDbLine
 10
111.3235951371858
 20
159.9035228364402
 30
0.0
 11
111.3235951371858
 21
159.6732902783006
 31
0.0
  0
LINE
  5
E6
330
1F
100
AcDbEntity
  8
1
  6
CONTINUOUS
 62
     7
100
AcDbLine
 10
111.1165951371858
 20
159.9035228364402
 30
0.0
 11
111.3235951371858
 21
159.9035228364402
 31
0.0
  0
LINE
  5
E7
330
1F
100
AcDbEntity
  8
1
  6
CONTINUOUS
 62
     7
100
AcDbLine
 10
110.3515951371858
 20
161.2116623713239
 30
0.0
 11
109.9015951371858
 21
161.2116623713239
 31
0.0
  0
LINE
  5
E8
330
1F
100
AcDbEntity
  8
1
  6
CONTINUOUS
 62
     7
100
AcDbLine
 10
110.4595951371858
 20
161.1907321387658
 30
0.0
 11
110.3515951371858
 21
161.2116623713239
 31
0.0
  0
LINE
  5
E9
330
1F
100
AcDbEntity
  8
1
  6
CONTINUOUS
 62
     7
100
AcDbLine
 10
110.5585951371858
 20
161.1384065573704
 30
0.0
 11
110.4595951371858
 21
161.1907321387658
 31
0.0
  0
LINE
  5
EA
330
1F
100
AcDbEntity
  8
1
  6
CONTINUOUS
 62
     7
100
AcDbLine
 10
110.6125951371858
 20
161.0337553945797
 30
0.0
 11
110.5585951371858
 21
161.1384065573704
 31
0.0
  0
LINE
  5
EB
330
1F
100
AcDbEntity
  8
1
  6
CONTINUOUS
 62
     7
100
AcDbLine
 10
110.6305951371858
 20
160.8872437666728
 30
0.0
 11
110.6125951371858
 21
161.0337553945797
 31
0.0
  0
LINE
  5
EC
330
1F
100
AcDbEntity
  8
1
  6
CONTINUOUS
 62
     7
100
AcDbLine
 10
110.6035951371858
 20
160.7407321387658
 30
0.0
 11
110.6305951371858
 21
160.8872437666728
 31
0.0
  0
LINE
  5
ED
330
1F
100
AcDbEntity
  8
1
  6
CONTINUOUS
 62
     7
100
AcDbLine
 10
110.5495951371858
 20
160.6360809759751
 30
0.0
 11
110.6035951371858
 21
160.7407321387658
 31
0.0
  0
LINE
  5
EE
330
1F
100
AcDbEntity
  8
1
  6
CONTINUOUS
 62
     7
100
AcDbLine
 10
110.4595951371858
 20
160.5732902783007
 30
0.0
 11
110.5495951371858
 21
160.6360809759751
 31
0.0
  0
LINE
  5
EF
330
1F
100
AcDbEntity
  8
1
  6
CONTINUOUS
 62
     7
100
AcDbLine
 10
110.3515951371858
 20
160.5523600457425
 30
0.0
 11
110.4595951371858
 21
160.5732902783007
 31
0.0
  0
LINE
  5
F0
330
1F
100
AcDbEntity
  8
1
  6
CONTINUOUS
 62
     7
100
AcDbLine
 10
109.9015951371858
 20
160.5523600457425
 30
0.0
 11
110.3515951371858
 21
160.5523600457425
 31
0.0
  0
LINE
  5
F1
330
1F
100
AcDbEntity
  8
1
  6
CONTINUOUS
 62
     7
100
AcDbLine
 10
109.9015951371858
 20
161.2116623713239
 30
0.0
 11
109.9015951371858
 21
160.5523600457425
 31
0.0
  0
LINE
  5
F2
330
1F
100
AcDbEntity
  8
1
  6
CONTINUOUS
 62
     7
100
AcDbLine
 10
109.6945951371858
 20
159.6732902783006
 30
0.0
 11
109.6945951371858
 21
161.4209646969053
 31
0.0
  0
LINE
  5
F3
330
1F
100
AcDbEntity
  8
1
  6
CONTINUOUS
 62
     7
100
AcDbLine
 10
109.9015951371858
 20
159.6732902783006
 30
0.0
 11
109.6945951371858
 21
159.6732902783006
 31
0.0
  0
LINE
  5
F4
330
1F
100
AcDbEntity
  8
1
  6
CONTINUOUS
 62
     7
100
AcDbLine
 10
109.9015951371858
 20
160.3430577201611
 30
0.0
 11
109.9015951371858
 21
159.6732902783006
 31
0.0
  0
LINE
  5
F5
330
1F
100
AcDbEntity
  8
1
  6
CONTINUOUS
 62
     7
100
AcDbLine
 10
110.3965951371858
 20
160.3430577201611
 30
0.0
 11
109.9015951371858
 21
160.3430577201611
 31
0.0
  0
LINE
  5
F6
330
1F
100
AcDbEntity
  8
1
  6
CONTINUOUS
 62
     7
100
AcDbLine
 10
110.5855951371858
 20
160.3744530689983
 30
0.0
 11
110.3965951371858
 21
160.3430577201611
 31
0.0
  0
LINE
  5
F7
330
1F
100
AcDbEntity
  8
1
  6
CONTINUOUS
 62
     7
100
AcDbLine
 10
110.7205951371858
 20
160.5000344643472
 30
0.0
 11
110.5855951371858
 21
160.3744530689983
 31
0.0
  0
LINE
  5
F8
330
1F
100
AcDbEntity
  8
1
  6
CONTINUOUS
 62
     7
100
AcDbLine
 10
110.8015951371858
 20
160.6570112085332
 30
0.0
 11
110.7205951371858
 21
160.5000344643472
 31
0.0
  0
LINE
  5
F9
330
1F
100
AcDbEntity
  8
1
  6
CONTINUOUS
 62
     7
100
AcDbLine
 10
110.8375951371858
 20
160.8872437666728
 30
0.0
 11
110.8015951371858
 21
160.6570112085332
 31
0.0
  0
LINE
  5
FA
330
1F
100
AcDbEntity
  8
1
  6
CONTINUOUS
 62
     7
100
AcDbLine
 10
110.8015951371858
 20
161.1070112085332
 30
0.0
 11
110.8375951371858
 21
160.8872437666728
 31
0.0
  0
LINE
  5
FB
330
1F
100
AcDbEntity
  8
1
  6
CONTINUOUS
 62
     7
100
AcDbLine
 10
110.7115951371858
 20
161.2849181852774
 30
0.0
 11
110.8015951371858
 21
161.1070112085332
 31
0.0
  0
LINE
  5
FC
330
1F
100
AcDbEntity
  8
1
  6
CONTINUOUS
 62
     7
100
AcDbLine
 10
110.5675951371858
 20
161.379104231789
 30
0.0
 11
110.7115951371858
 21
161.2849181852774
 31
0.0
  0
LINE
  5
FD
330
1F
100
AcDbEntity
  8
1
  6
CONTINUOUS
 62
     7
100
AcDbLine
 10
110.3965951371858
 20
161.4209646969053
 30
0.0
 11
110.5675951371858
 21
161.379104231789
 31
0.0
  0
LINE
  5
FE
330
1F
100
AcDbEntity
  8
1
  6
CONTINUOUS
 62
     7
100
AcDbLine
 10
109.6945951371858
 20
161.4209646969053
 30
0.0
 11
110.3965951371858
 21
161.4209646969053
 31
0.0
  0
LINE
  5
FF
330
1F
100
AcDbEntity
  8
1
  6
CONTINUOUS
 62
     7
100
AcDbLine
 10
108.3445951371858
 20
160.8244530689983
 30
0.0
 11
108.3265951371858
 21
160.9604995806262
 31
0.0
  0
LINE
  5
100
330
1F
100
AcDbEntity
  8
1
  6
CONTINUOUS
 62
     7
100
AcDbLine
 10
108.4075951371858
 20
160.7198019062076
 30
0.0
 11
108.3445951371858
 21
160.8244530689983
 31
0.0
  0
LINE
  5
101
330
1F
100
AcDbEntity
  8
1
  6
CONTINUOUS
 62
     7
100
AcDbLine
 10
108.4615951371858
 20
160.6570112085332
 30
0.0
 11
108.4075951371858
 21
160.7198019062076
 31
0.0
  0
LINE
  5
102
330
1F
100
AcDbEntity
  8
1
  6
CONTINUOUS
 62
     7
100
AcDbLine
 10
108.5335951371858
 20
160.625615859696
 30
0.0
 11
108.4615951371858
 21
160.6570112085332
 31
0.0
  0
LINE
  5
103
330
1F
100
AcDbEntity
  8
1
  6
CONTINUOUS
 62
     7
100
AcDbLine
 10
108.6415951371858
 20
160.5628251620216
 30
0.0
 11
108.5335951371858
 21
160.625615859696
 31
0.0
  0
LINE
  5
104
330
1F
100
AcDbEntity
  8
1
  6
CONTINUOUS
 62
     7
100
AcDbLine
 10
108.7855951371858
 20
160.5000344643472
 30
0.0
 11
108.6415951371858
 21
160.5628251620216
 31
0.0
  0
LINE
  5
105
330
1F
100
AcDbEntity
  8
1
  6
CONTINUOUS
 62
     7
100
AcDbLine
 10
108.9025951371858
 20
160.4267786503937
 30
0.0
 11
108.7855951371858
 21
160.5000344643472
 31
0.0
  0
LINE
  5
106
330
1F
100
AcDbEntity
  8
1
  6
CONTINUOUS
 62
     7
100
AcDbLine
 10
109.0105951371858
 20
160.3744530689983
 30
0.0
 11
108.9025951371858
 21
160.4267786503937
 31
0.0
  0
LINE
  5
107
330
1F
100
AcDbEntity
  8
1
  6
CONTINUOUS
 62
     7
100
AcDbLine
 10
109.0915951371858
 20
160.322127487603
 30
0.0
 11
109.0105951371858
 21
160.3744530689983
 31
0.0
  0
LINE
  5
108
330
1F
100
AcDbEntity
  8
1
  6
CONTINUOUS
 62
     7
100
AcDbLine
 10
109.1545951371858
 20
160.2698019062076
 30
0.0
 11
109.0915951371858
 21
160.322127487603
 31
0.0
  0
LINE
  5
109
330
1F
100
AcDbEntity
  8
1
  6
CONTINUOUS
 62
     7
100
AcDbLine
 10
109.1905951371858
 20
160.1965460922542
 30
0.0
 11
109.1545951371858
 21
160.2698019062076
 31
0.0
  0
LINE
  5
10A
330
1F
100
AcDbEntity
  8
1
  6
CONTINUOUS
 62
     7
100
AcDbLine
 10
109.2085951371858
 20
160.1128251620216
 30
0.0
 11
109.1905951371858
 21
160.1965460922542
 31
0.0
  0
LINE
  5
10B
330
1F
100
AcDbEntity
  8
1
  6
CONTINUOUS
 62
     7
100
AcDbLine
 10
109.1905951371858
 20
160.029104231789
 30
0.0
 11
109.2085951371858
 21
160.1128251620216
 31
0.0
  0
LINE
  5
10C
330
1F
100
AcDbEntity
  8
1
  6
CONTINUOUS
 62
     7
100
AcDbLine
 10
109.1365951371858
 20
159.9558484178355
 30
0.0
 11
109.1905951371858
 21
160.029104231789
 31
0.0
  0
LINE
  5
10D
330
1F
100
AcDbEntity
  8
1
  6
CONTINUOUS
 62
     7
100
AcDbLine
 10
109.0195951371858
 20
159.872127487603
 30
0.0
 11
109.1365951371858
 21
159.9558484178355
 31
0.0
  0
LINE
  5
10E
330
1F
100
AcDbEntity
  8
1
  6
CONTINUOUS
 62
     7
100
AcDbLine
 10
108.8665951371858
 20
159.8511972550448
 30
0.0
 11
109.0195951371858
 21
159.872127487603
 31
0.0
  0
LINE
  5
10F
330
1F
100
AcDbEntity
  8
1
  6
CONTINUOUS
 62
     7
100
AcDbLine
 10
108.6865951371858
 20
159.872127487603
 30
0.0
 11
108.8665951371858
 21
159.8511972550448
 31
0.0
  0
LINE
  5
110
330
1F
100
AcDbEntity
  8
1
  6
CONTINUOUS
 62
     7
100
AcDbLine
 10
108.5605951371858
 20
159.9663135341146
 30
0.0
 11
108.6865951371858
 21
159.872127487603
 31
0.0
  0
LINE
  5
111
330
1F
100
AcDbEntity
  8
1
  6
CONTINUOUS
 62
     7
100
AcDbLine
 10
108.5065951371858
 20
160.0709646969053
 30
0.0
 11
108.5605951371858
 21
159.9663135341146
 31
0.0
  0
LINE
  5
112
330
1F
100
AcDbEntity
  8
1
  6
CONTINUOUS
 62
     7
100
AcDbLine
 10
108.4975951371858
 20
160.2279414410914
 30
0.0
 11
108.5065951371858
 21
160.0709646969053
 31
0.0
  0
LINE
  5
113
330
1F
100
AcDbEntity
  8
1
  6
CONTINUOUS
 62
     7
100
AcDbLine
 10
108.2905951371858
 20
160.2279414410914
 30
0.0
 11
108.4975951371858
 21
160.2279414410914
 31
0.0
  0
LINE
  5
114
330
1F
100
AcDbEntity
  8
1
  6
CONTINUOUS
 62
     7
100
AcDbLine
 10
108.3175951371858
 20
159.9977088829518
 30
0.0
 11
108.2905951371858
 21
160.2279414410914
 31
0.0
  0
LINE
  5
115
330
1F
100
AcDbEntity
  8
1
  6
CONTINUOUS
 62
     7
100
AcDbLine
 10
108.4075951371858
 20
159.8407321387658
 30
0.0
 11
108.3175951371858
 21
159.9977088829518
 31
0.0
  0
LINE
  5
116
330
1F
100
AcDbEntity
  8
1
  6
CONTINUOUS
 62
     7
100
AcDbLine
 10
108.5965951371858
 20
159.6942205108588
 30
0.0
 11
108.4075951371858
 21
159.8407321387658
 31
0.0
  0
LINE
  5
117
330
1F
100
AcDbEntity
  8
1
  6
CONTINUOUS
 62
     7
100
AcDbLine
 10
108.8575951371858
 20
159.6523600457425
 30
0.0
 11
108.5965951371858
 21
159.6942205108588
 31
0.0
  0
LINE
  5
118
330
1F
100
AcDbEntity
  8
1
  6
CONTINUOUS
 62
     7
100
AcDbLine
 10
109.1095951371858
 20
159.6837553945797
 30
0.0
 11
108.8575951371858
 21
159.6523600457425
 31
0.0
  0
LINE
  5
119
330
1F
100
AcDbEntity
  8
1
  6
CONTINUOUS
 62
     7
100
AcDbLine
 10
109.2895951371858
 20
159.8093367899286
 30
0.0
 11
109.1095951371858
 21
159.6837553945797
 31
0.0
  0
LINE
  5
11A
330
1F
100
AcDbEntity
  8
1
  6
CONTINUOUS
 62
     7
100
AcDbLine
 10
109.3705951371858
 20
159.9663135341146
 30
0.0
 11
109.2895951371858
 21
159.8093367899286
 31
0.0
  0
LINE
  5
11B
330
1F
100
AcDbEntity
  8
1
  6
CONTINUOUS
 62
     7
100
AcDbLine
 10
109.4065951371858
 20
160.1546856271379
 30
0.0
 11
109.3705951371858
 21
159.9663135341146
 31
0.0
  0
LINE
  5
11C
330
1F
100
AcDbEntity
  8
1
  6
CONTINUOUS
 62
     7
100
AcDbLine
 10
109.3795951371858
 20
160.3011972550448
 30
0.0
 11
109.4065951371858
 21
160.1546856271379
 31
0.0
  0
LINE
  5
11D
330
1F
100
AcDbEntity
  8
1
  6
CONTINUOUS
 62
     7
100
AcDbLine
 10
109.3075951371858
 20
160.4267786503937
 30
0.0
 11
109.3795951371858
 21
160.3011972550448
 31
0.0
  0
LINE
  5
11E
330
1F
100
AcDbEntity
  8
1
  6
CONTINUOUS
 62
     7
100
AcDbLine
 10
109.2445951371858
 20
160.479104231789
 30
0.0
 11
109.3075951371858
 21
160.4267786503937
 31
0.0
  0
LINE
  5
11F
330
1F
100
AcDbEntity
  8
1
  6
CONTINUOUS
 62
     7
100
AcDbLine
 10
109.1815951371858
 20
160.5209646969053
 30
0.0
 11
109.2445951371858
 21
160.479104231789
 31
0.0
  0
LINE
  5
120
330
1F
100
AcDbEntity
  8
1
  6
CONTINUOUS
 62
     7
100
AcDbLine
 10
108.9295951371858
 20
160.6465460922541
 30
0.0
 11
109.1815951371858
 21
160.5209646969053
 31
0.0
  0
LINE
  5
121
330
1F
100
AcDbEntity
  8
1
  6
CONTINUOUS
 62
     7
100
AcDbLine
 10
108.7225951371858
 20
160.7616623713239
 30
0.0
 11
108.9295951371858
 21
160.6465460922541
 31
0.0
  0
LINE
  5
122
330
1F
100
AcDbEntity
  8
1
  6
CONTINUOUS
 62
     7
100
AcDbLine
 10
108.6235951371858
 20
160.8139879527193
 30
0.0
 11
108.7225951371858
 21
160.7616623713239
 31
0.0
  0
LINE
  5
123
330
1F
100
AcDbEntity
  8
1
  6
CONTINUOUS
 62
     7
100
AcDbLine
 10
108.5605951371858
 20
160.8663135341146
 30
0.0
 11
108.6235951371858
 21
160.8139879527193
 31
0.0
  0
LINE
  5
124
330
1F
100
AcDbEntity
  8
1
  6
CONTINUOUS
 62
     7
100
AcDbLine
 10
108.5335951371858
 20
160.91863911551
 30
0.0
 11
108.5605951371858
 21
160.8663135341146
 31
0.0
  0
LINE
  5
125
330
1F
100
AcDbEntity
  8
1
  6
CONTINUOUS
 62
     7
100
AcDbLine
 10
108.5335951371858
 20
160.9918949294635
 30
0.0
 11
108.5335951371858
 21
160.91863911551
 31
0.0
  0
LINE
  5
126
330
1F
100
AcDbEntity
  8
1
  6
CONTINUOUS
 62
     7
100
AcDbLine
 10
108.5425951371858
 20
161.075615859696
 30
0.0
 11
108.5335951371858
 21
160.9918949294635
 31
0.0
  0
LINE
  5
127
330
1F
100
AcDbEntity
  8
1
  6
CONTINUOUS
 62
     7
100
AcDbLine
 10
108.5875951371858
 20
161.1593367899286
 30
0.0
 11
108.5425951371858
 21
161.075615859696
 31
0.0
  0
LINE
  5
128
330
1F
100
AcDbEntity
  8
1
  6
CONTINUOUS
 62
     7
100
AcDbLine
 10
108.6865951371858
 20
161.222127487603
 30
0.0
 11
108.5875951371858
 21
161.1593367899286
 31
0.0
  0
LINE
  5
129
330
1F
100
AcDbEntity
  8
1
  6
CONTINUOUS
 62
     7
100
AcDbLine
 10
108.8485951371858
 20
161.2430577201611
 30
0.0
 11
108.6865951371858
 21
161.222127487603
 31
0.0
  0
LINE
  5
12A
330
1F
100
AcDbEntity
  8
1
  6
CONTINUOUS
 62
     7
100
AcDbLine
 10
108.9835951371858
 20
161.2116623713239
 30
0.0
 11
108.8485951371858
 21
161.2430577201611
 31
0.0
  0
LINE
  5
12B
330
1F
100
AcDbEntity
  8
1
  6
CONTINUOUS
 62
     7
100
AcDbLine
 10
109.0915951371858
 20
161.1488716736495
 30
0.0
 11
108.9835951371858
 21
161.2116623713239
 31
0.0
  0
LINE
  5
12C
330
1F
100
AcDbEntity
  8
1
  6
CONTINUOUS
 62
     7
100
AcDbLine
 10
109.1455951371858
 20
161.0546856271379
 30
0.0
 11
109.0915951371858
 21
161.1488716736495
 31
0.0
  0
LINE
  5
12D
330
1F
100
AcDbEntity
  8
1
  6
CONTINUOUS
 62
     7
100
AcDbLine
 10
109.1635951371858
 20
160.9500344643472
 30
0.0
 11
109.1455951371858
 21
161.0546856271379
 31
0.0
  0
LINE
  5
12E
330
1F
100
AcDbEntity
  8
1
  6
CONTINUOUS
 62
     7
100
AcDbLine
 10
109.3615951371858
 20
160.9500344643472
 30
0.0
 11
109.1635951371858
 21
160.9500344643472
 31
0.0
  0
LINE
  5
12F
330
1F
100
AcDbEntity
  8
1
  6
CONTINUOUS
 62
     7
100
AcDbLine
 10
109.3255951371858
 20
161.1279414410913
 30
0.0
 11
109.3615951371858
 21
160.9500344643472
 31
0.0
  0
LINE
  5
130
330
1F
100
AcDbEntity
  8
1
  6
CONTINUOUS
 62
     7
100
AcDbLine
 10
109.2445951371858
 20
161.2849181852774
 30
0.0
 11
109.3255951371858
 21
161.1279414410913
 31
0.0
  0
LINE
  5
131
330
1F
100
AcDbEntity
  8
1
  6
CONTINUOUS
 62
     7
100
AcDbLine
 10
109.0645951371858
 20
161.4000344643472
 30
0.0
 11
109.2445951371858
 21
161.2849181852774
 31
0.0
  0
LINE
  5
132
330
1F
100
AcDbEntity
  8
1
  6
CONTINUOUS
 62
     7
100
AcDbLine
 10
108.8305951371858
 20
161.4418949294634
 30
0.0
 11
109.0645951371858
 21
161.4000344643472
 31
0.0
  0
LINE
  5
133
330
1F
100
AcDbEntity
  8
1
  6
CONTINUOUS
 62
     7
100
AcDbLine
 10
108.6055951371858
 20
161.4000344643472
 30
0.0
 11
108.8305951371858
 21
161.4418949294634
 31
0.0
  0
LINE
  5
134
330
1F
100
AcDbEntity
  8
1
  6
CONTINUOUS
 62
     7
100
AcDbLine
 10
108.4525951371858
 20
161.3058484178355
 30
0.0
 11
108.6055951371858
 21
161.4000344643472
 31
0.0
  0
LINE
  5
135
330
1F
100
AcDbEntity
  8
1
  6
CONTINUOUS
 62
     7
100
AcDbLine
 10
108.3535951371858
 20
161.1384065573704
 30
0.0
 11
108.4525951371858
 21
161.3058484178355
 31
0.0
  0
LINE
  5
136
330
1F
100
AcDbEntity
  8
1
  6
CONTINUOUS
 62
     7
100
AcDbLine
 10
108.3265951371858
 20
160.9604995806262
 30
0.0
 11
108.3535951371858
 21
161.1384065573704
 31
0.0
  0
LINE
  5
137
330
1F
100
AcDbEntity
  8
1
  6
CONTINUOUS
 62
     7
100
AcDbLine
 10
107.6335951371858
 20
161.1907321387658
 30
0.0
 11
107.6335951371858
 21
161.4209646969053
 31
0.0
  0
LINE
  5
138
330
1F
100
AcDbEntity
  8
1
  6
CONTINUOUS
 62
     7
100
AcDbLine
 10
107.7325951371858
 20
161.1907321387658
 30
0.0
 11
107.6335951371858
 21
161.1907321387658
 31
0.0
  0
LINE
  5
139
330
1F
100
AcDbEntity
  8
1
  6
CONTINUOUS
 62
     7
100
AcDbLine
 10
107.7325951371858
 20
159.9035228364402
 30
0.0
 11
107.7325951371858
 21
161.1907321387658
 31
0.0
  0
LINE
  5
13A
330
1F
100
AcDbEntity
  8
1
  6
CONTINUOUS
 62
     7
100
AcDbLine
 10
107.6335951371858
 20
159.9035228364402
 30
0.0
 11
107.7325951371858
 21
159.9035228364402
 31
0.0
  0
LINE
  5
13B
330
1F
100
AcDbEntity
  8
1
  6
CONTINUOUS
 62
     7
100
AcDbLine
 10
107.6335951371858
 20
159.6732902783006
 30
0.0
 11
107.6335951371858
 21
159.9035228364402
 31
0.0
  0
LINE
  5
13C
330
1F
100
AcDbEntity
  8
1
  6
CONTINUOUS
 62
     7
100
AcDbLine
 10
108.0295951371858
 20
159.6732902783006
 30
0.0
 11
107.6335951371858
 21
159.6732902783006
 31
0.0
  0
LINE
  5
13D
330
1F
100
AcDbEntity
  8
1
  6
CONTINUOUS
 62
     7
100
AcDbLine
 10
108.0295951371858
 20
159.9035228364402
 30
0.0
 11
108.0295951371858
 21
159.6732902783006
 31
0.0
  0
LINE
  5
13E
330
1F
100
AcDbEntity
  8
1
  6
CONTINUOUS
 62
     7
100
AcDbLine
 10
107.9395951371858
 20
159.9035228364402
 30
0.0
 11
108.0295951371858
 21
159.9035228364402
 31
0.0
  0
LINE
  5
13F
330
1F
100
AcDbEntity
  8
1
  6
CONTINUOUS
 62
     7
100
AcDbLine
 10
107.9395951371858
 20
161.1907321387658
 30
0.0
 11
107.9395951371858
 21
159.9035228364402
 31
0.0
  0
LINE
  5
140
330
1F
100
AcDbEntity
  8
1
  6
CONTINUOUS
 62
     7
100
AcDbLine
 10
108.0295951371858
 20
161.1907321387658
 30
0.0
 11
107.9395951371858
 21
161.1907321387658
 31
0.0
  0
LINE
  5
141
330
1F
100
AcDbEntity
  8
1
  6
CONTINUOUS
 62
     7
100
AcDbLine
 10
108.0295951371858
 20
161.4209646969053
 30
0.0
 11
108.0295951371858
 21
161.1907321387658
 31
0.0
  0
LINE
  5
142
330
1F
100
AcDbEntity
  8
1
  6
CONTINUOUS
 62
     7
100
AcDbLine
 10
107.6335951371858
 20
161.4209646969053
 30
0.0
 11
108.0295951371858
 21
161.4209646969053
 31
0.0
  0
LINE
  5
143
330
1F
100
AcDbEntity
  8
1
  6
CONTINUOUS
 62
     7
100
AcDbLine
 10
106.7245951371858
 20
161.2116623713239
 30
0.0
 11
106.4095951371858
 21
161.2116623713239
 31
0.0
  0
LINE
  5
144
330
1F
100
AcDbEntity
  8
1
  6
CONTINUOUS
 62
     7
100
AcDbLine
 10
106.8685951371858
 20
161.1802670224867
 30
0.0
 11
106.7245951371858
 21
161.2116623713239
 31
0.0
  0
LINE
  5
145
330
1F
100
AcDbEntity
  8
1
  6
CONTINUOUS
 62
     7
100
AcDbLine
 10
107.0035951371858
 20
161.0860809759751
 30
0.0
 11
106.8685951371858
 21
161.1802670224867
 31
0.0
  0
LINE
  5
146
330
1F
100
AcDbEntity
  8
1
  6
CONTINUOUS
 62
     7
100
AcDbLine
 10
107.1205951371858
 20
160.8558484178356
 30
0.0
 11
107.0035951371858
 21
161.0860809759751
 31
0.0
  0
LINE
  5
147
330
1F
100
AcDbEntity
  8
1
  6
CONTINUOUS
 62
     7
100
AcDbLine
 10
107.1655951371858
 20
160.5314298131844
 30
0.0
 11
107.1205951371858
 21
160.8558484178356
 31
0.0
  0
LINE
  5
148
330
1F
100
AcDbEntity
  8
1
  6
CONTINUOUS
 62
     7
100
AcDbLine
 10
107.1205951371858
 20
160.2174763248123
 30
0.0
 11
107.1655951371858
 21
160.5314298131844
 31
0.0
  0
LINE
  5
149
330
1F
100
AcDbEntity
  8
1
  6
CONTINUOUS
 62
     7
100
AcDbLine
 10
106.9945951371858
 20
159.9977088829518
 30
0.0
 11
107.1205951371858
 21
160.2174763248123
 31
0.0
  0
LINE
  5
14A
330
1F
100
AcDbEntity
  8
1
  6
CONTINUOUS
 62
     7
100
AcDbLine
 10
106.8685951371858
 20
159.9035228364402
 30
0.0
 11
106.9945951371858
 21
159.9977088829518
 31
0.0
  0
LINE
  5
14B
330
1F
100
AcDbEntity
  8
1
  6
CONTINUOUS
 62
     7
100
AcDbLine
 10
106.7245951371858
 20
159.872127487603
 30
0.0
 11
106.8685951371858
 21
159.9035228364402
 31
0.0
  0
LINE
  5
14C
330
1F
100
AcDbEntity
  8
1
  6
CONTINUOUS
 62
     7
100
AcDbLine
 10
106.4095951371858
 20
159.872127487603
 30
0.0
 11
106.7245951371858
 21
159.872127487603
 31
0.0
  0
LINE
  5
14D
330
1F
100
AcDbEntity
  8
1
  6
CONTINUOUS
 62
     7
100
AcDbLine
 10
106.4095951371858
 20
161.2116623713239
 30
0.0
 11
106.4095951371858
 21
159.872127487603
 31
0.0
  0
LINE
  5
14E
330
1F
100
AcDbEntity
  8
1
  6
CONTINUOUS
 62
     7
100
AcDbLine
 10
106.2025951371858
 20
159.6628251620216
 30
0.0
 11
106.2025951371858
 21
161.4209646969053
 31
0.0
  0
LINE
  5
14F
330
1F
100
AcDbEntity
  8
1
  6
CONTINUOUS
 62
     7
100
AcDbLine
 10
106.7335951371858
 20
159.6628251620216
 30
0.0
 11
106.2025951371858
 21
159.6628251620216
 31
0.0
  0
LINE
  5
150
330
1F
100
AcDbEntity
  8
1
  6
CONTINUOUS
 62
     7
100
AcDbLine
 10
106.9765951371858
 20
159.7151507434169
 30
0.0
 11
106.7335951371858
 21
159.6628251620216
 31
0.0
  0
LINE
  5
151
330
1F
100
AcDbEntity
  8
1
  6
CONTINUOUS
 62
     7
100
AcDbLine
 10
107.1745951371858
 20
159.872127487603
 30
0.0
 11
106.9765951371858
 21
159.7151507434169
 31
0.0
  0
LINE
  5
152
330
1F
100
AcDbEntity
  8
1
  6
CONTINUOUS
 62
     7
100
AcDbLine
 10
107.3185951371858
 20
160.1442205108588
 30
0.0
 11
107.1745951371858
 21
159.872127487603
 31
0.0
  0
LINE
  5
153
330
1F
100
AcDbEntity
  8
1
  6
CONTINUOUS
 62
     7
100
AcDbLine
 10
107.3725951371858
 20
160.5314298131844
 30
0.0
 11
107.3185951371858
 21
160.1442205108588
 31
0.0
  0
LINE
  5
154
330
1F
100
AcDbEntity
  8
1
  6
CONTINUOUS
 62
     7
100
AcDbLine
 10
107.3185951371858
 20
160.91863911551
 30
0.0
 11
107.3725951371858
 21
160.5314298131844
 31
0.0
  0
LINE
  5
155
330
1F
100
AcDbEntity
  8
1
  6
CONTINUOUS
 62
     7
100
AcDbLine
 10
107.1835951371858
 20
161.2116623713239
 30
0.0
 11
107.3185951371858
 21
160.91863911551
 31
0.0
  0
LINE
  5
156
330
1F
100
AcDbEntity
  8
1
  6
CONTINUOUS
 62
     7
100
AcDbLine
 10
106.9765951371858
 20
161.36863911551
 30
0.0
 11
107.1835951371858
 21
161.2116623713239
 31
0.0
  0
LINE
  5
157
330
1F
100
AcDbEntity
  8
1
  6
CONTINUOUS
 62
     7
100
AcDbLine
 10
106.7335951371858
 20
161.4209646969053
 30
0.0
 11
106.9765951371858
 21
161.36863911551
 31
0.0
  0
LINE
  5
158
330
1F
100
AcDbEntity
  8
1
  6
CONTINUOUS
 62
     7
100
AcDbLine
 10
106.2025951371858
 20
161.4209646969053
 30
0.0
 11
106.7335951371858
 21
161.4209646969053
 31
0.0
  0
LINE
  5
159
330
1F
100
AcDbEntity
  8
1
  6
CONTINUOUS
 62
     7
100
AcDbLine
 10
109.5119340510135
 20
150.0641925532204
 30
0.0
 11
109.5119340510135
 21
150.3200065067088
 31
0.0
  0
LINE
  5
15A
330
1F
100
AcDbEntity
  8
1
  6
CONTINUOUS
 62
     7
100
AcDbLine
 10
110.1169340510135
 20
150.0641925532204
 30
0.0
 11
109.5119340510135
 21
150.0641925532204
 31
0.0
  0
LINE
  5
15B
330
1F
100
AcDbEntity
  8
1
  6
CONTINUOUS
 62
     7
100
AcDbLine
 10
110.1169340510135
 20
148.1839599950808
 30
0.0
 11
110.1169340510135
 21
150.0641925532204
 31
0.0
  0
LINE
  5
15C
330
1F
100
AcDbEntity
  8
1
  6
CONTINUOUS
 62
     7
100
AcDbLine
 10
110.3699340510135
 20
148.1839599950808
 30
0.0
 11
110.1169340510135
 21
148.1839599950808
 31
0.0
  0
LINE
  5
15D
330
1F
100
AcDbEntity
  8
1
  6
CONTINUOUS
 62
     7
100
AcDbLine
 10
110.3699340510135
 20
150.0641925532204
 30
0.0
 11
110.3699340510135
 21
148.1839599950808
 31
0.0
  0
LINE
  5
15E
330
1F
100
AcDbEntity
  8
1
  6
CONTINUOUS
 62
     7
100
AcDbLine
 10
110.9859340510135
 20
150.0641925532204
 30
0.0
 11
110.3699340510135
 21
150.0641925532204
 31
0.0
  0
LINE
  5
15F
330
1F
100
AcDbEntity
  8
1
  6
CONTINUOUS
 62
     7
100
AcDbLine
 10
110.9859340510135
 20
150.3200065067088
 30
0.0
 11
110.9859340510135
 21
150.0641925532204
 31
0.0
  0
LINE
  5
160
330
1F
100
AcDbEntity
  8
1
  6
CONTINUOUS
 62
     7
100
AcDbLine
 10
109.5119340510135
 20
150.3200065067088
 30
0.0
 11
110.9859340510135
 21
150.3200065067088
 31
0.0
  0
LINE
  5
161
330
1F
100
AcDbEntity
  8
1
  6
CONTINUOUS
 62
     7
100
AcDbLine
 10
108.0049340510135
 20
148.1711692974064
 30
0.0
 11
108.0049340510135
 21
150.3200065067088
 31
0.0
  0
LINE
  5
162
330
1F
100
AcDbEntity
  8
1
  6
CONTINUOUS
 62
     7
100
AcDbLine
 10
109.2369340510135
 20
148.1711692974064
 30
0.0
 11
108.0049340510135
 21
148.1711692974064
 31
0.0
  0
LINE
  5
163
330
1F
100
AcDbEntity
  8
1
  6
CONTINUOUS
 62
     7
100
AcDbLine
 10
109.2369340510135
 20
148.4269832508948
 30
0.0
 11
109.2369340510135
 21
148.1711692974064
 31
0.0
  0
LINE
  5
164
330
1F
100
AcDbEntity
  8
1
  6
CONTINUOUS
 62
     7
100
AcDbLine
 10
108.2579340510135
 20
148.4269832508948
 30
0.0
 11
109.2369340510135
 21
148.4269832508948
 31
0.0
  0
LINE
  5
165
330
1F
100
AcDbEntity
  8
1
  6
CONTINUOUS
 62
     7
100
AcDbLine
 10
108.2579340510135
 20
149.1688437160111
 30
0.0
 11
108.2579340510135
 21
148.4269832508948
 31
0.0
  0
LINE
  5
166
330
1F
100
AcDbEntity
  8
1
  6
CONTINUOUS
 62
     7
100
AcDbLine
 10
109.1269340510135
 20
149.1688437160111
 30
0.0
 11
108.2579340510135
 21
149.1688437160111
 31
0.0
  0
LINE
  5
167
330
1F
100
AcDbEntity
  8
1
  6
CONTINUOUS
 62
     7
100
AcDbLine
 10
109.1269340510135
 20
149.4246576694995
 30
0.0
 11
109.1269340510135
 21
149.1688437160111
 31
0.0
  0
LINE
  5
168
330
1F
100
AcDbEntity
  8
1
  6
CONTINUOUS
 62
     7
100
AcDbLine
 10
108.2579340510135
 20
149.4246576694995
 30
0.0
 11
109.1269340510135
 21
149.4246576694995
 31
0.0
  0
LINE
  5
169
330
1F
100
AcDbEntity
  8
1
  6
CONTINUOUS
 62
     7
100
AcDbLine
 10
108.2579340510135
 20
150.0641925532204
 30
0.0
 11
108.2579340510135
 21
149.4246576694995
 31
0.0
  0
LINE
  5
16A
330
1F
100
AcDbEntity
  8
1
  6
CONTINUOUS
 62
     7
100
AcDbLine
 10
109.1929340510135
 20
150.0641925532204
 30
0.0
 11
108.2579340510135
 21
150.0641925532204
 31
0.0
  0
LINE
  5
16B
330
1F
100
AcDbEntity
  8
1
  6
CONTINUOUS
 62
     7
100
AcDbLine
 10
109.1929340510135
 20
150.3200065067088
 30
0.0
 11
109.1929340510135
 21
150.0641925532204
 31
0.0
  0
LINE
  5
16C
330
1F
100
AcDbEntity
  8
1
  6
CONTINUOUS
 62
     7
100
AcDbLine
 10
108.0049340510135
 20
150.3200065067088
 30
0.0
 11
109.1929340510135
 21
150.3200065067088
 31
0.0
  0
LINE
  5
16D
330
1F
100
AcDbEntity
  8
1
  6
CONTINUOUS
 62
     7
100
AcDbLine
 10
106.3439340510135
 20
149.5909367392669
 30
0.0
 11
106.3219340510135
 21
149.7572158090343
 31
0.0
  0
LINE
  5
16E
330
1F
100
AcDbEntity
  8
1
  6
CONTINUOUS
 62
     7
100
AcDbLine
 10
106.4209340510135
 20
149.4630297625227
 30
0.0
 11
106.3439340510135
 21
149.5909367392669
 31
0.0
  0
LINE
  5
16F
330
1F
100
AcDbEntity
  8
1
  6
CONTINUOUS
 62
     7
100
AcDbLine
 10
106.4869340510135
 20
149.3862855764762
 30
0.0
 11
106.4209340510135
 21
149.4630297625227
 31
0.0
  0
LINE
  5
170
330
1F
100
AcDbEntity
  8
1
  6
CONTINUOUS
 62
     7
100
AcDbLine
 10
106.5749340510135
 20
149.3479134834529
 30
0.0
 11
106.4869340510135
 21
149.3862855764762
 31
0.0
  0
LINE
  5
171
330
1F
100
AcDbEntity
  8
1
  6
CONTINUOUS
 62
     7
100
AcDbLine
 10
106.7069340510135
 20
149.2711692974064
 30
0.0
 11
106.5749340510135
 21
149.3479134834529
 31
0.0
  0
LINE
  5
172
330
1F
100
AcDbEntity
  8
1
  6
CONTINUOUS
 62
     7
100
AcDbLine
 10
106.8829340510135
 20
149.1944251113599
 30
0.0
 11
106.7069340510135
 21
149.2711692974064
 31
0.0
  0
LINE
  5
173
330
1F
100
AcDbEntity
  8
1
  6
CONTINUOUS
 62
     7
100
AcDbLine
 10
107.0259340510135
 20
149.104890227639
 30
0.0
 11
106.8829340510135
 21
149.1944251113599
 31
0.0
  0
LINE
  5
174
330
1F
100
AcDbEntity
  8
1
  6
CONTINUOUS
 62
     7
100
AcDbLine
 10
107.1579340510135
 20
149.0409367392669
 30
0.0
 11
107.0259340510135
 21
149.104890227639
 31
0.0
  0
LINE
  5
175
330
1F
100
AcDbEntity
  8
1
  6
CONTINUOUS
 62
     7
100
AcDbLine
 10
107.2569340510135
 20
148.9769832508948
 30
0.0
 11
107.1579340510135
 21
149.0409367392669
 31
0.0
  0
LINE
  5
176
330
1F
100
AcDbEntity
  8
1
  6
CONTINUOUS
 62
     7
100
AcDbLine
 10
107.3339340510135
 20
148.9130297625227
 30
0.0
 11
107.2569340510135
 21
148.9769832508948
 31
0.0
  0
LINE
  5
177
330
1F
100
AcDbEntity
  8
1
  6
CONTINUOUS
 62
     7
100
AcDbLine
 10
107.3779340510135
 20
148.8234948788018
 30
0.0
 11
107.3339340510135
 21
148.9130297625227
 31
0.0
  0
LINE
  5
178
330
1F
100
AcDbEntity
  8
1
  6
CONTINUOUS
 62
     7
100
AcDbLine
 10
107.3999340510135
 20
148.7211692974064
 30
0.0
 11
107.3779340510135
 21
148.8234948788018
 31
0.0
  0
LINE
  5
179
330
1F
100
AcDbEntity
  8
1
  6
CONTINUOUS
 62
     7
100
AcDbLine
 10
107.3779340510135
 20
148.6188437160111
 30
0.0
 11
107.3999340510135
 21
148.7211692974064
 31
0.0
  0
LINE
  5
17A
330
1F
100
AcDbEntity
  8
1
  6
CONTINUOUS
 62
     7
100
AcDbLine
 10
107.3119340510135
 20
148.5293088322902
 30
0.0
 11
107.3779340510135
 21
148.6188437160111
 31
0.0
  0
LINE
  5
17B
330
1F
100
AcDbEntity
  8
1
  6
CONTINUOUS
 62
     7
100
AcDbLine
 10
107.1689340510135
 20
148.4269832508948
 30
0.0
 11
107.3119340510135
 21
148.5293088322902
 31
0.0
  0
LINE
  5
17C
330
1F
100
AcDbEntity
  8
1
  6
CONTINUOUS
 62
     7
100
AcDbLine
 10
106.9819340510135
 20
148.401401855546
 30
0.0
 11
107.1689340510135
 21
148.4269832508948
 31
0.0
  0
LINE
  5
17D
330
1F
100
AcDbEntity
  8
1
  6
CONTINUOUS
 62
     7
100
AcDbLine
 10
106.7619340510135
 20
148.4269832508948
 30
0.0
 11
106.9819340510135
 21
148.401401855546
 31
0.0
  0
LINE
  5
17E
330
1F
100
AcDbEntity
  8
1
  6
CONTINUOUS
 62
     7
100
AcDbLine
 10
106.6079340510135
 20
148.5420995299646
 30
0.0
 11
106.7619340510135
 21
148.4269832508948
 31
0.0
  0
LINE
  5
17F
330
1F
100
AcDbEntity
  8
1
  6
CONTINUOUS
 62
     7
100
AcDbLine
 10
106.5419340510135
 20
148.6700065067088
 30
0.0
 11
106.6079340510135
 21
148.5420995299646
 31
0.0
  0
LINE
  5
180
330
1F
100
AcDbEntity
  8
1
  6
CONTINUOUS
 62
     7
100
AcDbLine
 10
106.5309340510135
 20
148.861866971825
 30
0.0
 11
106.5419340510135
 21
148.6700065067088
 31
0.0
  0
LINE
  5
181
330
1F
100
AcDbEntity
  8
1
  6
CONTINUOUS
 62
     7
100
AcDbLine
 10
106.2779340510135
 20
148.861866971825
 30
0.0
 11
106.5309340510135
 21
148.861866971825
 31
0.0
  0
LINE
  5
182
330
1F
100
AcDbEntity
  8
1
  6
CONTINUOUS
 62
     7
100
AcDbLine
 10
106.3109340510135
 20
148.5804716229878
 30
0.0
 11
106.2779340510135
 21
148.861866971825
 31
0.0
  0
LINE
  5
183
330
1F
100
AcDbEntity
  8
1
  6
CONTINUOUS
 62
     7
100
AcDbLine
 10
106.4209340510135
 20
148.3886111578715
 30
0.0
 11
106.3109340510135
 21
148.5804716229878
 31
0.0
  0
LINE
  5
184
330
1F
100
AcDbEntity
  8
1
  6
CONTINUOUS
 62
     7
100
AcDbLine
 10
106.6519340510135
 20
148.2095413904297
 30
0.0
 11
106.4209340510135
 21
148.3886111578715
 31
0.0
  0
LINE
  5
185
330
1F
100
AcDbEntity
  8
1
  6
CONTINUOUS
 62
     7
100
AcDbLine
 10
106.9709340510135
 20
148.158378599732
 30
0.0
 11
106.6519340510135
 21
148.2095413904297
 31
0.0
  0
LINE
  5
186
330
1F
100
AcDbEntity
  8
1
  6
CONTINUOUS
 62
     7
100
AcDbLine
 10
107.2789340510135
 20
148.1967506927553
 30
0.0
 11
106.9709340510135
 21
148.158378599732
 31
0.0
  0
LINE
  5
187
330
1F
100
AcDbEntity
  8
1
  6
CONTINUOUS
 62
     7
100
AcDbLine
 10
107.4989340510135
 20
148.3502390648483
 30
0.0
 11
107.2789340510135
 21
148.1967506927553
 31
0.0
  0
LINE
  5
188
330
1F
100
AcDbEntity
  8
1
  6
CONTINUOUS
 62
     7
100
AcDbLine
 10
107.5979340510135
 20
148.5420995299646
 30
0.0
 11
107.4989340510135
 21
148.3502390648483
 31
0.0
  0
LINE
  5
189
330
1F
100
AcDbEntity
  8
1
  6
CONTINUOUS
 62
     7
100
AcDbLine
 10
107.6419340510135
 20
148.7723320881041
 30
0.0
 11
107.5979340510135
 21
148.5420995299646
 31
0.0
  0
LINE
  5
18A
330
1F
100
AcDbEntity
  8
1
  6
CONTINUOUS
 62
     7
100
AcDbLine
 10
107.6089340510135
 20
148.951401855546
 30
0.0
 11
107.6419340510135
 21
148.7723320881041
 31
0.0
  0
LINE
  5
18B
330
1F
100
AcDbEntity
  8
1
  6
CONTINUOUS
 62
     7
100
AcDbLine
 10
107.5209340510135
 20
149.104890227639
 30
0.0
 11
107.6089340510135
 21
148.951401855546
 31
0.0
  0
LINE
  5
18C
330
1F
100
AcDbEntity
  8
1
  6
CONTINUOUS
 62
     7
100
AcDbLine
 10
107.4439340510135
 20
149.1688437160111
 30
0.0
 11
107.5209340510135
 21
149.104890227639
 31
0.0
  0
LINE
  5
18D
330
1F
100
AcDbEntity
  8
1
  6
CONTINUOUS
 62
     7
100
AcDbLine
 10
107.3669340510135
 20
149.2200065067088
 30
0.0
 11
107.4439340510135
 21
149.1688437160111
 31
0.0
  0
LINE
  5
18E
330
1F
100
AcDbEntity
  8
1
  6
CONTINUOUS
 62
     7
100
AcDbLine
 10
107.0589340510135
 20
149.3734948788018
 30
0.0
 11
107.3669340510135
 21
149.2200065067088
 31
0.0
  0
LINE
  5
18F
330
1F
100
AcDbEntity
  8
1
  6
CONTINUOUS
 62
     7
100
AcDbLine
 10
106.8059340510135
 20
149.5141925532204
 30
0.0
 11
107.0589340510135
 21
149.3734948788018
 31
0.0
  0
LINE
  5
190
330
1F
100
AcDbEntity
  8
1
  6
CONTINUOUS
 62
     7
100
AcDbLine
 10
106.6849340510135
 20
149.5781460415925
 30
0.0
 11
106.8059340510135
 21
149.5141925532204
 31
0.0
  0
LINE
  5
191
330
1F
100
AcDbEntity
  8
1
  6
CONTINUOUS
 62
     7
100
AcDbLine
 10
106.6079340510135
 20
149.6420995299646
 30
0.0
 11
106.6849340510135
 21
149.5781460415925
 31
0.0
  0
LINE
  5
192
330
1F
100
AcDbEntity
  8
1
  6
CONTINUOUS
 62
     7
100
AcDbLine
 10
106.5749340510135
 20
149.7060530183367
 30
0.0
 11
106.6079340510135
 21
149.6420995299646
 31
0.0
  0
LINE
  5
193
330
1F
100
AcDbEntity
  8
1
  6
CONTINUOUS
 62
     7
100
AcDbLine
 10
106.5749340510135
 20
149.7955879020576
 30
0.0
 11
106.5749340510135
 21
149.7060530183367
 31
0.0
  0
LINE
  5
194
330
1F
100
AcDbEntity
  8
1
  6
CONTINUOUS
 62
     7
100
AcDbLine
 10
106.5859340510135
 20
149.8979134834529
 30
0.0
 11
106.5749340510135
 21
149.7955879020576
 31
0.0
  0
LINE
  5
195
330
1F
100
AcDbEntity
  8
1
  6
CONTINUOUS
 62
     7
100
AcDbLine
 10
106.6409340510135
 20
150.0002390648483
 30
0.0
 11
106.5859340510135
 21
149.8979134834529
 31
0.0
  0
LINE
  5
196
330
1F
100
AcDbEntity
  8
1
  6
CONTINUOUS
 62
     7
100
AcDbLine
 10
106.7619340510135
 20
150.0769832508948
 30
0.0
 11
106.6409340510135
 21
150.0002390648483
 31
0.0
  0
LINE
  5
197
330
1F
100
AcDbEntity
  8
1
  6
CONTINUOUS
 62
     7
100
AcDbLine
 10
106.9599340510135
 20
150.1025646462436
 30
0.0
 11
106.7619340510135
 21
150.0769832508948
 31
0.0
  0
LINE
  5
198
330
1F
100
AcDbEntity
  8
1
  6
CONTINUOUS
 62
     7
100
AcDbLine
 10
107.1249340510135
 20
150.0641925532204
 30
0.0
 11
106.9599340510135
 21
150.1025646462436
 31
0.0
  0
LINE
  5
199
330
1F
100
AcDbEntity
  8
1
  6
CONTINUOUS
 62
     7
100
AcDbLine
 10
107.2569340510135
 20
149.9874483671739
 30
0.0
 11
107.1249340510135
 21
150.0641925532204
 31
0.0
  0
LINE
  5
19A
330
1F
100
AcDbEntity
  8
1
  6
CONTINUOUS
 62
     7
100
AcDbLine
 10
107.3229340510135
 20
149.8723320881041
 30
0.0
 11
107.2569340510135
 21
149.9874483671739
 31
0.0
  0
LINE
  5
19B
330
1F
100
AcDbEntity
  8
1
  6
CONTINUOUS
 62
     7
100
AcDbLine
 10
107.3449340510135
 20
149.7444251113599
 30
0.0
 11
107.3229340510135
 21
149.8723320881041
 31
0.0
  0
LINE
  5
19C
330
1F
100
AcDbEntity
  8
1
  6
CONTINUOUS
 62
     7
100
AcDbLine
 10
107.5869340510135
 20
149.7444251113599
 30
0.0
 11
107.3449340510135
 21
149.7444251113599
 31
0.0
  0
LINE
  5
19D
330
1F
100
AcDbEntity
  8
1
  6
CONTINUOUS
 62
     7
100
AcDbLine
 10
107.5429340510135
 20
149.961866971825
 30
0.0
 11
107.5869340510135
 21
149.7444251113599
 31
0.0
  0
LINE
  5
19E
330
1F
100
AcDbEntity
  8
1
  6
CONTINUOUS
 62
     7
100
AcDbLine
 10
107.4439340510135
 20
150.1537274369413
 30
0.0
 11
107.5429340510135
 21
149.961866971825
 31
0.0
  0
LINE
  5
19F
330
1F
100
AcDbEntity
  8
1
  6
CONTINUOUS
 62
     7
100
AcDbLine
 10
107.2239340510135
 20
150.2944251113599
 30
0.0
 11
107.4439340510135
 21
150.1537274369413
 31
0.0
  0
LINE
  5
1A0
330
1F
100
AcDbEntity
  8
1
  6
CONTINUOUS
 62
     7
100
AcDbLine
 10
106.9379340510135
 20
150.3455879020576
 30
0.0
 11
107.2239340510135
 21
150.2944251113599
 31
0.0
  0
LINE
  5
1A1
330
1F
100
AcDbEntity
  8
1
  6
CONTINUOUS
 62
     7
100
AcDbLine
 10
106.6629340510135
 20
150.2944251113599
 30
0.0
 11
106.9379340510135
 21
150.3455879020576
 31
0.0
  0
LINE
  5
1A2
330
1F
100
AcDbEntity
  8
1
  6
CONTINUOUS
 62
     7
100
AcDbLine
 10
106.4759340510135
 20
150.1793088322901
 30
0.0
 11
106.6629340510135
 21
150.2944251113599
 31
0.0
  0
LINE
  5
1A3
330
1F
100
AcDbEntity
  8
1
  6
CONTINUOUS
 62
     7
100
AcDbLine
 10
106.3549340510135
 20
149.9746576694994
 30
0.0
 11
106.4759340510135
 21
150.1793088322901
 31
0.0
  0
LINE
  5
1A4
330
1F
100
AcDbEntity
  8
1
  6
CONTINUOUS
 62
     7
100
AcDbLine
 10
106.3219340510135
 20
149.7572158090343
 30
0.0
 11
106.3549340510135
 21
149.9746576694994
 31
0.0
  0
LINE
  5
1A5
330
1F
100
AcDbEntity
  8
1
  6
DOTTED
 62
     7
100
AcDbLine
 10
132.833685757168
 20
193.0887888911399
 30
0.0
 11
127.4367123728933
 21
193.0887888911399
 31
0.0
  0
LINE
  5
1A6
330
1F
100
AcDbEntity
  8
1
  6
DOTTED
 62
     7
100
AcDbLine
 10
131.8648322489622
 20
188.0887888911399
 30
0.0
 11
127.4367123728933
 21
188.0887888911399
 31
0.0
  0
LINE
  5
1A7
330
1F
100
AcDbEntity
  8
1
  6
DOTTED
 62
     7
100
AcDbLine
 10
129.9887313307859
 20
163.0887888911399
 30
0.0
 11
127.4367123728933
 21
163.0887888911399
 31
0.0
  0
LINE
  5
1A8
330
1F
100
AcDbEntity
  8
1
  6
DOTTED
 62
     7
100
AcDbLine
 10
131.4551089468568
 20
158.0888041499399
 30
0.0
 11
127.4367123728933
 21
158.0888041499399
 31
0.0
  0
LINE
  5
1A9
330
1F
100
AcDbEntity
  8
1
  6
DOTTED
 62
     7
100
AcDbLine
 10
89.54609919413141
 20
158.0888041499399
 30
0.0
 11
98.4367123728933
 21
158.0888041499399
 31
0.0
  0
LINE
  5
1AA
330
1F
100
AcDbEntity
  8
1
  6
DOTTED
 62
     7
100
AcDbLine
 10
88.07972157806054
 20
163.0887888911399
 30
0.0
 11
98.4367123728933
 21
163.0887888911399
 31
0.0
  0
LINE
  5
1AB
330
1F
100
AcDbEntity
  8
1
  6
DOTTED
 62
     7
100
AcDbLine
 10
89.95582249623678
 20
188.0887888911399
 30
0.0
 11
98.4367123728933
 21
188.0887888911399
 31
0.0
  0
LINE
  5
1AC
330
1F
100
AcDbEntity
  8
1
  6
DOTTED
 62
     7
100
AcDbLine
 10
90.9246760044426
 20
193.0887888911399
 30
0.0
 11
98.4367123728933
 21
193.0887888911399
 31
0.0
  0
LINE
  5
1AD
330
1F
100
AcDbEntity
  8
1
  6
DOT_CENTER
 62
     7
100
AcDbLine
 10
257.98610776574
 20
175.5887888911399
 30
0.0
 11
268.98610776574
 21
175.5887888911399
 31
0.0
  0
LINE
  5
1AE
330
1F
100
AcDbEntity
  8
0
  6
CONTINUOUS
 62
     7
100
AcDbLine
 10
232.8962499931
 20
192.5888041499398
 30
0.0
 11
232.8962499931
 21
158.5888041499398
 31
0.0
  0
LINE
  5
1AF
330
1F
100
AcDbEntity
  8
0
  6
CONTINUOUS
 62
     7
100
AcDbLine
 10
232.8962499931
 20
158.5888041499398
 30
0.0
 11
234.8962499931
 21
158.5888041499398
 31
0.0
  0
LINE
  5
1B0
330
1F
100
AcDbEntity
  8
0
  6
CONTINUOUS
 62
     7
100
AcDbLine
 10
232.8962499931
 20
161.5888041499398
 30
0.0
 11
234.8962499931
 21
161.5888041499398
 31
0.0
  0
LINE
  5
1B1
330
1F
100
AcDbEntity
  8
0
  6
CONTINUOUS
 62
     7
100
AcDbLine
 10
232.8962499931
 20
189.5888041499398
 30
0.0
 11
234.8962499931
 21
189.5888041499398
 31
0.0
  0
LINE
  5
1B2
330
1F
100
AcDbEntity
  8
0
  6
CONTINUOUS
 62
     7
100
AcDbLine
 10
232.8962499931
 20
192.5888041499398
 30
0.0
 11
234.8962499931
 21
192.5888041499398
 31
0.0
  0
LINE
  5
1B3
330
1F
100
AcDbEntity
  8
0
  6
DOTTED
 62
     7
100
AcDbLine
 10
260.8962499931
 20
189.8888072017404
 30
0.0
 11
260.8962499931
 21
193.0888041499399
 31
0.0
  0
LINE
  5
1B4
330
1F
100
AcDbEntity
  8
0
  6
DOTTED
 62
     7
100
AcDbLine
 10
261.6962683037001
 20
189.0887888911399
 30
0.0
 11
266.3962499931
 21
189.0887888911399
 31
0.0
  0
LINE
  5
1B5
330
1F
100
AcDbEntity
  8
0
  6
DOTTED
 62
     7
100
AcDbLine
 10
260.6962683037001
 20
188.0887888911399
 30
0.0
 11
265.3962499931
 21
188.0887888911399
 31
0.0
  0
LINE
  5
1B6
330
1F
100
AcDbEntity
  8
0
  6
DOTTED
 62
     7
100
AcDbLine
 10
260.8962499931
 20
158.0888041499399
 30
0.0
 11
260.8962499931
 21
161.2888010981402
 31
0.0
  0
LINE
  5
1B7
330
1F
100
AcDbEntity
  8
0
  6
DOTTED
 62
     7
100
AcDbLine
 10
261.6962683037001
 20
162.0887888911399
 30
0.0
 11
266.3962499931
 21
162.0887888911399
 31
0.0
  0
LINE
  5
1B8
330
1F
100
AcDbEntity
  8
0
  6
DOTTED
 62
     7
100
AcDbLine
 10
260.6962683037001
 20
163.0887888911399
 30
0.0
 11
265.3962499931
 21
163.0887888911399
 31
0.0
  0
LINE
  5
1B9
330
1F
100
AcDbEntity
  8
0
  6
DOTTED
 62
     7
100
AcDbLine
 10
267.1962530449001
 20
162.8888072017404
 30
0.0
 11
267.1962530449001
 21
188.2888010981402
 31
0.0
  0
LINE
  5
1BA
330
1F
100
AcDbEntity
  8
0
  6
DOTTED
 62
     7
100
AcDbLine
 10
266.1962530449001
 20
163.8888072017404
 30
0.0
 11
266.1962530449001
 21
187.2888010981402
 31
0.0
  0
LINE
  5
1BB
330
1F
100
AcDbEntity
  8
0
  6
DOTTED
 62
     7
100
AcDbLine
 10
259.8962499931
 20
158.0888041499399
 30
0.0
 11
260.8962499931
 21
158.0888041499399
 31
0.0
  0
LINE
  5
1BC
330
1F
100
AcDbEntity
  8
0
  6
DOTTED
 62
     7
100
AcDbLine
 10
259.8962499931
 20
193.0887888911399
 30
0.0
 11
260.8962499931
 21
193.0887888911399
 31
0.0
  0
LINE
  5
1BD
330
1F
100
AcDbEntity
  8
0
  6
CONTINUOUS
 62
     7
100
AcDbLine
 10
259.7962499931
 20
189.2888041499398
 30
0.0
 11
259.4962499931
 21
187.7888041499398
 31
0.0
  0
LINE
  5
1BE
330
1F
100
AcDbEntity
  8
0
  6
CONTINUOUS
 62
     7
100
AcDbLine
 10
259.4962499931
 20
190.7888041499398
 30
0.0
 11
259.7962499931
 21
189.2888041499398
 31
0.0
  0
LINE
  5
1BF
330
1F
100
AcDbEntity
  8
0
  6
CONTINUOUS
 62
     7
100
AcDbLine
 10
259.5962499931001
 20
138.5888041499398
 30
0.0
 11
262.8962499931
 21
138.5888041499398
 31
0.0
  0
LINE
  5
1C0
330
1F
100
AcDbEntity
  8
0
  6
CONTINUOUS
 62
     7
100
AcDbLine
 10
248.3962499931
 20
211.5888041499398
 30
0.0
 11
262.8962499931
 21
211.5888041499398
 31
0.0
  0
LINE
  5
1C1
330
1F
100
AcDbEntity
  8
0
  6
CONTINUOUS
 62
     7
100
AcDbLine
 10
259.5962499931001
 20
135.5888041499398
 30
0.0
 11
262.8962499931
 21
135.5888041499398
 31
0.0
  0
LINE
  5
1C2
330
1F
100
AcDbEntity
  8
0
  6
CONTINUOUS
 62
     7
100
AcDbLine
 10
246.3962499931
 20
150.4888041499398
 30
0.0
 11
246.3962499931
 21
141.5888041499398
 31
0.0
  0
LINE
  5
1C3
330
1F
100
AcDbEntity
  8
0
  6
CONTINUOUS
 62
     7
100
AcDbLine
 10
248.3962499931
 20
139.5888041499398
 30
0.0
 11
262.8962499931
 21
139.5888041499398
 31
0.0
  0
LINE
  5
1C4
330
1F
100
AcDbEntity
  8
0
  6
CONTINUOUS
 62
     7
100
AcDbLine
 10
259.4962499931
 20
193.2888041499398
 30
0.0
 11
262.8962499931
 21
193.2888041499398
 31
0.0
  0
LINE
  5
1C5
330
1F
100
AcDbEntity
  8
0
  6
CONTINUOUS
 62
     7
100
AcDbLine
 10
259.4962499931
 20
157.8888041499398
 30
0.0
 11
262.8962499931
 21
157.8888041499398
 31
0.0
  0
LINE
  5
1C6
330
1F
100
AcDbEntity
  8
0
  6
CONTINUOUS
 62
     7
100
AcDbLine
 10
259.4962499931
 20
193.2888041499398
 30
0.0
 11
259.4962499931
 21
157.8888041499398
 31
0.0
  0
LINE
  5
1C7
330
1F
100
AcDbEntity
  8
0
  6
CONTINUOUS
 62
     7
100
AcDbLine
 10
262.8962499931
 20
157.8888041499398
 30
0.0
 11
262.8962499931
 21
135.5888041499398
 31
0.0
  0
LINE
  5
1C8
330
1F
100
AcDbEntity
  8
0
  6
CONTINUOUS
 62
     7
100
AcDbLine
 10
262.8962499931
 20
211.5888041499398
 30
0.0
 11
262.8962499931
 21
193.2888041499398
 31
0.0
  0
LINE
  5
1C9
330
1F
100
AcDbEntity
  8
0
  6
CONTINUOUS
 62
     7
100
AcDbLine
 10
236.8962499931
 20
200.6888041499398
 30
0.0
 11
246.3962499931
 21
200.6888041499398
 31
0.0
  0
LINE
  5
1CA
330
1F
100
AcDbEntity
  8
0
  6
CONTINUOUS
 62
     7
100
AcDbLine
 10
236.8962499931
 20
150.4888041499398
 30
0.0
 11
256.8962499931
 21
150.4888041499398
 31
0.0
  0
LINE
  5
1CB
330
1F
100
AcDbEntity
  8
0
  6
CONTINUOUS
 62
     7
100
AcDbLine
 10
234.8962499931
 20
198.6888031499398
 30
0.0
 11
234.8962499931
 21
152.4888041499398
 31
0.0
  0
LINE
  5
1CC
330
1F
100
AcDbEntity
  8
0
  6
CONTINUOUS
 62
     7
100
AcDbLine
 10
246.3962499931
 20
209.5888031499398
 30
0.0
 11
246.3962499931
 21
200.6888041499398
 31
0.0
  0
LINE
  5
1CD
330
1F
100
AcDbEntity
  8
0
  6
CONTINUOUS
 62
     7
100
AcDbLine
 10
248.3962499931
 20
211.5888041499398
 30
0.0
 11
246.3962499931
 21
209.5888031499398
 31
0.0
  0
LINE
  5
1CE
330
1F
100
AcDbEntity
  8
0
  6
CONTINUOUS
 62
     7
100
AcDbLine
 10
256.8962499931
 20
150.4888041499398
 30
0.0
 11
256.8962499931
 21
139.5888041499398
 31
0.0
  0
LINE
  5
1CF
330
1F
100
AcDbEntity
  8
0
  6
CONTINUOUS
 62
     7
100
AcDbLine
 10
246.3962499931
 20
141.5888041499398
 30
0.0
 11
248.3962499931
 21
139.5888041499398
 31
0.0
  0
LINE
  5
1D0
330
1F
100
AcDbEntity
  8
0
  6
CONTINUOUS
 62
     7
100
AcDbLine
 10
259.5962499931001
 20
139.5888041499398
 30
0.0
 11
259.5962499931001
 21
135.5888041499398
 31
0.0
  0
LINE
  5
1D1
330
1F
100
AcDbEntity
  8
0
  6
CONTINUOUS
 62
     7
100
AcDbLine
 10
236.8962499931
 20
200.6888041499398
 30
0.0
 11
234.8962499931
 21
198.6888031499398
 31
0.0
  0
LINE
  5
1D2
330
1F
100
AcDbEntity
  8
0
  6
CONTINUOUS
 62
     7
100
AcDbLine
 10
234.8962499931
 20
152.4888041499398
 30
0.0
 11
236.8962499931
 21
150.4888041499398
 31
0.0
  0
LINE
  5
1D3
330
1F
100
AcDbEntity
  8
0
  6
CONTINUOUS
 62
     7
100
AcDbLine
 10
260.8962499931
 20
191.2888041499398
 30
0.0
 11
261.8962499931
 21
191.2888041499398
 31
0.0
  0
LINE
  5
1D4
330
1F
100
AcDbEntity
  8
0
  6
CONTINUOUS
 62
     7
100
AcDbLine
 10
256.8962499931
 20
140.5888041499398
 30
0.0
 11
262.8962499931
 21
140.5888041499398
 31
0.0
  0
LINE
  5
1D5
330
1F
100
AcDbEntity
  8
0
  6
CONTINUOUS
 62
     7
100
AcDbLine
 10
260.8962499931
 20
193.2888041499398
 30
0.0
 11
260.8962499931
 21
191.2888041499398
 31
0.0
  0
LINE
  5
1D6
330
1F
100
AcDbEntity
  8
0
  6
CONTINUOUS
 62
     7
100
AcDbLine
 10
260.8962499931
 20
159.8888041499398
 30
0.0
 11
261.8962499931
 21
159.8888041499398
 31
0.0
  0
LINE
  5
1D7
330
1F
100
AcDbEntity
  8
0
  6
CONTINUOUS
 62
     7
100
AcDbLine
 10
262.8962499931
 20
193.2888041499398
 30
0.0
 11
261.8962499931
 21
191.2888041499398
 31
0.0
  0
LINE
  5
1D8
330
1F
100
AcDbEntity
  8
0
  6
CONTINUOUS
 62
     7
100
AcDbLine
 10
259.4962499931
 20
158.7888041499398
 30
0.0
 11
261.2962499931
 21
158.7888041499398
 31
0.0
  0
LINE
  5
1D9
330
1F
100
AcDbEntity
  8
0
  6
DOTTED
 62
     7
100
AcDbLine
 10
260.8962499931
 20
159.8888041499398
 30
0.0
 11
260.8962499931
 21
158.7888041499398
 31
0.0
  0
LINE
  5
1DA
330
1F
100
AcDbEntity
  8
0
  6
CONTINUOUS
 62
     7
100
AcDbLine
 10
261.2962499931
 20
158.7888041499398
 30
0.0
 11
261.2962499931
 21
157.8888041499398
 31
0.0
  0
LINE
  5
1DB
330
1F
100
AcDbEntity
  8
0
  6
CONTINUOUS
 62
     7
100
AcDbLine
 10
261.8962499931
 20
159.8888041499398
 30
0.0
 11
262.8962499931
 21
157.8888041499398
 31
0.0
  0
LINE
  5
1DC
330
1F
100
AcDbEntity
  8
Z_OM_OUTLINE
  6
CONTINUOUS
 62
     7
100
AcDbLine
 10
101.7291108389
 20
140.8091429467798
 30
0.0
 11
98.4367123728933
 21
140.8091429467798
 31
0.0
  0
LINE
  5
1DD
330
1F
100
AcDbEntity
  8
Z_OM_OUTLINE
  6
CONTINUOUS
 62
     7
100
AcDbLine
 10
101.7291108389
 20
143.0750761395707
 30
0.0
 11
99.5180682926828
 21
143.0750761395707
 31
0.0
  0
LINE
  5
1DE
330
1F
100
AcDbEntity
  8
Z_OM_OUTLINE
  6
CONTINUOUS
 62
     7
100
AcDbLine
 10
101.7291108389
 20
150.4479577437842
 30
0.0
 11
99.5180682926828
 21
150.4479577437842
 31
0.0
  0
LINE
  5
1DF
330
1F
100
AcDbEntity
  8
Z_OM_OUTLINE
  6
CONTINUOUS
 62
     7
100
AcDbLine
 10
101.7291108389
 20
151.4310087464178
 30
0.0
 11
99.5180682926828
 21
151.4310087464178
 31
0.0
  0
LINE
  5
1E0
330
1F
100
AcDbEntity
  8
Z_OM_OUTLINE
  6
CONTINUOUS
 62
     7
100
AcDbLine
 10
101.7291108389
 20
188.6788044795335
 30
0.0
 11
98.4367123728933
 21
188.6788044795335
 31
0.0
  0
LINE
  5
1E1
330
1F
100
AcDbEntity
  8
Z_OM_OUTLINE
  6
CONTINUOUS
 62
     7
100
AcDbLine
 10
101.7291108389
 20
201.9499911840102
 30
0.0
 11
99.5180682926828
 21
201.9499911840102
 31
0.0
  0
LINE
  5
1E2
330
1F
100
AcDbEntity
  8
1
  6
CONTINUOUS
 62
     7
100
AcDbLine
 10
98.4367123728933
 20
211.5888041499399
 30
0.0
 11
101.7291108389
 21
211.5888041499399
 31
0.0
  0
LINE
  5
1E3
330
1F
100
AcDbEntity
  8
Z_OM_OUTLINE
  6
CONTINUOUS
 62
     7
100
AcDbLine
 10
124.2291117329
 20
150.4479577437842
 30
0.0
 11
126.355356453104
 21
150.4479577437842
 31
0.0
  0
LINE
  5
1E4
330
1F
100
AcDbEntity
  8
Z_OM_OUTLINE
  6
CONTINUOUS
 62
     7
100
AcDbLine
 10
124.2291117329
 20
157.8208393479978
 30
0.0
 11
126.355356453104
 21
157.8208393479978
 31
0.0
  0
LINE
  5
1E5
330
1F
100
AcDbEntity
  8
Z_OM_OUTLINE
  6
CONTINUOUS
 62
     7
100
AcDbLine
 10
124.2291117329
 20
163.7191435327237
 30
0.0
 11
127.4367123728933
 21
163.7191435327237
 31
0.0
  0
LINE
  5
1E6
330
1F
100
AcDbEntity
  8
Z_OM_OUTLINE
  6
CONTINUOUS
 62
     7
100
AcDbLine
 10
124.2291117329
 20
194.5771095797967
 30
0.0
 11
126.355356453104
 21
194.5771095797967
 31
0.0
  0
LINE
  5
1E7
330
1F
100
AcDbEntity
  8
Z_OM_OUTLINE
  6
CONTINUOUS
 62
     7
100
AcDbLine
 10
124.2291117329
 20
201.9499911840102
 30
0.0
 11
126.355356453104
 21
201.9499911840102
 31
0.0
  0
LINE
  5
1E8
330
1F
100
AcDbEntity
  8
Z_OM_OUTLINE
  6
CONTINUOUS
 62
     7
100
AcDbLine
 10
127.4367123728933
 20
211.5888041499398
 30
0.0
 11
124.2291117329
 21
211.5888041499398
 31
0.0
  0
LINE
  5
1E9
330
1F
100
AcDbEntity
  8
Z_OM_OUTLINE
  6
CONTINUOUS
 62
     7
100
AcDbLine
 10
100.0587462525773
 20
205.5921950480581
 30
0.0
 11
100.0587462525773
 21
204.8057520486615
 31
0.0
  0
LINE
  5
1EA
330
1F
100
AcDbEntity
  8
Z_OM_OUTLINE
  6
CONTINUOUS
 62
     7
100
AcDbLine
 10
127.4367123728933
 20
211.5888041499398
 30
0.0
 11
127.4367123728933
 21
140.8091429467798
 31
0.0
  0
LINE
  5
1EB
330
1F
100
AcDbEntity
  8
Z_OM_OUTLINE
  6
CONTINUOUS
 62
     7
100
AcDbLine
 10
127.4367123728933
 20
140.8091429467798
 30
0.0
 11
124.2291117329
 21
140.8091429467798
 31
0.0
  0
LINE
  5
1EC
330
1F
100
AcDbEntity
  8
Z_OM_OUTLINE
  6
CONTINUOUS
 62
     7
100
AcDbLine
 10
125.8146784932093
 20
146.8057538797364
 30
0.0
 11
125.8146784932093
 21
147.5921950480581
 31
0.0
  0
LINE
  5
1ED
330
1F
100
AcDbEntity
  8
Z_OM_OUTLINE
  6
CONTINUOUS
 62
     7
100
AcDbLine
 10
126.355356453104
 20
209.3228709571489
 30
0.0
 11
124.2291117329
 21
209.3228709571489
 31
0.0
  0
LINE
  5
1EE
330
1F
100
AcDbEntity
  8
Z_OM_OUTLINE
  6
CONTINUOUS
 62
     7
100
AcDbLine
 10
126.355356453104
 20
208.3398217855903
 30
0.0
 11
124.2291117329
 21
208.3398217855903
 31
0.0
  0
LINE
  5
1EF
330
1F
100
AcDbEntity
  8
Z_OM_OUTLINE
  6
CONTINUOUS
 62
     7
100
AcDbLine
 10
98.4367123728933
 20
211.5888041499399
 30
0.0
 11
98.4367123728933
 21
140.8091429467798
 31
0.0
  0
LINE
  5
1F0
330
1F
100
AcDbEntity
  8
Z_OM_OUTLINE
  6
CONTINUOUS
 62
     7
100
AcDbLine
 10
126.355356453104
 20
200.9669401813768
 30
0.0
 11
124.2291117329
 21
200.9669401813768
 31
0.0
  0
LINE
  5
1F1
330
1F
100
AcDbEntity
  8
Z_OM_OUTLINE
  6
CONTINUOUS
 62
     7
100
AcDbLine
 10
101.7291108389
 20
200.9669401813768
 30
0.0
 11
99.5180682926828
 21
200.9669401813768
 31
0.0
  0
LINE
  5
1F2
330
1F
100
AcDbEntity
  8
Z_OM_OUTLINE
  6
CONTINUOUS
 62
     7
100
AcDbLine
 10
126.355356453104
 20
151.4310087464178
 30
0.0
 11
124.2291117329
 21
151.4310087464178
 31
0.0
  0
LINE
  5
1F3
330
1F
100
AcDbEntity
  8
Z_OM_OUTLINE
  6
CONTINUOUS
 62
     7
100
AcDbLine
 10
127.4367123728933
 20
205.6904981341391
 30
0.0
 11
126.355356453104
 21
205.6904981341391
 31
0.0
  0
LINE
  5
1F4
330
1F
100
AcDbEntity
  8
Z_OM_OUTLINE
  6
CONTINUOUS
 62
     7
100
AcDbLine
 10
99.5180682926828
 20
194.5771095797967
 30
0.0
 11
99.5180682926828
 21
201.9499911840102
 31
0.0
  0
LINE
  5
1F5
330
1F
100
AcDbEntity
  8
Z_OM_OUTLINE
  6
CONTINUOUS
 62
     7
100
AcDbLine
 10
99.5180682926828
 20
201.9499911840102
 30
0.0
 11
98.4367123728933
 21
201.9499911840102
 31
0.0
  0
LINE
  5
1F6
330
1F
100
AcDbEntity
  8
Z_OM_OUTLINE
  6
CONTINUOUS
 62
     7
100
AcDbLine
 10
126.355356453104
 20
194.5771095797967
 30
0.0
 11
126.355356453104
 21
211.5888041499399
 31
0.0
  0
LINE
  5
1F7
330
1F
100
AcDbEntity
  8
Z_OM_OUTLINE
  6
CONTINUOUS
 62
     7
100
AcDbLine
 10
99.5180682926828
 20
194.5771095797967
 30
0.0
 11
101.7291108389
 21
194.5771095797967
 31
0.0
  0
LINE
  5
1F8
330
1F
100
AcDbEntity
  8
Z_OM_OUTLINE
  6
CONTINUOUS
 62
     7
100
AcDbLine
 10
99.5180682926828
 20
146.7074489625805
 30
0.0
 11
98.4367123728933
 21
146.7074489625805
 31
0.0
  0
LINE
  5
1F9
330
1F
100
AcDbEntity
  8
Z_OM_OUTLINE
  6
CONTINUOUS
 62
     7
100
AcDbLine
 10
126.355356453104
 20
157.8208393479978
 30
0.0
 11
126.355356453104
 21
150.4479577437842
 31
0.0
  0
LINE
  5
1FA
330
1F
100
AcDbEntity
  8
Z_OM_OUTLINE
  6
CONTINUOUS
 62
     7
100
AcDbLine
 10
127.4367123728933
 20
150.4479577437842
 30
0.0
 11
126.355356453104
 21
150.4479577437842
 31
0.0
  0
LINE
  5
1FB
330
1F
100
AcDbEntity
  8
Z_OM_OUTLINE
  6
CONTINUOUS
 62
     7
100
AcDbLine
 10
99.5180682926828
 20
140.8091429467798
 30
0.0
 11
99.5180682926828
 21
157.8208393479978
 31
0.0
  0
LINE
  5
1FC
330
1F
100
AcDbEntity
  8
Z_OM_OUTLINE
  6
CONTINUOUS
 62
     7
100
AcDbLine
 10
99.5180682926828
 20
157.8208393479978
 30
0.0
 11
101.7291108389
 21
157.8208393479978
 31
0.0
  0
LINE
  5
1FD
330
1F
100
AcDbEntity
  8
Z_OM_OUTLINE
  6
CONTINUOUS
 62
     7
100
AcDbLine
 10
124.4875593649929
 20
164.4564313269301
 30
0.0
 11
125.1756956161588
 21
164.4564313269301
 31
0.0
  0
LINE
  5
1FE
330
1F
100
AcDbEntity
  8
Z_OM_OUTLINE
  6
CONTINUOUS
 62
     7
100
AcDbLine
 10
124.4875593649929
 20
168.8801603810119
 30
0.0
 11
124.4875593649929
 21
164.4564313269301
 31
0.0
  0
LINE
  5
1FF
330
1F
100
AcDbEntity
  8
Z_OM_OUTLINE
  6
CONTINUOUS
 62
     7
100
AcDbLine
 10
125.1756956161588
 20
168.8801603810119
 30
0.0
 11
124.4875593649929
 21
168.8801603810119
 31
0.0
  0
LINE
  5
200
330
1F
100
AcDbEntity
  8
Z_OM_OUTLINE
  6
CONTINUOUS
 62
     7
100
AcDbLine
 10
125.1756956161588
 20
164.4564313269301
 30
0.0
 11
125.1756956161588
 21
168.8801603810119
 31
0.0
  0
LINE
  5
201
330
1F
100
AcDbEntity
  8
Z_OM_OUTLINE
  6
CONTINUOUS
 62
     7
100
AcDbLine
 10
100.6977291296279
 20
183.5177871734764
 30
0.0
 11
101.3858653807937
 21
183.5177871734764
 31
0.0
  0
LINE
  5
202
330
1F
100
AcDbEntity
  8
Z_OM_OUTLINE
  6
CONTINUOUS
 62
     7
100
AcDbLine
 10
100.6977291296279
 20
187.9415166853271
 30
0.0
 11
100.6977291296279
 21
183.5177871734764
 31
0.0
  0
LINE
  5
203
330
1F
100
AcDbEntity
  8
Z_OM_OUTLINE
  6
CONTINUOUS
 62
     7
100
AcDbLine
 10
101.3858653807937
 20
187.9415166853271
 30
0.0
 11
100.6977291296279
 21
187.9415166853271
 31
0.0
  0
LINE
  5
204
330
1F
100
AcDbEntity
  8
Z_OM_OUTLINE
  6
CONTINUOUS
 62
     7
100
AcDbLine
 10
101.3858653807937
 20
183.5177871734764
 30
0.0
 11
101.3858653807937
 21
187.9415166853271
 31
0.0
  0
LINE
  5
205
330
1F
100
AcDbEntity
  8
Z_OM_OUTLINE
  6
CONTINUOUS
 62
     7
100
AcDbLine
 10
126.4536613702599
 20
164.4564313269301
 30
0.0
 11
127.4367123728933
 21
164.4564313269301
 31
0.0
  0
LINE
  5
206
330
1F
100
AcDbEntity
  8
Z_OM_OUTLINE
  6
CONTINUOUS
 62
     7
100
AcDbLine
 10
126.4536613702599
 20
168.8801603810119
 30
0.0
 11
126.4536613702599
 21
164.4564313269301
 31
0.0
  0
LINE
  5
207
330
1F
100
AcDbEntity
  8
Z_OM_OUTLINE
  6
CONTINUOUS
 62
     7
100
AcDbLine
 10
127.4367123728933
 20
168.8801603810119
 30
0.0
 11
126.4536613702599
 21
168.8801603810119
 31
0.0
  0
LINE
  5
208
330
1F
100
AcDbEntity
  8
Z_OM_OUTLINE
  6
CONTINUOUS
 62
     7
100
AcDbLine
 10
127.4367123728933
 20
169.6174486329871
 30
0.0
 11
124.2291117329
 21
169.6174486329871
 31
0.0
  0
LINE
  5
209
330
1F
100
AcDbEntity
  8
Z_OM_OUTLINE
  6
CONTINUOUS
 62
     7
100
AcDbLine
 10
99.4197633755267
 20
187.9415166853271
 30
0.0
 11
98.4367123728933
 21
187.9415166853271
 31
0.0
  0
LINE
  5
20A
330
1F
100
AcDbEntity
  8
Z_OM_OUTLINE
  6
CONTINUOUS
 62
     7
100
AcDbLine
 10
99.4197633755267
 20
183.5177871734764
 30
0.0
 11
99.4197633755267
 21
187.9415166853271
 31
0.0
  0
LINE
  5
20B
330
1F
100
AcDbEntity
  8
Z_OM_OUTLINE
  6
CONTINUOUS
 62
     7
100
AcDbLine
 10
98.4367123728933
 20
183.5177871734764
 30
0.0
 11
99.4197633755267
 21
183.5177871734764
 31
0.0
  0
LINE
  5
20C
330
1F
100
AcDbEntity
  8
Z_OM_OUTLINE
  6
CONTINUOUS
 62
     7
100
AcDbLine
 10
98.4367123728933
 20
182.78049937927
 30
0.0
 11
101.7291108389
 21
182.78049937927
 31
0.0
  0
LINE
  5
20D
330
1F
100
AcDbEntity
  8
0
  6
CONTINUOUS
 62
     7
100
AcDbLine
 10
100.9473539109303
 20
198.2720246905929
 30
0.0
 11
101.4672209109303
 21
198.2720246905929
 31
0.0
  0
LINE
  5
20E
330
1F
100
AcDbEntity
  8
0
  6
CONTINUOUS
 62
     7
100
AcDbLine
 10
100.9473539109303
 20
197.2720246905929
 30
0.0
 11
101.4672209109303
 21
197.2720246905929
 31
0.0
  0
LINE
  5
20F
330
1F
100
AcDbEntity
  8
0
  6
CONTINUOUS
 62
     7
100
AcDbLine
 10
124.4062038802671
 20
205.6449060018345
 30
0.0
 11
124.9260708802671
 21
205.6449060018345
 31
0.0
  0
LINE
  5
210
330
1F
100
AcDbEntity
  8
0
  6
CONTINUOUS
 62
     7
100
AcDbLine
 10
124.4062038802671
 20
204.6449060018345
 30
0.0
 11
124.9260708802671
 21
204.6449060018345
 31
0.0
  0
LINE
  5
211
330
1F
100
AcDbEntity
  8
0
  6
CONTINUOUS
 62
     7
100
AcDbLine
 10
124.4062038802671
 20
198.2720246905929
 30
0.0
 11
124.9260708802671
 21
198.2720246905929
 31
0.0
  0
LINE
  5
212
330
1F
100
AcDbEntity
  8
0
  6
CONTINUOUS
 62
     7
100
AcDbLine
 10
124.4062038802671
 20
197.2720246905929
 30
0.0
 11
124.9260708802671
 21
197.2720246905929
 31
0.0
  0
LINE
  5
213
330
1F
100
AcDbEntity
  8
0
  6
CONTINUOUS
 62
     7
100
AcDbLine
 10
124.9260708802671
 20
155.1259232572071
 30
0.0
 11
124.4062038802671
 21
155.1259232572071
 31
0.0
  0
LINE
  5
214
330
1F
100
AcDbEntity
  8
0
  6
CONTINUOUS
 62
     7
100
AcDbLine
 10
124.9260708802671
 20
154.1259232572071
 30
0.0
 11
124.4062038802671
 21
154.1259232572071
 31
0.0
  0
LINE
  5
215
330
1F
100
AcDbEntity
  8
0
  6
CONTINUOUS
 62
     7
100
AcDbLine
 10
101.4672209109303
 20
155.1259232572071
 30
0.0
 11
100.9473539109303
 21
155.1259232572071
 31
0.0
  0
LINE
  5
216
330
1F
100
AcDbEntity
  8
0
  6
CONTINUOUS
 62
     7
100
AcDbLine
 10
101.4672209109303
 20
154.1259232572071
 30
0.0
 11
100.9473539109303
 21
154.1259232572071
 31
0.0
  0
LINE
  5
22F
330
1F
100
AcDbEntity
  8
1
  6
CONTINUOUS
 62
     7
100
AcDbLine
 10
105.4791108389
 20
201.9489739739
 30
0.0
 11
105.4791108389
 21
177.4489739739
 31
0.0
  0
LINE
  5
230
330
1F
100
AcDbEntity
  8
1
  6
CONTINUOUS
 62
     7
100
AcDbLine
 10
120.4791108389
 20
177.4489739739
 30
0.0
 11
120.4791108389
 21
201.9489739739
 31
0.0
  0
LINE
  5
231
330
1F
100
AcDbEntity
  8
1
  6
CONTINUOUS
 62
     7
100
AcDbLine
 10
105.9791108389
 20
176.9489739739
 30
0.0
 11
119.9791108389
 21
176.9489739739
 31
0.0
  0
LINE
  5
232
330
1F
100
AcDbEntity
  8
1
  6
CONTINUOUS
 62
     7
100
AcDbLine
 10
119.9791108389
 20
202.4489739739
 30
0.0
 11
105.9791108389
 21
202.4489739739
 31
0.0
  0
LINE
  5
233
330
1F
100
AcDbEntity
  8
1
  6
CONTINUOUS
 62
     7
100
AcDbLine
 10
102.9791108864
 20
210.2989754342
 30
0.0
 11
102.9791108864
 21
126.1989725136
 31
0.0
  0
LINE
  5
234
330
1F
100
AcDbEntity
  8
1
  6
CONTINUOUS
 62
     7
100
AcDbLine
 10
122.979111569
 20
126.1989725136
 30
0.0
 11
122.979111569
 21
210.2989754342
 31
0.0
  0
LINE
  5
235
330
1F
100
AcDbEntity
  8
1
  6
CONTINUOUS
 62
     7
100
AcDbLine
 10
103.6791108864
 20
125.4989725136
 30
0.0
 11
122.279111569
 21
125.4989725136
 31
0.0
  0
LINE
  5
236
330
1F
100
AcDbEntity
  8
1
  6
CONTINUOUS
 62
     7
100
AcDbLine
 10
122.279111569
 20
210.9989754342
 30
0.0
 11
103.6791108864
 21
210.9989754342
 31
0.0
  0
LINE
  5
237
330
1F
100
AcDbEntity
  8
1
  6
CONTINUOUS
 62
     7
100
AcDbLine
 10
122.1791115689999
 20
209.8989754342
 30
0.0
 11
122.1791115689999
 21
126.5989725136
 31
0.0
  0
LINE
  5
238
330
1F
100
AcDbEntity
  8
1
  6
CONTINUOUS
 62
     7
100
AcDbLine
 10
122.579111569
 20
209.8989754342
 30
0.0
 11
122.579111569
 21
126.5989725136
 31
0.0
  0
LINE
  5
239
330
1F
100
AcDbEntity
  8
1
  6
CONTINUOUS
 62
     7
100
AcDbLine
 10
121.8791115689999
 20
210.5989754342001
 30
0.0
 11
104.0791108864001
 21
210.5989754342001
 31
0.0
  0
LINE
  5
23A
330
1F
100
AcDbEntity
  8
1
  6
CONTINUOUS
 62
     7
100
AcDbLine
 10
104.0791108864
 20
210.1989754342
 30
0.0
 11
121.8791115689999
 21
210.1989754342
 31
0.0
  0
LINE
  5
23B
330
1F
100
AcDbEntity
  8
1
  6
CONTINUOUS
 62
     7
100
AcDbLine
 10
103.7791108864
 20
126.5989725136
 30
0.0
 11
103.7791108864
 21
209.8989754342
 31
0.0
  0
LINE
  5
23C
330
1F
100
AcDbEntity
  8
1
  6
CONTINUOUS
 62
     7
100
AcDbLine
 10
103.3791108864
 20
126.5989725136
 30
0.0
 11
103.3791108864
 21
209.8989754342
 31
0.0
  0
LINE
  5
23D
330
1F
100
AcDbEntity
  8
1
  6
CONTINUOUS
 62
     7
100
AcDbLine
 10
121.8791115689999
 20
125.8989725135999
 30
0.0
 11
104.0791108864001
 21
125.8989725135999
 31
0.0
  0
LINE
  5
23E
330
1F
100
AcDbEntity
  8
1
  6
CONTINUOUS
 62
     7
100
AcDbLine
 10
121.8791115689999
 20
126.2989725136
 30
0.0
 11
104.0791108864
 21
126.2989725136
 31
0.0
  0
LINE
  5
23F
330
1F
100
AcDbEntity
  8
0
  6
CONTINUOUS
 62
     7
100
AcDbLine
 10
116.5000675488
 20
171.1470952266
 30
0.0
 11
116.29654097
 21
170.6470634796
 31
0.0
  0
LINE
  5
240
330
1F
100
AcDbEntity
  8
0
  6
CONTINUOUS
 62
     7
100
AcDbLine
 10
116.29654097
 20
170.6470634796
 30
0.0
 11
116.7965727169
 21
170.4435375993
 31
0.0
  0
LINE
  5
241
330
1F
100
AcDbEntity
  8
0
  6
CONTINUOUS
 62
     7
100
AcDbLine
 10
116.8177677561
 20
170.3735687312
 30
0.0
 11
116.5147265662
 21
169.9267794153
 31
0.0
  0
LINE
  5
242
330
1F
100
AcDbEntity
  8
0
  6
CONTINUOUS
 62
     7
100
AcDbLine
 10
116.5147265662
 20
169.9267794153
 30
0.0
 11
116.9615164641
 21
169.6237384583
 31
0.0
  0
LINE
  5
243
330
1F
100
AcDbEntity
  8
0
  6
CONTINUOUS
 62
     7
100
AcDbLine
 10
116.967700446
 20
169.5508920363
 30
0.0
 11
116.5783889834
 21
169.1768718426
 31
0.0
  0
LINE
  5
244
330
1F
100
AcDbEntity
  8
0
  6
CONTINUOUS
 62
     7
100
AcDbLine
 10
116.5783889834
 20
169.1768718426
 30
0.0
 11
116.9524090607
 21
168.7875603217
 31
0.0
  0
LINE
  5
245
330
1F
100
AcDbEntity
  8
0
  6
CONTINUOUS
 62
     7
100
AcDbLine
 10
116.9433119018
 20
168.7150199847
 30
0.0
 11
116.4847454298
 21
168.4301154871
 31
0.0
  0
LINE
  5
246
330
1F
100
AcDbEntity
  8
0
  6
CONTINUOUS
 62
     7
100
AcDbLine
 10
116.4847454298
 20
168.4301154871
 30
0.0
 11
116.7696491126
 21
167.9715481711
 31
0.0
  0
LINE
  5
247
330
1F
100
AcDbEntity
  8
0
  6
CONTINUOUS
 62
     7
100
AcDbLine
 10
116.745669419
 20
167.9024843449
 30
0.0
 11
116.2378881369
 21
167.7191471805
 31
0.0
  0
LINE
  5
248
330
1F
100
AcDbEntity
  8
0
  6
CONTINUOUS
 62
     7
100
AcDbLine
 10
116.2378881369
 20
167.7191471805
 30
0.0
 11
116.421225505
 21
167.2113657239
 31
0.0
  0
LINE
  5
249
330
1F
100
AcDbEntity
  8
0
  6
CONTINUOUS
 62
     7
100
AcDbLine
 10
116.3834100831
 20
167.1487967957
 30
0.0
 11
115.8486074079
 21
167.0750396567
 31
0.0
  0
LINE
  5
24A
330
1F
100
AcDbEntity
  8
0
  6
CONTINUOUS
 62
     7
100
AcDbLine
 10
115.8486074079
 20
167.0750396567
 30
0.0
 11
115.9223644305
 21
166.5402365158
 31
0.0
  0
LINE
  5
24B
330
1F
100
AcDbEntity
  8
0
  6
CONTINUOUS
 62
     7
100
AcDbLine
 10
115.8723673094
 20
166.4868969944
 30
0.0
 11
115.3339157123
 21
166.5259435082
 31
0.0
  0
LINE
  5
24C
330
1F
100
AcDbEntity
  8
0
  6
CONTINUOUS
 62
     7
100
AcDbLine
 10
115.3339157123
 20
166.5259435082
 30
0.0
 11
115.2948690821
 21
165.9874920276
 31
0.0
  0
LINE
  5
24D
330
1F
100
AcDbEntity
  8
0
  6
CONTINUOUS
 62
     7
100
AcDbLine
 10
115.2348742131
 20
165.9457131297
 30
0.0
 11
114.7163072843
 21
166.0958567642
 31
0.0
  0
LINE
  5
24E
330
1F
100
AcDbEntity
  8
0
  6
CONTINUOUS
 62
     7
100
AcDbLine
 10
114.7163072843
 20
166.0958567642
 30
0.0
 11
114.5661641155
 21
165.5772900683
 31
0.0
  0
LINE
  5
24F
330
1F
100
AcDbEntity
  8
0
  6
CONTINUOUS
 62
     7
100
AcDbLine
 10
114.4987941031
 20
165.5488977682
 30
0.0
 11
114.0227755774
 21
165.803576541
 31
0.0
  0
LINE
  5
250
330
1F
100
AcDbEntity
  8
0
  6
CONTINUOUS
 62
     7
100
AcDbLine
 10
114.0227755774
 20
165.803576541
 30
0.0
 11
113.7680970375
 21
165.3275582482
 31
0.0
  0
LINE
  5
251
330
1F
100
AcDbEntity
  8
0
  6
CONTINUOUS
 62
     7
100
AcDbLine
 10
113.6962957923
 20
165.3137935334
 30
0.0
 11
113.2836304847
 21
165.6618765098
 31
0.0
  0
LINE
  5
252
330
1F
100
AcDbEntity
  8
0
  6
CONTINUOUS
 62
     7
100
AcDbLine
 10
113.2836304847
 20
165.6618765098
 30
0.0
 11
112.9355477411
 21
165.2492112022
 31
0.0
  0
LINE
  5
253
330
1F
100
AcDbEntity
  8
0
  6
CONTINUOUS
 62
     7
100
AcDbLine
 10
112.8624538202
 20
165.2506754742
 30
0.0
 11
112.5311767925
 21
165.6769499656
 31
0.0
  0
LINE
  5
254
330
1F
100
AcDbEntity
  8
0
  6
CONTINUOUS
 62
     7
100
AcDbLine
 10
112.5311767925
 20
165.6769499656
 30
0.0
 11
112.1049020682
 21
165.3456729379
 31
0.0
  0
LINE
  5
255
330
1F
100
AcDbEntity
  8
0
  6
CONTINUOUS
 62
     7
100
AcDbLine
 10
112.0337099079
 20
165.3623021681
 30
0.0
 11
111.7982995007
 21
165.8481379979
 31
0.0
  0
LINE
  5
256
330
1F
100
AcDbEntity
  8
0
  6
CONTINUOUS
 62
     7
100
AcDbLine
 10
111.7982995007
 20
165.8481379979
 30
0.0
 11
111.3124639038
 21
165.6127275907
 31
0.0
  0
LINE
  5
257
330
1F
100
AcDbEntity
  8
0
  6
CONTINUOUS
 62
     7
100
AcDbLine
 10
111.246285053
 20
165.6437951148
 30
0.0
 11
111.1170295868
 21
166.1679590595
 31
0.0
  0
LINE
  5
258
330
1F
100
AcDbEntity
  8
0
  6
CONTINUOUS
 62
     7
100
AcDbLine
 10
111.1170295868
 20
166.1679590595
 30
0.0
 11
110.5928654093
 21
166.0387038261
 31
0.0
  0
LINE
  5
259
330
1F
100
AcDbEntity
  8
0
  6
CONTINUOUS
 62
     7
100
AcDbLine
 10
110.5345925559
 20
166.0828517758
 30
0.0
 11
110.5171414334
 21
166.6224350462
 31
0.0
  0
LINE
  5
25A
330
1F
100
AcDbEntity
  8
0
  6
CONTINUOUS
 62
     7
100
AcDbLine
 10
110.5171414334
 20
166.6224350462
 30
0.0
 11
109.9775582794
 21
166.6049841567
 31
0.0
  0
LINE
  5
25B
330
1F
100
AcDbEntity
  8
0
  6
CONTINUOUS
 62
     7
100
AcDbLine
 10
109.9297367279
 20
166.6602831808
 30
0.0
 11
110.0248536337
 21
167.1917034088
 31
0.0
  0
LINE
  5
25C
330
1F
100
AcDbEntity
  8
0
  6
CONTINUOUS
 62
     7
100
AcDbLine
 10
110.0248536337
 20
167.1917034088
 30
0.0
 11
109.4934330564
 21
167.2868194998
 31
0.0
  0
LINE
  5
25D
330
1F
100
AcDbEntity
  8
0
  6
CONTINUOUS
 62
     7
100
AcDbLine
 10
109.4581540916
 20
167.3508526416
 30
0.0
 11
109.6616806705
 21
167.8508843594
 31
0.0
  0
LINE
  5
25E
330
1F
100
AcDbEntity
  8
0
  6
CONTINUOUS
 62
     7
100
AcDbLine
 10
109.6616806705
 20
167.8508843594
 30
0.0
 11
109.1616484579
 21
168.054410429
 31
0.0
  0
LINE
  5
25F
330
1F
100
AcDbEntity
  8
0
  6
CONTINUOUS
 62
     7
100
AcDbLine
 10
109.1404538844
 20
168.1243792097
 30
0.0
 11
109.4434950743
 21
168.5711685693
 31
0.0
  0
LINE
  5
260
330
1F
100
AcDbEntity
  8
0
  6
CONTINUOUS
 62
     7
100
AcDbLine
 10
109.4434950743
 20
168.5711685693
 30
0.0
 11
108.996705642
 21
168.8742095263
 31
0.0
  0
LINE
  5
261
330
1F
100
AcDbEntity
  8
0
  6
CONTINUOUS
 62
     7
100
AcDbLine
 10
108.9905211944
 20
168.9470559483
 30
0.0
 11
109.3798331227
 21
169.3210760838
 31
0.0
  0
LINE
  5
262
330
1F
100
AcDbEntity
  8
0
  6
CONTINUOUS
 62
     7
100
AcDbLine
 10
109.3798331227
 20
169.3210760838
 30
0.0
 11
109.0058125798
 21
169.7103876629
 31
0.0
  0
LINE
  5
263
330
1F
100
AcDbEntity
  8
0
  6
CONTINUOUS
 62
     7
100
AcDbLine
 10
109.014909273
 20
169.7829279125
 30
0.0
 11
109.4734766763
 21
170.0678324102
 31
0.0
  0
LINE
  5
264
330
1F
100
AcDbEntity
  8
0
  6
CONTINUOUS
 62
     7
100
AcDbLine
 10
109.4734766763
 20
170.0678324102
 30
0.0
 11
109.1885720622
 21
170.526399697
 31
0.0
  0
LINE
  5
265
330
1F
100
AcDbEntity
  8
0
  6
CONTINUOUS
 62
     7
100
AcDbLine
 10
109.2125517558
 20
170.5954635524
 30
0.0
 11
109.7203335036
 21
170.7788006876
 31
0.0
  0
LINE
  5
266
330
1F
100
AcDbEntity
  8
0
  6
CONTINUOUS
 62
     7
100
AcDbLine
 10
109.7203335036
 20
170.7788006876
 30
0.0
 11
109.5369961355
 21
171.2865822025
 31
0.0
  0
LINE
  5
267
330
1F
100
AcDbEntity
  8
0
  6
CONTINUOUS
 62
     7
100
AcDbLine
 10
109.5748115573
 20
171.3491512471
 30
0.0
 11
110.1096142326
 21
171.4229082697
 31
0.0
  0
LINE
  5
268
330
1F
100
AcDbEntity
  8
0
  6
CONTINUOUS
 62
     7
100
AcDbLine
 10
110.1096142326
 20
171.4229082697
 30
0.0
 11
110.03585721
 21
171.9577114106
 31
0.0
  0
LINE
  5
269
330
1F
100
AcDbEntity
  8
0
  6
CONTINUOUS
 62
     7
100
AcDbLine
 10
110.085854331
 20
172.0110510484
 30
0.0
 11
110.6243059281
 21
171.9720044181
 31
0.0
  0
LINE
  5
26A
330
1F
100
AcDbEntity
  8
0
  6
CONTINUOUS
 62
     7
100
AcDbLine
 10
110.6243059281
 20
171.9720044181
 30
0.0
 11
110.6633525584
 21
172.5104560152
 31
0.0
  0
LINE
  5
26B
330
1F
100
AcDbEntity
  8
0
  6
CONTINUOUS
 62
     7
100
AcDbLine
 10
110.7233474273
 20
172.5522346803
 30
0.0
 11
111.2419143561
 21
172.4020910457
 31
0.0
  0
LINE
  5
26C
330
1F
100
AcDbEntity
  8
0
  6
CONTINUOUS
 62
     7
100
AcDbLine
 10
111.2419143561
 20
172.4020910457
 30
0.0
 11
111.392057525
 21
172.9206579745
 31
0.0
  0
LINE
  5
26D
330
1F
100
AcDbEntity
  8
0
  6
CONTINUOUS
 62
     7
100
AcDbLine
 10
111.4594275374
 20
172.9490502745
 30
0.0
 11
111.9354460631
 21
172.694371269
 31
0.0
  0
LINE
  5
26E
330
1F
100
AcDbEntity
  8
0
  6
CONTINUOUS
 62
     7
100
AcDbLine
 10
111.9354460631
 20
172.694371269
 30
0.0
 11
112.190124603
 21
173.1703897946
 31
0.0
  0
LINE
  5
26F
330
1F
100
AcDbEntity
  8
0
  6
CONTINUOUS
 62
     7
100
AcDbLine
 10
112.2619258482
 20
173.1841542766
 30
0.0
 11
112.6745911557
 21
172.836071533
 31
0.0
  0
LINE
  5
270
330
1F
100
AcDbEntity
  8
0
  6
CONTINUOUS
 62
     7
100
AcDbLine
 10
112.6745911557
 20
172.836071533
 30
0.0
 11
113.0226738993
 21
173.2487368405
 31
0.0
  0
LINE
  5
271
330
1F
100
AcDbEntity
  8
0
  6
CONTINUOUS
 62
     7
100
AcDbLine
 10
113.0957678203
 20
173.2472723358
 30
0.0
 11
113.427044848
 21
172.8209980772
 31
0.0
  0
LINE
  5
272
330
1F
100
AcDbEntity
  8
0
  6
CONTINUOUS
 62
     7
100
AcDbLine
 10
113.427044848
 20
172.8209980772
 30
0.0
 11
113.8533195723
 21
173.1522751049
 31
0.0
  0
LINE
  5
273
330
1F
100
AcDbEntity
  8
0
  6
CONTINUOUS
 62
     7
100
AcDbLine
 10
113.9245117325
 20
173.1356458746
 30
0.0
 11
114.1599221397
 21
172.6498098121
 31
0.0
  0
LINE
  5
274
330
1F
100
AcDbEntity
  8
0
  6
CONTINUOUS
 62
     7
100
AcDbLine
 10
114.1599221397
 20
172.6498098121
 30
0.0
 11
114.6457577367
 21
172.8852202193
 31
0.0
  0
LINE
  5
275
330
1F
100
AcDbEntity
  8
0
  6
CONTINUOUS
 62
     7
100
AcDbLine
 10
114.7119365875
 20
172.8541526951
 30
0.0
 11
114.8411920536
 21
172.3299889833
 31
0.0
  0
LINE
  5
276
330
1F
100
AcDbEntity
  8
0
  6
CONTINUOUS
 62
     7
100
AcDbLine
 10
114.8411920536
 20
172.3299889833
 30
0.0
 11
115.3653562311
 21
172.4592439838
 31
0.0
  0
LINE
  5
277
330
1F
100
AcDbEntity
  8
0
  6
CONTINUOUS
 62
     7
100
AcDbLine
 10
115.4236290846
 20
172.4150960342
 30
0.0
 11
115.441080207
 21
171.8755128801
 31
0.0
  0
LINE
  5
278
330
1F
100
AcDbEntity
  8
0
  6
CONTINUOUS
 62
     7
100
AcDbLine
 10
115.441080207
 20
171.8755128801
 30
0.0
 11
115.980663361
 21
171.8929637697
 31
0.0
  0
LINE
  5
279
330
1F
100
AcDbEntity
  8
0
  6
CONTINUOUS
 62
     7
100
AcDbLine
 10
116.0284849126
 20
171.837664862
 30
0.0
 11
115.9333680067
 21
171.3062445175
 31
0.0
  0
LINE
  5
27A
330
1F
100
AcDbEntity
  8
0
  6
CONTINUOUS
 62
     7
100
AcDbLine
 10
115.9333680067
 20
171.3062445175
 30
0.0
 11
116.4647890497
 21
171.211128543
 31
0.0
  0
LINE
  5
27B
330
1F
100
AcDbEntity
  8
0
  6
CONTINUOUS
 62
     7
100
AcDbLine
 10
102.2203846611
 20
129.4613445186
 30
0.0
 11
102.7291108864
 21
129.4524634265
 31
0.0
  0
LINE
  5
27C
330
1F
100
AcDbEntity
  8
0
  6
CONTINUOUS
 62
     7
100
AcDbLine
 10
102.7291108864
 20
207.5454818093
 30
0.0
 11
102.7291108864
 21
129.4524634265
 31
0.0
  0
LINE
  5
27D
330
1F
100
AcDbEntity
  8
0
  6
CONTINUOUS
 62
     7
100
AcDbLine
 10
102.2203846611
 20
207.5366044425
 30
0.0
 11
102.7291108864
 21
207.5454818093
 31
0.0
  0
LINE
  5
27E
330
1F
100
AcDbEntity
  8
0
  6
CONTINUOUS
 62
     7
100
AcDbLine
 10
101.7291108389
 20
129.4699201368
 30
0.0
 11
101.7291108389
 21
207.5280288242
 31
0.0
  0
LINE
  5
27F
330
1F
100
AcDbEntity
  8
0
  6
CONTINUOUS
 62
     7
100
AcDbLine
 10
101.7291108389
 20
129.2489731692
 30
0.0
 11
101.7291108389
 21
129.4699201368
 31
0.0
  0
LINE
  5
280
330
1F
100
AcDbEntity
  8
0
  6
CONTINUOUS
 62
     7
100
AcDbLine
 10
101.7291108389
 20
207.5280288242
 30
0.0
 11
101.7291108389
 21
207.7489757918
 31
0.0
  0
LINE
  5
281
330
1F
100
AcDbEntity
  8
0
  6
CONTINUOUS
 62
     7
100
AcDbLine
 10
103.2290347163
 20
125.2489725136
 30
0.0
 11
122.7291869242
 21
125.2489725136
 31
0.0
  0
LINE
  5
282
330
1F
100
AcDbEntity
  8
0
  6
CONTINUOUS
 62
     7
100
AcDbLine
 10
122.7291869242
 20
211.2489754342
 30
0.0
 11
103.2290347163
 21
211.2489754342
 31
0.0
  0
LINE
  5
283
330
1F
100
AcDbEntity
  8
0
  6
CONTINUOUS
 62
     7
100
AcDbLine
 10
102.7291108864
 20
124.4489738726
 30
0.0
 11
123.229111569
 21
124.4489738726
 31
0.0
  0
LINE
  5
284
330
1F
100
AcDbEntity
  8
0
  6
CONTINUOUS
 62
     7
100
AcDbLine
 10
102.142286744
 20
124.4918333375
 30
0.0
 11
102.7291108864
 21
124.4489738726
 31
0.0
  0
LINE
  5
285
330
1F
100
AcDbEntity
  8
0
  6
CONTINUOUS
 62
     7
100
AcDbLine
 10
102.7291108864
 20
129.2664298796
 30
0.0
 11
102.142286744
 21
129.2561853313
 31
0.0
  0
LINE
  5
286
330
1F
100
AcDbEntity
  8
0
  6
CONTINUOUS
 62
     7
100
AcDbLine
 10
123.229111569
 20
212.0489740752
 30
0.0
 11
102.7291108864
 21
212.0489740752
 31
0.0
  0
LINE
  5
287
330
1F
100
AcDbEntity
  8
0
  6
CONTINUOUS
 62
     7
100
AcDbLine
 10
102.142286744
 20
207.7417636298
 30
0.0
 11
102.7291108864
 21
207.7315190815
 31
0.0
  0
LINE
  5
288
330
1F
100
AcDbEntity
  8
0
  6
CONTINUOUS
 62
     7
100
AcDbLine
 10
102.142286744
 20
212.0061146103
 30
0.0
 11
102.7291108864
 21
212.0489740752
 31
0.0
  0
LINE
  5
289
330
1F
100
AcDbEntity
  8
0
  6
CONTINUOUS
 62
     7
100
AcDbLine
 10
123.815934198
 20
212.0061146103
 30
0.0
 11
123.229111569
 21
212.0489740752
 31
0.0
  0
LINE
  5
28A
330
1F
100
AcDbEntity
  8
0
  6
CONTINUOUS
 62
     7
100
AcDbLine
 10
123.815934198
 20
124.4918333375
 30
0.0
 11
123.229111569
 21
124.4489738726
 31
0.0
  0
LINE
  5
28B
330
1F
100
AcDbEntity
  8
0
  6
CONTINUOUS
 62
     7
100
AcDbLine
 10
123.815934198
 20
123.8524468624
 30
0.0
 11
123.229111569
 21
123.748973199
 31
0.0
  0
LINE
  5
28C
330
1F
100
AcDbEntity
  8
0
  6
CONTINUOUS
 62
     7
100
AcDbLine
 10
123.229111569
 20
123.748973199
 30
0.0
 11
102.7291108864
 21
123.748973199
 31
0.0
  0
LINE
  5
28D
330
1F
100
AcDbEntity
  8
0
  6
CONTINUOUS
 62
     7
100
AcDbLine
 10
123.815934198
 20
212.6455010854
 30
0.0
 11
123.229111569
 21
212.7489747488
 31
0.0
  0
LINE
  5
28E
330
1F
100
AcDbEntity
  8
0
  6
CONTINUOUS
 62
     7
100
AcDbLine
 10
102.7291108864
 20
212.7489747488
 30
0.0
 11
123.229111569
 21
212.7489747488
 31
0.0
  0
LINE
  5
28F
330
1F
100
AcDbEntity
  8
0
  6
CONTINUOUS
 62
     7
100
AcDbLine
 10
102.142286744
 20
123.8524468624
 30
0.0
 11
102.7291108864
 21
123.748973199
 31
0.0
  0
LINE
  5
290
330
1F
100
AcDbEntity
  8
0
  6
CONTINUOUS
 62
     7
100
AcDbLine
 10
102.142286744
 20
212.6455010854
 30
0.0
 11
102.7291108864
 21
212.7489747488
 31
0.0
  0
LINE
  5
291
330
1F
100
AcDbEntity
  8
0
  6
CONTINUOUS
 62
     7
100
AcDbLine
 10
124.2291117329
 20
124.6957929813
 30
0.0
 11
124.2291117329
 21
123.9253023647
 31
0.0
  0
LINE
  5
292
330
1F
100
AcDbEntity
  8
0
  6
CONTINUOUS
 62
     7
100
AcDbLine
 10
124.2291117329
 20
211.8021549665
 30
0.0
 11
124.2291117329
 21
124.6957929813
 31
0.0
  0
LINE
  5
293
330
1F
100
AcDbEntity
  8
0
  6
CONTINUOUS
 62
     7
100
AcDbLine
 10
124.2291117329
 20
212.5726455831
 30
0.0
 11
124.2291117329
 21
211.8021549665
 31
0.0
  0
LINE
  5
294
330
1F
100
AcDbEntity
  8
0
  6
CONTINUOUS
 62
     7
100
AcDbLine
 10
101.7291108389
 20
124.6957929813
 30
0.0
 11
101.7291108389
 21
129.2489731692
 31
0.0
  0
LINE
  5
295
330
1F
100
AcDbEntity
  8
0
  6
CONTINUOUS
 62
     7
100
AcDbLine
 10
101.7291108389
 20
123.9253023647
 30
0.0
 11
101.7291108389
 21
124.6957929813
 31
0.0
  0
LINE
  5
296
330
1F
100
AcDbEntity
  8
0
  6
CONTINUOUS
 62
     7
100
AcDbLine
 10
101.7291108389
 20
207.7489757918
 30
0.0
 11
101.7291108389
 21
211.8021549665
 31
0.0
  0
LINE
  5
297
330
1F
100
AcDbEntity
  8
0
  6
CONTINUOUS
 62
     7
100
AcDbLine
 10
101.7291108389
 20
211.8021549665
 30
0.0
 11
101.7291108389
 21
212.5726455831
 31
0.0
  0
LINE
  5
298
330
1F
100
AcDbEntity
  8
0
  6
CONTINUOUS
 62
     7
100
AcDbLine
 10
162.4471829462
 20
165.2999072809
 30
0.0
 11
162.8962496951
 21
165.7489740298
 31
0.0
  0
LINE
  5
299
330
1F
100
AcDbEntity
  8
0
  6
CONTINUOUS
 62
     7
100
AcDbLine
 10
162.8962496951
 20
172.7489737802
 30
0.0
 11
162.4471829462
 21
173.1980407619
 31
0.0
  0
LINE
  5
29A
330
1F
100
AcDbEntity
  8
0
  6
CONTINUOUS
 62
     7
100
AcDbLine
 10
154.0962497427
 20
172.4989742049
 30
0.0
 11
153.796249321
 21
172.4989742049
 31
0.0
  0
LINE
  5
29B
330
1F
100
AcDbEntity
  8
0
  6
CONTINUOUS
 62
     7
100
AcDbLine
 10
153.796249321
 20
165.9989740708
 30
0.0
 11
154.0962497427
 21
165.9989740708
 31
0.0
  0
LINE
  5
29C
330
1F
100
AcDbEntity
  8
0
  6
CONTINUOUS
 62
     7
100
AcDbLine
 10
218.5962500706
 20
209.7489723944
 30
0.0
 11
218.5962500706
 21
209.0489754461
 31
0.0
  0
LINE
  5
29D
330
1F
100
AcDbEntity
  8
0
  6
CONTINUOUS
 62
     7
100
AcDbLine
 10
162.8962496951
 20
158.8634183973999
 30
0.0
 11
162.0462496838
 21
158.8337352842999
 31
0.0
  0
LINE
  5
29E
330
1F
100
AcDbEntity
  8
0
  6
CONTINUOUS
 62
     7
100
AcDbLine
 10
162.0462496838
 20
155.6642126634999
 30
0.0
 11
162.8962496951
 21
155.6345295503999
 31
0.0
  0
LINE
  5
29F
330
1F
100
AcDbEntity
  8
0
  6
CONTINUOUS
 62
     7
100
AcDbLine
 10
162.8962496951
 20
136.863417466
 30
0.0
 11
162.0462496838
 21
136.8337343529
 31
0.0
  0
LINE
  5
2A0
330
1F
100
AcDbEntity
  8
0
  6
CONTINUOUS
 62
     7
100
AcDbLine
 10
162.0462496838
 20
133.6642126635
 30
0.0
 11
162.8962496951
 21
133.6345295504
 31
0.0
  0
LINE
  5
2A1
330
1F
100
AcDbEntity
  8
0
  6
CONTINUOUS
 62
     7
100
AcDbLine
 10
162.8962496951
 20
146.863417466
 30
0.0
 11
162.0462496838
 21
146.8337343529
 31
0.0
  0
LINE
  5
2A2
330
1F
100
AcDbEntity
  8
0
  6
CONTINUOUS
 62
     7
100
AcDbLine
 10
162.0462496838
 20
143.6642108009
 30
0.0
 11
162.8962496951
 21
143.6345295504
 31
0.0
  0
LINE
  5
2A3
330
1F
100
AcDbEntity
  8
0
  6
CONTINUOUS
 62
     7
100
AcDbLine
 10
162.7962496976
 20
171.3062445175
 30
0.0
 11
162.3962496713
 21
171.837664862
 31
0.0
  0
LINE
  5
2A4
330
1F
100
AcDbEntity
  8
0
  6
CONTINUOUS
 62
     7
100
AcDbLine
 10
162.3962496713
 20
171.837664862
 30
0.0
 11
162.3962496713
 21
171.8929637697
 31
0.0
  0
LINE
  5
2A5
330
1F
100
AcDbEntity
  8
0
  6
CONTINUOUS
 62
     7
100
AcDbLine
 10
162.3962496713
 20
171.8929637697
 30
0.0
 11
162.7962496976
 21
171.8755128801
 31
0.0
  0
LINE
  5
2A6
330
1F
100
AcDbEntity
  8
0
  6
CONTINUOUS
 62
     7
100
AcDbLine
 10
162.7962496976
 20
171.8755128801
 30
0.0
 11
162.3962496713
 21
172.4150960342
 31
0.0
  0
LINE
  5
2A7
330
1F
100
AcDbEntity
  8
0
  6
CONTINUOUS
 62
     7
100
AcDbLine
 10
162.3962496713
 20
172.4150960342
 30
0.0
 11
162.3962496713
 21
172.4592439838
 31
0.0
  0
LINE
  5
2A8
330
1F
100
AcDbEntity
  8
0
  6
CONTINUOUS
 62
     7
100
AcDbLine
 10
162.3962496713
 20
172.4592439838
 30
0.0
 11
162.7962496976
 21
172.3299889833
 31
0.0
  0
LINE
  5
2A9
330
1F
100
AcDbEntity
  8
0
  6
CONTINUOUS
 62
     7
100
AcDbLine
 10
162.7962496976
 20
172.3299889833
 30
0.0
 11
162.3962496713
 21
172.8541526951
 31
0.0
  0
LINE
  5
2AA
330
1F
100
AcDbEntity
  8
0
  6
CONTINUOUS
 62
     7
100
AcDbLine
 10
162.3962496713
 20
172.8541526951
 30
0.0
 11
162.3962496713
 21
172.8852202193
 31
0.0
  0
LINE
  5
2AB
330
1F
100
AcDbEntity
  8
0
  6
CONTINUOUS
 62
     7
100
AcDbLine
 10
162.3962496713
 20
172.8852202193
 30
0.0
 11
162.7962496976
 21
172.6498098121
 31
0.0
  0
LINE
  5
2AC
330
1F
100
AcDbEntity
  8
0
  6
CONTINUOUS
 62
     7
100
AcDbLine
 10
162.7962496976
 20
172.6498098121
 30
0.0
 11
162.3962496713
 21
173.1356458746
 31
0.0
  0
LINE
  5
2AD
330
1F
100
AcDbEntity
  8
0
  6
CONTINUOUS
 62
     7
100
AcDbLine
 10
162.3962496713
 20
173.1356458746
 30
0.0
 11
162.3962496713
 21
173.1522751049
 31
0.0
  0
LINE
  5
2AE
330
1F
100
AcDbEntity
  8
0
  6
CONTINUOUS
 62
     7
100
AcDbLine
 10
162.3962496713
 20
173.1522751049
 30
0.0
 11
162.7962496976
 21
172.8209980772
 31
0.0
  0
LINE
  5
2AF
330
1F
100
AcDbEntity
  8
0
  6
CONTINUOUS
 62
     7
100
AcDbLine
 10
162.7962496976
 20
172.8209980772
 30
0.0
 11
162.3962496713
 21
173.2472723358
 31
0.0
  0
LINE
  5
2B0
330
1F
100
AcDbEntity
  8
0
  6
CONTINUOUS
 62
     7
100
AcDbLine
 10
162.3962496713
 20
173.2472723358
 30
0.0
 11
162.3962496713
 21
173.2487368405
 31
0.0
  0
LINE
  5
2B1
330
1F
100
AcDbEntity
  8
0
  6
CONTINUOUS
 62
     7
100
AcDbLine
 10
162.3962496713
 20
173.2487368405
 30
0.0
 11
162.4462723747
 21
173.197130394
 31
0.0
  0
LINE
  5
2B2
330
1F
100
AcDbEntity
  8
0
  6
CONTINUOUS
 62
     7
100
AcDbLine
 10
162.3962496713
 20
165.2492112022
 30
0.0
 11
162.7962496976
 21
165.6618765098
 31
0.0
  0
LINE
  5
2B3
330
1F
100
AcDbEntity
  8
0
  6
CONTINUOUS
 62
     7
100
AcDbLine
 10
162.7962496976
 20
165.6618765098
 30
0.0
 11
162.3962496713
 21
165.3137935334
 31
0.0
  0
LINE
  5
2B4
330
1F
100
AcDbEntity
  8
0
  6
CONTINUOUS
 62
     7
100
AcDbLine
 10
162.3962496713
 20
165.3137935334
 30
0.0
 11
162.3962496713
 21
165.3275582482
 31
0.0
  0
LINE
  5
2B5
330
1F
100
AcDbEntity
  8
0
  6
CONTINUOUS
 62
     7
100
AcDbLine
 10
162.3962496713
 20
165.3275582482
 30
0.0
 11
162.7962496976
 21
165.803576541
 31
0.0
  0
LINE
  5
2B6
330
1F
100
AcDbEntity
  8
0
  6
CONTINUOUS
 62
     7
100
AcDbLine
 10
162.7962496976
 20
165.803576541
 30
0.0
 11
162.3962496713
 21
165.5488977682
 31
0.0
  0
LINE
  5
2B7
330
1F
100
AcDbEntity
  8
0
  6
CONTINUOUS
 62
     7
100
AcDbLine
 10
162.3962496713
 20
165.5488977682
 30
0.0
 11
162.3962496713
 21
165.5772900683
 31
0.0
  0
LINE
  5
2B8
330
1F
100
AcDbEntity
  8
0
  6
CONTINUOUS
 62
     7
100
AcDbLine
 10
162.3962496713
 20
165.5772900683
 30
0.0
 11
162.7962496976
 21
166.0958567642
 31
0.0
  0
LINE
  5
2B9
330
1F
100
AcDbEntity
  8
0
  6
CONTINUOUS
 62
     7
100
AcDbLine
 10
162.7962496976
 20
166.0958567642
 30
0.0
 11
162.3962496713
 21
165.9457131297
 31
0.0
  0
LINE
  5
2BA
330
1F
100
AcDbEntity
  8
0
  6
CONTINUOUS
 62
     7
100
AcDbLine
 10
162.3962496713
 20
165.9457131297
 30
0.0
 11
162.3962496713
 21
165.9874920276
 31
0.0
  0
LINE
  5
2BB
330
1F
100
AcDbEntity
  8
0
  6
CONTINUOUS
 62
     7
100
AcDbLine
 10
162.3962496713
 20
165.9874920276
 30
0.0
 11
162.7962496976
 21
166.5259435082
 31
0.0
  0
LINE
  5
2BC
330
1F
100
AcDbEntity
  8
0
  6
CONTINUOUS
 62
     7
100
AcDbLine
 10
162.7962496976
 20
166.5259435082
 30
0.0
 11
162.3962496713
 21
166.4868969944
 31
0.0
  0
LINE
  5
2BD
330
1F
100
AcDbEntity
  8
0
  6
CONTINUOUS
 62
     7
100
AcDbLine
 10
162.3962496713
 20
166.4868969944
 30
0.0
 11
162.3962496713
 21
166.5402365158
 31
0.0
  0
LINE
  5
2BE
330
1F
100
AcDbEntity
  8
0
  6
CONTINUOUS
 62
     7
100
AcDbLine
 10
162.3962496713
 20
166.5402365158
 30
0.0
 11
162.7962496976
 21
167.0750396567
 31
0.0
  0
LINE
  5
2BF
330
1F
100
AcDbEntity
  8
0
  6
CONTINUOUS
 62
     7
100
AcDbLine
 10
162.7962496976
 20
167.0750396567
 30
0.0
 11
162.3962496713
 21
167.1487967957
 31
0.0
  0
LINE
  5
2C0
330
1F
100
AcDbEntity
  8
0
  6
CONTINUOUS
 62
     7
100
AcDbLine
 10
162.3962496713
 20
167.1487967957
 30
0.0
 11
162.3962496713
 21
167.2113657239
 31
0.0
  0
LINE
  5
2C1
330
1F
100
AcDbEntity
  8
0
  6
CONTINUOUS
 62
     7
100
AcDbLine
 10
162.3962496713
 20
167.2113657239
 30
0.0
 11
162.7962496976
 21
167.7191471805
 31
0.0
  0
LINE
  5
2C2
330
1F
100
AcDbEntity
  8
0
  6
CONTINUOUS
 62
     7
100
AcDbLine
 10
162.7962496976
 20
167.7191471805
 30
0.0
 11
162.3962496713
 21
167.9024843449
 31
0.0
  0
LINE
  5
2C3
330
1F
100
AcDbEntity
  8
0
  6
CONTINUOUS
 62
     7
100
AcDbLine
 10
162.3962496713
 20
167.9024843449
 30
0.0
 11
162.3962496713
 21
167.9715481711
 31
0.0
  0
LINE
  5
2C4
330
1F
100
AcDbEntity
  8
0
  6
CONTINUOUS
 62
     7
100
AcDbLine
 10
162.3962496713
 20
167.9715481711
 30
0.0
 11
162.7962496976
 21
168.4301154871
 31
0.0
  0
LINE
  5
2C5
330
1F
100
AcDbEntity
  8
0
  6
CONTINUOUS
 62
     7
100
AcDbLine
 10
162.7962496976
 20
168.4301154871
 30
0.0
 11
162.3962496713
 21
168.7150199847
 31
0.0
  0
LINE
  5
2C6
330
1F
100
AcDbEntity
  8
0
  6
CONTINUOUS
 62
     7
100
AcDbLine
 10
162.3962496713
 20
168.7150199847
 30
0.0
 11
162.3962496713
 21
168.7875603217
 31
0.0
  0
LINE
  5
2C7
330
1F
100
AcDbEntity
  8
0
  6
CONTINUOUS
 62
     7
100
AcDbLine
 10
162.3962496713
 20
168.7875603217
 30
0.0
 11
162.7962496976
 21
169.1768718426
 31
0.0
  0
LINE
  5
2C8
330
1F
100
AcDbEntity
  8
0
  6
CONTINUOUS
 62
     7
100
AcDbLine
 10
162.7962496976
 20
169.1768718426
 30
0.0
 11
162.3962496713
 21
169.5508920363
 31
0.0
  0
LINE
  5
2C9
330
1F
100
AcDbEntity
  8
0
  6
CONTINUOUS
 62
     7
100
AcDbLine
 10
162.3962496713
 20
169.5508920363
 30
0.0
 11
162.3962496713
 21
169.6237384583
 31
0.0
  0
LINE
  5
2CA
330
1F
100
AcDbEntity
  8
0
  6
CONTINUOUS
 62
     7
100
AcDbLine
 10
162.3962496713
 20
169.6237384583
 30
0.0
 11
162.7962496976
 21
169.9267794153
 31
0.0
  0
LINE
  5
2CB
330
1F
100
AcDbEntity
  8
0
  6
CONTINUOUS
 62
     7
100
AcDbLine
 10
162.7962496976
 20
169.9267794153
 30
0.0
 11
162.3962496713
 21
170.3735687312
 31
0.0
  0
LINE
  5
2CC
330
1F
100
AcDbEntity
  8
0
  6
CONTINUOUS
 62
     7
100
AcDbLine
 10
162.3962496713
 20
170.3735687312
 30
0.0
 11
162.3962496713
 21
170.4435375993
 31
0.0
  0
LINE
  5
2CD
330
1F
100
AcDbEntity
  8
0
  6
CONTINUOUS
 62
     7
100
AcDbLine
 10
162.3962496713
 20
170.4435375993
 30
0.0
 11
162.7962496976
 21
170.6470634796
 31
0.0
  0
LINE
  5
2CE
330
1F
100
AcDbEntity
  8
0
  6
CONTINUOUS
 62
     7
100
AcDbLine
 10
162.7962496976
 20
170.6470634796
 30
0.0
 11
162.3962496713
 21
171.1470952266
 31
0.0
  0
LINE
  5
2CF
330
1F
100
AcDbEntity
  8
0
  6
CONTINUOUS
 62
     7
100
AcDbLine
 10
162.3962496713
 20
171.1470952266
 30
0.0
 11
162.3962496713
 21
171.211128543
 31
0.0
  0
LINE
  5
2D0
330
1F
100
AcDbEntity
  8
0
  6
CONTINUOUS
 62
     7
100
AcDbLine
 10
162.3962496713
 20
171.211128543
 30
0.0
 11
162.7962496976
 21
171.3062445175
 31
0.0
  0
LINE
  5
2D1
330
1F
100
AcDbEntity
  8
0
  6
CONTINUOUS
 62
     7
100
AcDbLine
 10
153.796249321
 20
172.4989742049
 30
0.0
 11
153.796249321
 21
165.9989740708
 31
0.0
  0
LINE
  5
2D2
330
1F
100
AcDbEntity
  8
0
  6
CONTINUOUS
 62
     7
100
AcDbLine
 10
154.0962497427
 20
169.5508920363
 30
0.0
 11
162.3962496713
 21
169.5508920363
 31
0.0
  0
LINE
  5
2D3
330
1F
100
AcDbEntity
  8
0
  6
CONTINUOUS
 62
     7
100
AcDbLine
 10
162.7962496976
 20
169.1768718426
 30
0.0
 11
154.0962497427
 21
169.1768718426
 31
0.0
  0
LINE
  5
2D4
330
1F
100
AcDbEntity
  8
0
  6
CONTINUOUS
 62
     7
100
AcDbLine
 10
154.0962497427
 20
169.5508920363
 30
0.0
 11
154.0962497427
 21
169.1768718426
 31
0.0
  0
LINE
  5
2D5
330
1F
100
AcDbEntity
  8
0
  6
CONTINUOUS
 62
     7
100
AcDbLine
 10
162.3962496713
 20
169.6237384583
 30
0.0
 11
154.0962497427
 21
169.6237384583
 31
0.0
  0
LINE
  5
2D6
330
1F
100
AcDbEntity
  8
0
  6
CONTINUOUS
 62
     7
100
AcDbLine
 10
154.0962497427
 20
169.6237384583
 30
0.0
 11
154.0962497427
 21
169.5508920363
 31
0.0
  0
LINE
  5
2D7
330
1F
100
AcDbEntity
  8
0
  6
CONTINUOUS
 62
     7
100
AcDbLine
 10
162.3962496713
 20
168.7875603217
 30
0.0
 11
154.0962497427
 21
168.7875603217
 31
0.0
  0
LINE
  5
2D8
330
1F
100
AcDbEntity
  8
0
  6
CONTINUOUS
 62
     7
100
AcDbLine
 10
154.0962497427
 20
168.7150199847
 30
0.0
 11
162.3962496713
 21
168.7150199847
 31
0.0
  0
LINE
  5
2D9
330
1F
100
AcDbEntity
  8
0
  6
CONTINUOUS
 62
     7
100
AcDbLine
 10
154.0962497427
 20
168.7875603217
 30
0.0
 11
154.0962497427
 21
168.7150199847
 31
0.0
  0
LINE
  5
2DA
330
1F
100
AcDbEntity
  8
0
  6
CONTINUOUS
 62
     7
100
AcDbLine
 10
162.7962496976
 20
168.4301154871
 30
0.0
 11
154.0962497427
 21
168.4301154871
 31
0.0
  0
LINE
  5
2DB
330
1F
100
AcDbEntity
  8
0
  6
CONTINUOUS
 62
     7
100
AcDbLine
 10
154.0962497427
 20
168.7150199847
 30
0.0
 11
154.0962497427
 21
168.4301154871
 31
0.0
  0
LINE
  5
2DC
330
1F
100
AcDbEntity
  8
0
  6
CONTINUOUS
 62
     7
100
AcDbLine
 10
162.7962496976
 20
169.9267794153
 30
0.0
 11
154.0962497427
 21
169.9267794153
 31
0.0
  0
LINE
  5
2DD
330
1F
100
AcDbEntity
  8
0
  6
CONTINUOUS
 62
     7
100
AcDbLine
 10
154.0962497427
 20
169.9267794153
 30
0.0
 11
154.0962497427
 21
169.6237384583
 31
0.0
  0
LINE
  5
2DE
330
1F
100
AcDbEntity
  8
0
  6
CONTINUOUS
 62
     7
100
AcDbLine
 10
154.0962497427
 20
169.1768718426
 30
0.0
 11
154.0962497427
 21
168.7875603217
 31
0.0
  0
LINE
  5
2DF
330
1F
100
AcDbEntity
  8
0
  6
CONTINUOUS
 62
     7
100
AcDbLine
 10
154.0962497427
 20
170.3735687312
 30
0.0
 11
162.3962496713
 21
170.3735687312
 31
0.0
  0
LINE
  5
2E0
330
1F
100
AcDbEntity
  8
0
  6
CONTINUOUS
 62
     7
100
AcDbLine
 10
154.0962497427
 20
170.3735687312
 30
0.0
 11
154.0962497427
 21
169.9267794153
 31
0.0
  0
LINE
  5
2E1
330
1F
100
AcDbEntity
  8
0
  6
CONTINUOUS
 62
     7
100
AcDbLine
 10
162.3962496713
 20
170.4435375993
 30
0.0
 11
154.0962497427
 21
170.4435375993
 31
0.0
  0
LINE
  5
2E2
330
1F
100
AcDbEntity
  8
0
  6
CONTINUOUS
 62
     7
100
AcDbLine
 10
154.0962497427
 20
170.4435375993
 30
0.0
 11
154.0962497427
 21
170.3735687312
 31
0.0
  0
LINE
  5
2E3
330
1F
100
AcDbEntity
  8
0
  6
CONTINUOUS
 62
     7
100
AcDbLine
 10
162.7962496976
 20
170.6470634796
 30
0.0
 11
154.0962497427
 21
170.6470634796
 31
0.0
  0
LINE
  5
2E4
330
1F
100
AcDbEntity
  8
0
  6
CONTINUOUS
 62
     7
100
AcDbLine
 10
154.0962497427
 20
170.6470634796
 30
0.0
 11
154.0962497427
 21
170.4435375993
 31
0.0
  0
LINE
  5
2E5
330
1F
100
AcDbEntity
  8
0
  6
CONTINUOUS
 62
     7
100
AcDbLine
 10
162.3962496713
 20
167.9715481711
 30
0.0
 11
154.0962497427
 21
167.9715481711
 31
0.0
  0
LINE
  5
2E6
330
1F
100
AcDbEntity
  8
0
  6
CONTINUOUS
 62
     7
100
AcDbLine
 10
154.0962497427
 20
167.9024843449
 30
0.0
 11
162.3962496713
 21
167.9024843449
 31
0.0
  0
LINE
  5
2E7
330
1F
100
AcDbEntity
  8
0
  6
CONTINUOUS
 62
     7
100
AcDbLine
 10
154.0962497427
 20
167.9715481711
 30
0.0
 11
154.0962497427
 21
167.9024843449
 31
0.0
  0
LINE
  5
2E8
330
1F
100
AcDbEntity
  8
0
  6
CONTINUOUS
 62
     7
100
AcDbLine
 10
154.0962497427
 20
168.4301154871
 30
0.0
 11
154.0962497427
 21
167.9715481711
 31
0.0
  0
LINE
  5
2E9
330
1F
100
AcDbEntity
  8
0
  6
CONTINUOUS
 62
     7
100
AcDbLine
 10
162.7962496976
 20
167.7191471805
 30
0.0
 11
154.0962497427
 21
167.7191471805
 31
0.0
  0
LINE
  5
2EA
330
1F
100
AcDbEntity
  8
0
  6
CONTINUOUS
 62
     7
100
AcDbLine
 10
154.0962497427
 20
167.9024843449
 30
0.0
 11
154.0962497427
 21
167.7191471805
 31
0.0
  0
LINE
  5
2EB
330
1F
100
AcDbEntity
  8
0
  6
CONTINUOUS
 62
     7
100
AcDbLine
 10
154.0962497427
 20
171.1470952266
 30
0.0
 11
162.3962496713
 21
171.1470952266
 31
0.0
  0
LINE
  5
2EC
330
1F
100
AcDbEntity
  8
0
  6
CONTINUOUS
 62
     7
100
AcDbLine
 10
154.0962497427
 20
171.1470952266
 30
0.0
 11
154.0962497427
 21
170.6470634796
 31
0.0
  0
LINE
  5
2ED
330
1F
100
AcDbEntity
  8
0
  6
CONTINUOUS
 62
     7
100
AcDbLine
 10
162.3962496713
 20
171.211128543
 30
0.0
 11
154.0962497427
 21
171.211128543
 31
0.0
  0
LINE
  5
2EE
330
1F
100
AcDbEntity
  8
0
  6
CONTINUOUS
 62
     7
100
AcDbLine
 10
154.0962497427
 20
171.211128543
 30
0.0
 11
154.0962497427
 21
171.1470952266
 31
0.0
  0
LINE
  5
2EF
330
1F
100
AcDbEntity
  8
0
  6
CONTINUOUS
 62
     7
100
AcDbLine
 10
162.7962496976
 20
171.3062445175
 30
0.0
 11
154.0962497427
 21
171.3062445175
 31
0.0
  0
LINE
  5
2F0
330
1F
100
AcDbEntity
  8
0
  6
CONTINUOUS
 62
     7
100
AcDbLine
 10
154.0962497427
 20
171.3062445175
 30
0.0
 11
154.0962497427
 21
171.211128543
 31
0.0
  0
LINE
  5
2F1
330
1F
100
AcDbEntity
  8
0
  6
CONTINUOUS
 62
     7
100
AcDbLine
 10
162.3962496713
 20
167.2113657239
 30
0.0
 11
154.0962497427
 21
167.2113657239
 31
0.0
  0
LINE
  5
2F2
330
1F
100
AcDbEntity
  8
0
  6
CONTINUOUS
 62
     7
100
AcDbLine
 10
154.0962497427
 20
167.7191471805
 30
0.0
 11
154.0962497427
 21
167.2113657239
 31
0.0
  0
LINE
  5
2F3
330
1F
100
AcDbEntity
  8
0
  6
CONTINUOUS
 62
     7
100
AcDbLine
 10
154.0962497427
 20
167.1487967957
 30
0.0
 11
162.3962496713
 21
167.1487967957
 31
0.0
  0
LINE
  5
2F4
330
1F
100
AcDbEntity
  8
0
  6
CONTINUOUS
 62
     7
100
AcDbLine
 10
154.0962497427
 20
167.2113657239
 30
0.0
 11
154.0962497427
 21
167.1487967957
 31
0.0
  0
LINE
  5
2F5
330
1F
100
AcDbEntity
  8
0
  6
CONTINUOUS
 62
     7
100
AcDbLine
 10
162.7962496976
 20
167.0750396567
 30
0.0
 11
154.0962497427
 21
167.0750396567
 31
0.0
  0
LINE
  5
2F6
330
1F
100
AcDbEntity
  8
0
  6
CONTINUOUS
 62
     7
100
AcDbLine
 10
154.0962497427
 20
167.1487967957
 30
0.0
 11
154.0962497427
 21
167.0750396567
 31
0.0
  0
LINE
  5
2F7
330
1F
100
AcDbEntity
  8
0
  6
CONTINUOUS
 62
     7
100
AcDbLine
 10
154.0962497427
 20
171.837664862
 30
0.0
 11
162.3962496713
 21
171.837664862
 31
0.0
  0
LINE
  5
2F8
330
1F
100
AcDbEntity
  8
0
  6
CONTINUOUS
 62
     7
100
AcDbLine
 10
154.0962497427
 20
171.837664862
 30
0.0
 11
154.0962497427
 21
171.3062445175
 31
0.0
  0
LINE
  5
2F9
330
1F
100
AcDbEntity
  8
0
  6
CONTINUOUS
 62
     7
100
AcDbLine
 10
162.3962496713
 20
166.5402365158
 30
0.0
 11
154.0962497427
 21
166.5402365158
 31
0.0
  0
LINE
  5
2FA
330
1F
100
AcDbEntity
  8
0
  6
CONTINUOUS
 62
     7
100
AcDbLine
 10
154.0962497427
 20
167.0750396567
 30
0.0
 11
154.0962497427
 21
166.5402365158
 31
0.0
  0
LINE
  5
2FB
330
1F
100
AcDbEntity
  8
0
  6
CONTINUOUS
 62
     7
100
AcDbLine
 10
162.3962496713
 20
171.8929637697
 30
0.0
 11
154.0962497427
 21
171.8929637697
 31
0.0
  0
LINE
  5
2FC
330
1F
100
AcDbEntity
  8
0
  6
CONTINUOUS
 62
     7
100
AcDbLine
 10
154.0962497427
 20
171.8929637697
 30
0.0
 11
154.0962497427
 21
171.837664862
 31
0.0
  0
LINE
  5
2FD
330
1F
100
AcDbEntity
  8
0
  6
CONTINUOUS
 62
     7
100
AcDbLine
 10
154.0962497427
 20
166.4868969944
 30
0.0
 11
162.3962496713
 21
166.4868969944
 31
0.0
  0
LINE
  5
2FE
330
1F
100
AcDbEntity
  8
0
  6
CONTINUOUS
 62
     7
100
AcDbLine
 10
154.0962497427
 20
166.5402365158
 30
0.0
 11
154.0962497427
 21
166.4868969944
 31
0.0
  0
LINE
  5
2FF
330
1F
100
AcDbEntity
  8
0
  6
CONTINUOUS
 62
     7
100
AcDbLine
 10
154.0962497427
 20
172.4150960342
 30
0.0
 11
162.3962496713
 21
172.4150960342
 31
0.0
  0
LINE
  5
300
330
1F
100
AcDbEntity
  8
0
  6
CONTINUOUS
 62
     7
100
AcDbLine
 10
154.0962497427
 20
172.4150960342
 30
0.0
 11
154.0962497427
 21
171.8929637697
 31
0.0
  0
LINE
  5
301
330
1F
100
AcDbEntity
  8
0
  6
CONTINUOUS
 62
     7
100
AcDbLine
 10
162.3962496713
 20
165.9874920276
 30
0.0
 11
154.0962497427
 21
165.9874920276
 31
0.0
  0
LINE
  5
302
330
1F
100
AcDbEntity
  8
0
  6
CONTINUOUS
 62
     7
100
AcDbLine
 10
154.0962497427
 20
166.4868969944
 30
0.0
 11
154.0962497427
 21
165.9874920276
 31
0.0
  0
LINE
  5
303
330
1F
100
AcDbEntity
  8
0
  6
CONTINUOUS
 62
     7
100
AcDbLine
 10
162.3962496713
 20
172.4592439838
 30
0.0
 11
154.0962497427
 21
172.4592439838
 31
0.0
  0
LINE
  5
304
330
1F
100
AcDbEntity
  8
0
  6
CONTINUOUS
 62
     7
100
AcDbLine
 10
154.0962497427
 20
172.4592439838
 30
0.0
 11
154.0962497427
 21
172.4150960342
 31
0.0
  0
LINE
  5
305
330
1F
100
AcDbEntity
  8
0
  6
CONTINUOUS
 62
     7
100
AcDbLine
 10
154.0962497427
 20
165.9457131297
 30
0.0
 11
162.3962496713
 21
165.9457131297
 31
0.0
  0
LINE
  5
306
330
1F
100
AcDbEntity
  8
0
  6
CONTINUOUS
 62
     7
100
AcDbLine
 10
154.0962497427
 20
165.9874920276
 30
0.0
 11
154.0962497427
 21
165.9457131297
 31
0.0
  0
LINE
  5
307
330
1F
100
AcDbEntity
  8
0
  6
CONTINUOUS
 62
     7
100
AcDbLine
 10
154.0962497427
 20
172.8541526951
 30
0.0
 11
162.3962496713
 21
172.8541526951
 31
0.0
  0
LINE
  5
308
330
1F
100
AcDbEntity
  8
0
  6
CONTINUOUS
 62
     7
100
AcDbLine
 10
154.0962497427
 20
172.8541526951
 30
0.0
 11
154.0962497427
 21
172.4592439838
 31
0.0
  0
LINE
  5
309
330
1F
100
AcDbEntity
  8
0
  6
CONTINUOUS
 62
     7
100
AcDbLine
 10
162.3962496713
 20
165.5772900683
 30
0.0
 11
154.0962497427
 21
165.5772900683
 31
0.0
  0
LINE
  5
30A
330
1F
100
AcDbEntity
  8
0
  6
CONTINUOUS
 62
     7
100
AcDbLine
 10
154.0962497427
 20
165.9457131297
 30
0.0
 11
154.0962497427
 21
165.5772900683
 31
0.0
  0
LINE
  5
30B
330
1F
100
AcDbEntity
  8
0
  6
CONTINUOUS
 62
     7
100
AcDbLine
 10
162.3962496713
 20
172.8852202193
 30
0.0
 11
154.0962497427
 21
172.8852202193
 31
0.0
  0
LINE
  5
30C
330
1F
100
AcDbEntity
  8
0
  6
CONTINUOUS
 62
     7
100
AcDbLine
 10
154.0962497427
 20
172.8852202193
 30
0.0
 11
154.0962497427
 21
172.8541526951
 31
0.0
  0
LINE
  5
30D
330
1F
100
AcDbEntity
  8
0
  6
CONTINUOUS
 62
     7
100
AcDbLine
 10
154.0962497427
 20
165.5488977682
 30
0.0
 11
162.3962496713
 21
165.5488977682
 31
0.0
  0
LINE
  5
30E
330
1F
100
AcDbEntity
  8
0
  6
CONTINUOUS
 62
     7
100
AcDbLine
 10
154.0962497427
 20
165.5772900683
 30
0.0
 11
154.0962497427
 21
165.5488977682
 31
0.0
  0
LINE
  5
30F
330
1F
100
AcDbEntity
  8
0
  6
CONTINUOUS
 62
     7
100
AcDbLine
 10
154.0962497427
 20
173.1356458746
 30
0.0
 11
162.3962496713
 21
173.1356458746
 31
0.0
  0
LINE
  5
310
330
1F
100
AcDbEntity
  8
0
  6
CONTINUOUS
 62
     7
100
AcDbLine
 10
154.0962497427
 20
173.1356458746
 30
0.0
 11
154.0962497427
 21
172.8852202193
 31
0.0
  0
LINE
  5
311
330
1F
100
AcDbEntity
  8
0
  6
CONTINUOUS
 62
     7
100
AcDbLine
 10
162.3962496713
 20
165.3275582482
 30
0.0
 11
154.0962497427
 21
165.3275582482
 31
0.0
  0
LINE
  5
312
330
1F
100
AcDbEntity
  8
0
  6
CONTINUOUS
 62
     7
100
AcDbLine
 10
154.0962497427
 20
165.5488977682
 30
0.0
 11
154.0962497427
 21
165.3275582482
 31
0.0
  0
LINE
  5
313
330
1F
100
AcDbEntity
  8
0
  6
CONTINUOUS
 62
     7
100
AcDbLine
 10
162.3962496713
 20
173.1522751049
 30
0.0
 11
154.0962497427
 21
173.1522751049
 31
0.0
  0
LINE
  5
314
330
1F
100
AcDbEntity
  8
0
  6
CONTINUOUS
 62
     7
100
AcDbLine
 10
154.0962497427
 20
173.1522751049
 30
0.0
 11
154.0962497427
 21
173.1356458746
 31
0.0
  0
LINE
  5
315
330
1F
100
AcDbEntity
  8
0
  6
CONTINUOUS
 62
     7
100
AcDbLine
 10
154.0962497427
 20
165.3137935334
 30
0.0
 11
162.3962496713
 21
165.3137935334
 31
0.0
  0
LINE
  5
316
330
1F
100
AcDbEntity
  8
0
  6
CONTINUOUS
 62
     7
100
AcDbLine
 10
154.0962497427
 20
165.3275582482
 30
0.0
 11
154.0962497427
 21
165.3137935334
 31
0.0
  0
LINE
  5
317
330
1F
100
AcDbEntity
  8
0
  6
CONTINUOUS
 62
     7
100
AcDbLine
 10
154.0962497427
 20
173.2472723358
 30
0.0
 11
162.3962496713
 21
173.2472723358
 31
0.0
  0
LINE
  5
318
330
1F
100
AcDbEntity
  8
0
  6
CONTINUOUS
 62
     7
100
AcDbLine
 10
154.0962497427
 20
173.2472723358
 30
0.0
 11
154.0962497427
 21
173.1522751049
 31
0.0
  0
LINE
  5
319
330
1F
100
AcDbEntity
  8
0
  6
CONTINUOUS
 62
     7
100
AcDbLine
 10
162.3962496713
 20
165.2492112022
 30
0.0
 11
154.0962497427
 21
165.2492112022
 31
0.0
  0
LINE
  5
31A
330
1F
100
AcDbEntity
  8
0
  6
CONTINUOUS
 62
     7
100
AcDbLine
 10
154.0962497427
 20
165.3137935334
 30
0.0
 11
154.0962497427
 21
165.2492112022
 31
0.0
  0
LINE
  5
31B
330
1F
100
AcDbEntity
  8
0
  6
CONTINUOUS
 62
     7
100
AcDbLine
 10
162.3962496713
 20
173.2487368405
 30
0.0
 11
154.0962497427
 21
173.2487368405
 31
0.0
  0
LINE
  5
31C
330
1F
100
AcDbEntity
  8
0
  6
CONTINUOUS
 62
     7
100
AcDbLine
 10
154.0962497427
 20
173.2487368405
 30
0.0
 11
154.0962497427
 21
173.2472723358
 31
0.0
  0
LINE
  5
31D
330
1F
100
AcDbEntity
  8
0
  6
CONTINUOUS
 62
     7
100
AcDbLine
 10
232.5962523654
 20
209.7489723944
 30
0.0
 11
232.5962523654
 21
209.0489754461
 31
0.0
  0
LINE
  5
31E
330
1F
100
AcDbEntity
  8
0
  6
CONTINUOUS
 62
     7
100
AcDbLine
 10
232.3962489798
 20
209.0489754461
 30
0.0
 11
232.5962523654
 21
209.0489754461
 31
0.0
  0
LINE
  5
31F
330
1F
100
AcDbEntity
  8
0
  6
CONTINUOUS
 62
     7
100
AcDbLine
 10
223.8962503805
 20
210.0489737474
 30
0.0
 11
232.296247287
 21
210.0489737474
 31
0.0
  0
LINE
  5
320
330
1F
100
AcDbEntity
  8
0
  6
CONTINUOUS
 62
     7
100
AcDbLine
 10
223.5962490275
 20
209.7489723944
 30
0.0
 11
223.5962490275
 21
209.0489754461
 31
0.0
  0
LINE
  5
321
330
1F
100
AcDbEntity
  8
0
  6
CONTINUOUS
 62
     7
100
AcDbLine
 10
223.0962480142
 20
210.0489737474
 30
0.0
 11
223.8962503805
 21
210.0489737474
 31
0.0
  0
LINE
  5
322
330
1F
100
AcDbEntity
  8
0
  6
CONTINUOUS
 62
     7
100
AcDbLine
 10
223.0962480142
 20
210.0489737474
 30
0.0
 11
223.0962480142
 21
209.0489754461
 31
0.0
  0
LINE
  5
323
330
1F
100
AcDbEntity
  8
0
  6
CONTINUOUS
 62
     7
100
AcDbLine
 10
218.8962514236
 20
210.0489737474
 30
0.0
 11
223.0962480142
 21
210.0489737474
 31
0.0
  0
LINE
  5
324
330
1F
100
AcDbEntity
  8
0
  6
CONTINUOUS
 62
     7
100
AcDbLine
 10
162.0462496838
 20
157.2489735081999
 30
0.0
 11
162.0462496838
 21
158.8337352842999
 31
0.0
  0
LINE
  5
325
330
1F
100
AcDbEntity
  8
0
  6
CONTINUOUS
 62
     7
100
AcDbLine
 10
162.0462496838
 20
155.6642126634999
 30
0.0
 11
162.0462496838
 21
157.2489735081999
 31
0.0
  0
LINE
  5
326
330
1F
100
AcDbEntity
  8
0
  6
CONTINUOUS
 62
     7
100
AcDbLine
 10
162.0462496838
 20
135.2489735082
 30
0.0
 11
162.0462496838
 21
136.8337343529
 31
0.0
  0
LINE
  5
327
330
1F
100
AcDbEntity
  8
0
  6
CONTINUOUS
 62
     7
100
AcDbLine
 10
162.0462496838
 20
133.6642126635
 30
0.0
 11
162.0462496838
 21
135.2489735082
 31
0.0
  0
LINE
  5
328
330
1F
100
AcDbEntity
  8
0
  6
CONTINUOUS
 62
     7
100
AcDbLine
 10
162.0462496838
 20
145.2489735082
 30
0.0
 11
162.0462496838
 21
146.8337343529
 31
0.0
  0
LINE
  5
329
330
1F
100
AcDbEntity
  8
0
  6
CONTINUOUS
 62
     7
100
AcDbLine
 10
162.0462496838
 20
143.6642108009
 30
0.0
 11
162.0462496838
 21
145.2489735082
 31
0.0
  0
LINE
  5
32A
330
1F
100
AcDbEntity
  8
0
  6
CONTINUOUS
 62
     7
100
AcDbLine
 10
230.0462464526
 20
134.648975172
 30
0.0
 11
230.0462464526
 21
138.2489746444
 31
0.0
  0
LINE
  5
32B
330
1F
100
AcDbEntity
  8
0
  6
CONTINUOUS
 62
     7
100
AcDbLine
 10
230.0462464526
 20
138.2489746444
 30
0.0
 11
228.5462508633
 21
138.2489746444
 31
0.0
  0
LINE
  5
32C
330
1F
100
AcDbEntity
  8
0
  6
CONTINUOUS
 62
     7
100
AcDbLine
 10
228.5462508633
 20
138.2489746444
 30
0.0
 11
228.5462508633
 21
134.648975172
 31
0.0
  0
LINE
  5
32D
330
1F
100
AcDbEntity
  8
0
  6
CONTINUOUS
 62
     7
100
AcDbLine
 10
228.5462508633
 20
134.648975172
 30
0.0
 11
230.0462464526
 21
134.648975172
 31
0.0
  0
LINE
  5
32E
330
1F
100
AcDbEntity
  8
0
  6
CONTINUOUS
 62
     7
100
AcDbLine
 10
225.8962507083
 20
133.2489738249
 30
0.0
 11
225.8962507083
 21
203.2489741229
 31
0.0
  0
LINE
  5
32F
330
1F
100
AcDbEntity
  8
0
  6
CONTINUOUS
 62
     7
100
AcDbLine
 10
225.8962507083
 20
203.2489741229
 30
0.0
 11
177.8962493598
 21
203.2489741229
 31
0.0
  0
LINE
  5
330
330
1F
100
AcDbEntity
  8
0
  6
CONTINUOUS
 62
     7
100
AcDbLine
 10
177.8962493598
 20
203.2489741229
 30
0.0
 11
177.8962493598
 21
134.7714217388
 31
0.0
  0
LINE
  5
331
330
1F
100
AcDbEntity
  8
0
  6
CONTINUOUS
 62
     7
100
AcDbLine
 10
179.4667674884
 20
133.2489738249
 30
0.0
 11
177.8962493598
 21
134.7714217388
 31
0.0
  0
LINE
  5
332
330
1F
100
AcDbEntity
  8
0
  6
CONTINUOUS
 62
     7
100
AcDbLine
 10
179.4667674884
 20
133.2489738249
 30
0.0
 11
225.8962507083
 21
133.2489738249
 31
0.0
  0
LINE
  5
333
330
1F
100
AcDbEntity
  8
0
  6
CONTINUOUS
 62
     7
100
AcDbLine
 10
189.2462505683
 20
131.5489748501
 30
0.0
 11
183.2462495848
 21
131.5489748501
 31
0.0
  0
LINE
  5
334
330
1F
100
AcDbEntity
  8
0
  6
CONTINUOUS
 62
     7
100
AcDbLine
 10
183.2462495848
 20
128.9489755415
 30
0.0
 11
189.2462505683
 21
128.9489755415
 31
0.0
  0
LINE
  5
335
330
1F
100
AcDbEntity
  8
0
  6
CONTINUOUS
 62
     7
100
AcDbLine
 10
163.5962496701
 20
123.748973199
 30
0.0
 11
165.8264082115
 21
123.748973199
 31
0.0
  0
LINE
  5
336
330
1F
100
AcDbEntity
  8
0
  6
CONTINUOUS
 62
     7
100
AcDbLine
 10
165.8264082115
 20
212.7489747488
 30
0.0
 11
163.5962496701
 21
212.7489747488
 31
0.0
  0
LINE
  5
337
330
1F
100
AcDbEntity
  8
0
  6
CONTINUOUS
 62
     7
100
AcDbLine
 10
232.8962499931
 20
126.2489745401
 30
0.0
 11
232.8962499931
 21
208.5489744329
 31
0.0
  0
LINE
  5
338
330
1F
100
AcDbEntity
  8
0
  6
CONTINUOUS
 62
     7
100
AcDbLine
 10
218.2983088031
 20
209.0489754461
 30
0.0
 11
232.3962489798
 21
209.0489754461
 31
0.0
  0
LINE
  5
339
330
1F
100
AcDbEntity
  8
0
  6
CONTINUOUS
 62
     7
100
AcDbLine
 10
165.8264082115
 20
125.7489735269
 30
0.0
 11
232.3962489798
 21
125.7489735269
 31
0.0
  0
LINE
  5
33A
330
1F
100
AcDbEntity
  8
0
  6
CONTINUOUS
 62
     7
100
AcDbLine
 10
218.2874495819
 20
210.2925518536
 30
0.0
 11
218.2983088031
 21
210.1684624337
 31
0.0
  0
LINE
  5
33B
330
1F
100
AcDbEntity
  8
0
  6
CONTINUOUS
 62
     7
100
AcDbLine
 10
217.7886890903
 20
210.7489744209
 30
0.0
 11
217.7893521919
 21
210.7489744209
 31
0.0
  0
LINE
  5
33C
330
1F
100
AcDbEntity
  8
0
  6
CONTINUOUS
 62
     7
100
AcDbLine
 10
165.8264082115
 20
210.7489744209
 30
0.0
 11
217.7886890903
 21
210.7489744209
 31
0.0
  0
LINE
  5
33D
330
1F
100
AcDbEntity
  8
0
  6
CONTINUOUS
 62
     7
100
AcDbLine
 10
162.8962496951
 20
124.4489738726
 30
0.0
 11
163.5962496701
 21
123.748973199
 31
0.0
  0
LINE
  5
33E
330
1F
100
AcDbEntity
  8
0
  6
CONTINUOUS
 62
     7
100
AcDbLine
 10
163.5962496701
 20
212.7489747488
 30
0.0
 11
162.8962496951
 21
212.0489740752
 31
0.0
  0
LINE
  5
33F
330
1F
100
AcDbEntity
  8
0
  6
CONTINUOUS
 62
     7
100
AcDbLine
 10
162.8962496951
 20
125.7488990211
 30
0.0
 11
162.8962496951
 21
124.4489738726
 31
0.0
  0
LINE
  5
340
330
1F
100
AcDbEntity
  8
0
  6
CONTINUOUS
 62
     7
100
AcDbLine
 10
162.8962496951
 20
125.7488990211
 30
0.0
 11
162.8962496951
 21
210.7490489267
 31
0.0
  0
LINE
  5
341
330
1F
100
AcDbEntity
  8
0
  6
CONTINUOUS
 62
     7
100
AcDbLine
 10
162.8962496951
 20
212.0489740752
 30
0.0
 11
162.8962496951
 21
210.7490489267
 31
0.0
  0
LINE
  5
37F
330
1F
100
AcDbEntity
  8
1
  6
CONTINUOUS
 62
     7
100
AcDbLine
 10
123.229110838827
 20
210.749050126339
 30
0.0
 11
123.229110838827
 21
125.748897821461
 31
0.0
  0
LINE
  5
380
330
1F
100
AcDbEntity
  8
1
  6
CONTINUOUS
 62
     7
100
AcDbLine
 10
102.729110838874
 20
125.748897821461
 30
0.0
 11
102.729110838874
 21
129.2664298796
 31
0.0
  0
LINE
  5
381
330
1F
100
AcDbEntity
  8
1
  6
CONTINUOUS
 62
     7
100
AcDbLine
 10
102.729110838874
 20
210.749050126339
 30
0.0
 11
102.729110838874
 21
207.7315190815
 31
0.0
  0
LINE
  5
382
330
1F
100
AcDbEntity
  8
1
  6
CONTINUOUS
 62
     7
100
AcDbLine
 10
165.8264082115
 20
212.7489747488
 30
0.0
 11
165.8264082115
 21
210.7489744209
 31
0.0
  0
LINE
  5
383
330
1F
100
AcDbEntity
  8
1
  6
CONTINUOUS
 62
     7
100
AcDbLine
 10
165.8264082115
 20
123.748973199
 30
0.0
 11
165.8264082115
 21
125.7489735269
 31
0.0
  0
LINE
  5
384
330
1F
100
AcDbEntity
  8
1
  6
CONTINUOUS
 62
     7
100
AcDbLine
 10
218.2983088031
 20
210.1684624337
 30
0.0
 11
218.2983088031
 21
209.0489754461
 31
0.0
  0
LINE
  5
385
330
1F
100
AcDbEntity
  8
1
  6
DOT_CENTER
 62
     7
100
AcDbLine
 10
132.736623159917
 20
175.5887888911399
 30
0.0
 11
86.41888011877592
 21
175.5887888911399
 31
0.0
  0
LINE
  5
386
330
1F
100
AcDbEntity
  8
1
  6
CONTINUOUS
 62
     7
100
AcDbLine
 10
105.6791112276999
 20
142.7489739738999
 30
0.0
 11
111.2791112277002
 21
142.7489739738999
 31
0.0
  0
LINE
  5
387
330
1F
100
AcDbEntity
  8
1
  6
CONTINUOUS
 62
     7
100
AcDbLine
 10
105.4791112277001
 20
142.9489739739
 30
0.0
 11
105.4791112277001
 21
147.5489739738997
 31
0.0
  0
LINE
  5
388
330
1F
100
AcDbEntity
  8
1
  6
CONTINUOUS
 62
     7
100
AcDbLine
 10
111.4791112277001
 20
147.5489739738999
 30
0.0
 11
105.4791112277001
 21
147.5489739738997
 31
0.0
  0
LINE
  5
389
330
1F
100
AcDbEntity
  8
1
  6
CONTINUOUS
 62
     7
100
AcDbLine
 10
111.4791112277001
 20
142.9489739739
 30
0.0
 11
111.4791112277001
 21
147.5489739738999
 31
0.0
  0
LINE
  5
38A
330
1F
100
AcDbEntity
  8
1
  6
CONTINUOUS
 62
     7
100
AcDbLine
 10
111.2791112277002
 20
142.2489739738999
 30
0.0
 11
105.6791112276999
 21
142.2489739738999
 31
0.0
  0
LINE
  5
38B
330
1F
100
AcDbEntity
  8
1
  6
CONTINUOUS
 62
     7
100
AcDbLine
 10
104.9791112277001
 20
150.1489739739
 30
0.0
 11
104.9791112277001
 21
142.9489739739
 31
0.0
  0
LINE
  5
38C
330
1F
100
AcDbEntity
  8
1
  6
CONTINUOUS
 62
     7
100
AcDbLine
 10
111.9791112277001
 20
150.1489739739
 30
0.0
 11
111.9791112277001
 21
142.9489739738999
 31
0.0
  0
LINE
  5
38D
330
1F
100
AcDbEntity
  8
1
  6
CONTINUOUS
 62
     7
100
AcDbLine
 10
105.6791112276999
 20
150.8489739739
 30
0.0
 11
111.2791112277002
 21
150.8489739739
 31
0.0
  0
LINE
  5
38E
330
1F
100
AcDbEntity
  8
1
  6
CONTINUOUS
 62
     7
100
AcDbLine
 10
111.2791112277002
 20
129.6489739738999
 30
0.0
 11
105.6791112276999
 21
129.6489739738999
 31
0.0
  0
LINE
  5
38F
330
1F
100
AcDbEntity
  8
1
  6
CONTINUOUS
 62
     7
100
AcDbLine
 10
104.9791112277001
 20
137.5489739738998
 30
0.0
 11
104.9791112277001
 21
130.3489739739
 31
0.0
  0
LINE
  5
390
330
1F
100
AcDbEntity
  8
1
  6
CONTINUOUS
 62
     7
100
AcDbLine
 10
111.9791112277001
 20
137.5489739738999
 30
0.0
 11
111.9791112277001
 21
130.3489739738998
 31
0.0
  0
LINE
  5
391
330
1F
100
AcDbEntity
  8
1
  6
CONTINUOUS
 62
     7
100
AcDbLine
 10
105.6791112276999
 20
138.2489739738999
 30
0.0
 11
111.2791112277002
 21
138.2489739738999
 31
0.0
  0
LINE
  5
392
330
1F
100
AcDbEntity
  8
1
  6
CONTINUOUS
 62
     7
100
AcDbLine
 10
111.4791112277001
 20
132.9489739738999
 30
0.0
 11
111.4791112277001
 21
137.5489739738998
 31
0.0
  0
LINE
  5
393
330
1F
100
AcDbEntity
  8
1
  6
CONTINUOUS
 62
     7
100
AcDbLine
 10
105.4791112277001
 20
132.9489739739002
 30
0.0
 11
111.4791112277001
 21
132.9489739738999
 31
0.0
  0
LINE
  5
394
330
1F
100
AcDbEntity
  8
1
  6
CONTINUOUS
 62
     7
100
AcDbLine
 10
105.4791112277001
 20
132.9489739739002
 30
0.0
 11
105.4791112277001
 21
137.5489739738998
 31
0.0
  0
LINE
  5
395
330
1F
100
AcDbEntity
  8
1
  6
CONTINUOUS
 62
     7
100
AcDbLine
 10
111.2791112277002
 20
137.7489739738999
 30
0.0
 11
105.6791112276999
 21
137.7489739738999
 31
0.0
  0
LINE
  5
396
330
1F
100
AcDbEntity
  8
1
  6
CONTINUOUS
 62
     7
100
AcDbLine
 10
106.47911122765
 20
131.2489739739
 30
0.0
 11
107.97911122765
 21
132.3489739739
 31
0.0
  0
LINE
  5
397
330
1F
100
AcDbEntity
  8
1
  6
CONTINUOUS
 62
     7
100
AcDbLine
 10
106.47911122765
 20
131.2489739739
 30
0.0
 11
107.97911122765
 21
130.1489739739
 31
0.0
  0
LINE
  5
398
330
1F
100
AcDbEntity
  8
1
  6
CONTINUOUS
 62
     7
100
AcDbLine
 10
107.97911122765
 20
132.3489739739
 30
0.0
 11
108.9163411887593
 21
132.3489739739
 31
0.0
  0
LINE
  5
399
330
1F
100
AcDbEntity
  8
1
  6
CONTINUOUS
 62
     7
100
AcDbLine
 10
108.9163411887593
 20
132.3489739739
 30
0.0
 11
107.4163411887593
 21
131.2489739739
 31
0.0
  0
LINE
  5
39A
330
1F
100
AcDbEntity
  8
1
  6
CONTINUOUS
 62
     7
100
AcDbLine
 10
107.4163411887593
 20
131.2489739739
 30
0.0
 11
108.9163411887593
 21
130.1489739739
 31
0.0
  0
LINE
  5
39B
330
1F
100
AcDbEntity
  8
1
  6
CONTINUOUS
 62
     7
100
AcDbLine
 10
108.9163411887593
 20
130.1489739739
 30
0.0
 11
107.97911122765
 21
130.1489739739
 31
0.0
  0
LINE
  5
39C
330
1F
100
AcDbEntity
  8
1
  6
CONTINUOUS
 62
     7
100
AcDbLine
 10
109.384956169313
 20
132.3489739739
 30
0.0
 11
107.884956169313
 21
131.2489739738999
 31
0.0
  0
LINE
  5
39D
330
1F
100
AcDbEntity
  8
1
  6
CONTINUOUS
 62
     7
100
AcDbLine
 10
107.884956169313
 20
131.2489739738999
 30
0.0
 11
109.384956169313
 21
130.1489739739
 31
0.0
  0
LINE
  5
39E
330
1F
100
AcDbEntity
  8
1
  6
CONTINUOUS
 62
     7
100
AcDbLine
 10
110.009776143386
 20
132.3489739739
 30
0.0
 11
109.384956169313
 21
132.3489739739
 31
0.0
  0
LINE
  5
39F
330
1F
100
AcDbEntity
  8
1
  6
CONTINUOUS
 62
     7
100
AcDbLine
 10
110.009776143386
 20
132.3489739739
 30
0.0
 11
108.509776143386
 21
131.2489739738999
 31
0.0
  0
LINE
  5
3A0
330
1F
100
AcDbEntity
  8
1
  6
CONTINUOUS
 62
     7
100
AcDbLine
 10
108.509776143386
 20
131.2489739738999
 30
0.0
 11
110.009776143386
 21
130.1489739739
 31
0.0
  0
LINE
  5
3A1
330
1F
100
AcDbEntity
  8
1
  6
CONTINUOUS
 62
     7
100
AcDbLine
 10
110.009776143386
 20
130.1489739739
 30
0.0
 11
109.384956169313
 21
130.1489739739
 31
0.0
  0
LINE
  5
3A2
330
1F
100
AcDbEntity
  8
1
  6
CONTINUOUS
 62
     7
100
AcDbLine
 10
120.2791112277002
 20
137.7489739738999
 30
0.0
 11
114.6791112277
 21
137.7489739738999
 31
0.0
  0
LINE
  5
3A3
330
1F
100
AcDbEntity
  8
1
  6
CONTINUOUS
 62
     7
100
AcDbLine
 10
120.4791112277001
 20
137.5489739738998
 30
0.0
 11
120.4791112277001
 21
132.9489739739002
 31
0.0
  0
LINE
  5
3A4
330
1F
100
AcDbEntity
  8
1
  6
CONTINUOUS
 62
     7
100
AcDbLine
 10
114.4791112277001
 20
132.9489739738999
 30
0.0
 11
120.4791112277001
 21
132.9489739739002
 31
0.0
  0
LINE
  5
3A5
330
1F
100
AcDbEntity
  8
1
  6
CONTINUOUS
 62
     7
100
AcDbLine
 10
114.4791112277001
 20
137.5489739738998
 30
0.0
 11
114.4791112277001
 21
132.9489739738999
 31
0.0
  0
LINE
  5
3A6
330
1F
100
AcDbEntity
  8
1
  6
CONTINUOUS
 62
     7
100
AcDbLine
 10
114.6791112277
 20
138.2489739738999
 30
0.0
 11
120.2791112277002
 21
138.2489739738999
 31
0.0
  0
LINE
  5
3A7
330
1F
100
AcDbEntity
  8
1
  6
CONTINUOUS
 62
     7
100
AcDbLine
 10
120.9791112277001
 20
130.3489739739
 30
0.0
 11
120.9791112277001
 21
137.5489739738998
 31
0.0
  0
LINE
  5
3A8
330
1F
100
AcDbEntity
  8
1
  6
CONTINUOUS
 62
     7
100
AcDbLine
 10
113.9791112277001
 20
130.3489739738998
 30
0.0
 11
113.9791112277001
 21
137.5489739738999
 31
0.0
  0
LINE
  5
3A9
330
1F
100
AcDbEntity
  8
1
  6
CONTINUOUS
 62
     7
100
AcDbLine
 10
120.2791112277002
 20
129.6489739738999
 30
0.0
 11
114.6791112277
 21
129.6489739738999
 31
0.0
  0
LINE
  5
3AA
330
1F
100
AcDbEntity
  8
1
  6
CONTINUOUS
 62
     7
100
AcDbLine
 10
114.6791112277
 20
150.8489739739
 30
0.0
 11
120.2791112277002
 21
150.8489739739
 31
0.0
  0
LINE
  5
3AB
330
1F
100
AcDbEntity
  8
1
  6
CONTINUOUS
 62
     7
100
AcDbLine
 10
113.9791112277001
 20
142.9489739738999
 30
0.0
 11
113.9791112277001
 21
150.1489739739
 31
0.0
  0
LINE
  5
3AC
330
1F
100
AcDbEntity
  8
1
  6
CONTINUOUS
 62
     7
100
AcDbLine
 10
120.9791112277001
 20
142.9489739739
 30
0.0
 11
120.9791112277001
 21
150.1489739739
 31
0.0
  0
LINE
  5
3AD
330
1F
100
AcDbEntity
  8
1
  6
CONTINUOUS
 62
     7
100
AcDbLine
 10
120.2791112277002
 20
142.2489739738999
 30
0.0
 11
114.6791112277
 21
142.2489739738999
 31
0.0
  0
LINE
  5
3AE
330
1F
100
AcDbEntity
  8
1
  6
CONTINUOUS
 62
     7
100
AcDbLine
 10
114.4791112277001
 20
147.5489739738999
 30
0.0
 11
114.4791112277001
 21
142.9489739739
 31
0.0
  0
LINE
  5
3AF
330
1F
100
AcDbEntity
  8
1
  6
CONTINUOUS
 62
     7
100
AcDbLine
 10
120.4791112277001
 20
147.5489739738997
 30
0.0
 11
114.4791112277001
 21
147.5489739738999
 31
0.0
  0
LINE
  5
3B0
330
1F
100
AcDbEntity
  8
1
  6
CONTINUOUS
 62
     7
100
AcDbLine
 10
120.4791112277001
 20
147.5489739738997
 30
0.0
 11
120.4791112277001
 21
142.9489739739
 31
0.0
  0
LINE
  5
3B1
330
1F
100
AcDbEntity
  8
1
  6
CONTINUOUS
 62
     7
100
AcDbLine
 10
114.6791112277
 20
142.7489739738999
 30
0.0
 11
120.2791112277002
 21
142.7489739738999
 31
0.0
  0
LINE
  5
3B2
330
1F
100
AcDbEntity
  8
1
  6
CONTINUOUS
 62
     7
100
AcDbLine
 10
116.4812627113601
 20
148.1489739739
 30
0.0
 11
115.28126271136
 21
148.1489739739
 31
0.0
  0
LINE
  5
3B3
330
1F
100
AcDbEntity
  8
1
  6
CONTINUOUS
 62
     7
100
AcDbLine
 10
119.6812627113599
 20
148.1489739739
 30
0.0
 11
118.4812627113601
 21
148.1489739739
 31
0.0
  0
LINE
  5
3B4
330
1F
100
AcDbEntity
  8
1
  6
CONTINUOUS
 62
     7
100
AcDbLine
 10
117.4812627113601
 20
150.3489739739
 30
0.0
 11
119.6812627113599
 21
148.1489739739
 31
0.0
  0
LINE
  5
3B5
330
1F
100
AcDbEntity
  8
1
  6
CONTINUOUS
 62
     7
100
AcDbLine
 10
117.4812627113601
 20
150.3489739739
 30
0.0
 11
115.28126271136
 21
148.1489739739
 31
0.0
  0
LINE
  5
3B6
330
1F
100
AcDbEntity
  8
1
  6
CONTINUOUS
 62
     7
100
AcDbLine
 10
117.4812627113601
 20
149.1489739739
 30
0.0
 11
116.4812627113601
 21
148.1489739739
 31
0.0
  0
LINE
  5
3B7
330
1F
100
AcDbEntity
  8
1
  6
CONTINUOUS
 62
     7
100
AcDbLine
 10
117.4812627113601
 20
149.1489739739
 30
0.0
 11
118.4812627113601
 21
148.1489739739
 31
0.0
  0
LINE
  5
3B8
330
1F
100
AcDbEntity
  8
1
  6
CONTINUOUS
 62
     7
100
AcDbLine
 10
118.4812627113601
 20
132.3489739738998
 30
0.0
 11
117.4812627113601
 21
131.3489739738998
 31
0.0
  0
LINE
  5
3B9
330
1F
100
AcDbEntity
  8
1
  6
CONTINUOUS
 62
     7
100
AcDbLine
 10
116.4812627113601
 20
132.3489739738998
 30
0.0
 11
117.4812627113601
 21
131.3489739738998
 31
0.0
  0
LINE
  5
3BA
330
1F
100
AcDbEntity
  8
1
  6
CONTINUOUS
 62
     7
100
AcDbLine
 10
115.28126271136
 20
132.3489739738998
 30
0.0
 11
117.4812627113601
 21
130.1489739738998
 31
0.0
  0
LINE
  5
3BB
330
1F
100
AcDbEntity
  8
1
  6
CONTINUOUS
 62
     7
100
AcDbLine
 10
119.6812627113599
 20
132.3489739738998
 30
0.0
 11
117.4812627113601
 21
130.1489739738998
 31
0.0
  0
LINE
  5
3BC
330
1F
100
AcDbEntity
  8
1
  6
CONTINUOUS
 62
     7
100
AcDbLine
 10
118.4812627113601
 20
132.3489739738998
 30
0.0
 11
119.6812627113599
 21
132.3489739738998
 31
0.0
  0
LINE
  5
3BD
330
1F
100
AcDbEntity
  8
1
  6
CONTINUOUS
 62
     7
100
AcDbLine
 10
115.28126271136
 20
132.3489739738998
 30
0.0
 11
116.4812627113601
 21
132.3489739738998
 31
0.0
  0
ARC
  5
3BE
330
1F
100
AcDbEntity
  8
1
  6
DOTTED
 62
     7
100
AcDbCircle
 10
140.3607866483441
 20
182.1860249871128
 30
0.0
 40
9.999999999999865
100
AcDbArc
 50
157.6251999459301
 51
206.4664464766158
  0
ARC
  5
3BF
330
1F
100
AcDbEntity
  8
1
  6
DOTTED
 62
     7
100
AcDbCircle
 10
121.5616809330953
 20
172.8268784284303
 30
0.0
 40
10.99999999999999
100
AcDbArc
 50
330.6143383496668
 51
26.46644647661554
  0
ARC
  5
3C0
330
1F
100
AcDbEntity
  8
1
  6
DOTTED
 62
     7
100
AcDbCircle
 10
79.65267118036994
 20
172.8268784284303
 30
0.0
 40
10.99999999999993
100
AcDbArc
 50
330.6143383496666
 51
26.4664464766157
  0
ARC
  5
3C1
330
1F
100
AcDbEntity
  8
1
  6
DOTTED
 62
     7
100
AcDbCircle
 10
98.45177689561872
 20
182.1860249871128
 30
0.0
 40
9.999999999999904
100
AcDbArc
 50
157.6251999459301
 51
206.4664464766156
  0
ARC
  5
3C2
330
1F
100
AcDbEntity
  8
1
  6
DOTTED
 62
     7
100
AcDbCircle
 10
108.9205260391615
 20
195.128590916119
 30
0.0
 40
23.99999999999997
100
AcDbArc
 50
342.9428707572327
 51
355.124449477453
  0
ARC
  5
3C3
330
1F
100
AcDbEntity
  8
1
  6
DOTTED
 62
     7
100
AcDbCircle
 10
108.9205260391615
 20
195.128590916119
 30
0.0
 40
24.0
100
AcDbArc
 50
337.6251999459304
 51
342.9428707572327
  0
ARC
  5
3C4
330
1F
100
AcDbEntity
  8
1
  6
DOTTED
 62
     7
100
AcDbCircle
 10
138.9884135970087
 20
163.0131641132244
 30
0.0
 40
8.999999999999588
100
AcDbArc
 50
150.614338349666
 51
179.5185520453277
  0
ARC
  5
3C5
330
1F
100
AcDbEntity
  8
1
  6
DOTTED
 62
     7
100
AcDbCircle
 10
138.9884135970087
 20
163.0131641132244
 30
0.0
 40
9.0
100
AcDbArc
 50
179.5185520453277
 51
213.1717856860908
  0
ARC
  5
3C6
330
1F
100
AcDbEntity
  8
1
  6
DOTTED
 62
     7
100
AcDbCircle
 10
97.07940384428328
 20
163.0131641132244
 30
0.0
 40
8.999999999999929
100
AcDbArc
 50
179.5185520453277
 51
213.1717856860909
  0
ARC
  5
3C7
330
1F
100
AcDbEntity
  8
1
  6
DOTTED
 62
     7
100
AcDbCircle
 10
97.07940384428328
 20
163.0131641132244
 30
0.0
 40
8.9999999999996
100
AcDbArc
 50
150.614338349666
 51
179.5185520453277
  0
ARC
  5
3C8
330
1F
100
AcDbEntity
  8
1
  6
DOTTED
 62
     7
100
AcDbCircle
 10
67.01151628643609
 20
195.128590916119
 30
0.0
 40
24.0
100
AcDbArc
 50
337.6251999459304
 51
342.9428707572327
  0
ARC
  5
3C9
330
1F
100
AcDbEntity
  8
1
  6
DOTTED
 62
     7
100
AcDbCircle
 10
67.01151628643609
 20
195.128590916119
 30
0.0
 40
23.99999999999997
100
AcDbArc
 50
342.9428707572327
 51
355.124449477453
  0
ARC
  5
3CA
330
1F
100
AcDbEntity
  8
0
  6
DOTTED
 62
     7
100
AcDbCircle
 10
265.3962499931
 20
187.2888010981402
 30
0.0
 40
0.8000000119000106
100
AcDbArc
 50
0.0
 51
89.99998201393403
  0
ARC
  5
3CB
330
1F
100
AcDbEntity
  8
0
  6
DOTTED
 62
     7
100
AcDbCircle
 10
261.6962683037001
 20
189.8888072017404
 30
0.0
 40
0.8000000119001682
100
AcDbArc
 50
179.999964027805
 51
269.9999460417084
  0
ARC
  5
3CC
330
1F
100
AcDbEntity
  8
0
  6
DOTTED
 62
     7
100
AcDbCircle
 10
266.3962499931
 20
188.2888010981402
 30
0.0
 40
0.8000000119000106
100
AcDbArc
 50
0.0
 51
89.99998201393403
  0
ARC
  5
3CD
330
1F
100
AcDbEntity
  8
0
  6
DOTTED
 62
     7
100
AcDbCircle
 10
261.6962683037001
 20
161.2888010981402
 30
0.0
 40
0.80000001190005
100
AcDbArc
 50
89.99998201392995
 51
179.999964027805
  0
ARC
  5
3CE
330
1F
100
AcDbEntity
  8
0
  6
DOTTED
 62
     7
100
AcDbCircle
 10
265.3962499931
 20
163.8888072017404
 30
0.0
 40
0.80000001190005
100
AcDbArc
 50
270.000017986066
 51
0.0
  0
ARC
  5
3CF
330
1F
100
AcDbEntity
  8
0
  6
DOTTED
 62
     7
100
AcDbCircle
 10
266.3962499931
 20
162.8888072017404
 30
0.0
 40
0.80000001190005
100
AcDbArc
 50
270.000017986066
 51
0.0
  0
ARC
  5
3D0
330
1F
100
AcDbEntity
  8
0
  6
DOTTED
 62
     7
100
AcDbCircle
 10
260.6962683037001
 20
162.2888010981402
 30
0.0
 40
0.80000001190005
100
AcDbArc
 50
89.99998201392995
 51
179.999964027805
  0
ARC
  5
3D1
330
1F
100
AcDbEntity
  8
0
  6
DOTTED
 62
     7
100
AcDbCircle
 10
260.6962683037001
 20
188.8888072017404
 30
0.0
 40
0.8000000119001682
100
AcDbArc
 50
179.999964027805
 51
269.9999460417084
  0
ARC
  5
3D2
330
1F
100
AcDbEntity
  8
0
  6
CONTINUOUS
 62
     7
100
AcDbCircle
 10
102.4672209109303
 20
154.6259232572071
 30
0.0
 40
2.750000000000028
100
AcDbArc
 50
105.5692975323125
 51
254.4307024676874
  0
ARC
  5
3D3
330
1F
100
AcDbEntity
  8
0
  6
CONTINUOUS
 62
     7
100
AcDbCircle
 10
101.4672209109303
 20
155.6259242572071
 30
0.0
 40
0.5000000000000007
100
AcDbArc
 50
269.9999969999942
 51
301.5861400193303
  0
ARC
  5
3D4
330
1F
100
AcDbEntity
  8
0
  6
CONTINUOUS
 62
     7
100
AcDbCircle
 10
102.4672209109303
 20
197.7720246905929
 30
0.0
 40
2.750000000000001
100
AcDbArc
 50
105.5692975323126
 51
254.4307024676874
  0
ARC
  5
3D5
330
1F
100
AcDbEntity
  8
0
  6
CONTINUOUS
 62
     7
100
AcDbCircle
 10
101.4672209109303
 20
198.7720246905929
 30
0.0
 40
0.5000000000000007
100
AcDbArc
 50
269.9999969999942
 51
301.5861400193355
  0
ARC
  5
3D6
330
1F
100
AcDbEntity
  8
Z_OM_OUTLINE
  6
CONTINUOUS
 62
     7
100
AcDbCircle
 10
102.1231531164056
 20
204.8057534615172
 30
0.0
 40
2.064406767147503
100
AcDbArc
 50
180.0
 51
258.9961859765006
  0
ARC
  5
3D7
330
1F
100
AcDbEntity
  8
Z_OM_OUTLINE
  6
CONTINUOUS
 62
     7
100
AcDbCircle
 10
123.7502716293809
 20
147.5921944862826
 30
0.0
 40
2.064406767147602
100
AcDbArc
 50
0.0
 51
76.58806915433422
  0
ARC
  5
3D8
330
1F
100
AcDbEntity
  8
0
  6
CONTINUOUS
 62
     7
100
AcDbCircle
 10
123.4062038802671
 20
154.6259232572071
 30
0.0
 40
2.750000000000006
100
AcDbArc
 50
287.4119146017462
 51
72.58808539825401
  0
ARC
  5
3D9
330
1F
100
AcDbEntity
  8
0
  6
CONTINUOUS
 62
     7
100
AcDbCircle
 10
124.4062038802671
 20
153.6259232572071
 30
0.0
 40
0.5
100
AcDbArc
 50
89.99999900000512
 51
110.7434599764849
  0
ARC
  5
3DA
330
1F
100
AcDbEntity
  8
0
  6
CONTINUOUS
 62
     7
100
AcDbCircle
 10
123.4062038802671
 20
197.7720246905929
 30
0.0
 40
2.750000000000033
100
AcDbArc
 50
287.411914601746
 51
72.58808539825401
  0
ARC
  5
3DB
330
1F
100
AcDbEntity
  8
0
  6
CONTINUOUS
 62
     7
100
AcDbCircle
 10
124.4062038802671
 20
196.7720236905929
 30
0.0
 40
0.5000000000000007
100
AcDbArc
 50
90.00000299999607
 51
110.7434599764849
  0
ARC
  5
3DC
330
1F
100
AcDbEntity
  8
0
  6
CONTINUOUS
 62
     7
100
AcDbCircle
 10
123.4062038802671
 20
205.1449060018345
 30
0.0
 40
2.750000000000033
100
AcDbArc
 50
287.411914601746
 51
72.58808539825401
  0
ARC
  5
3DD
330
1F
100
AcDbEntity
  8
0
  6
CONTINUOUS
 62
     7
100
AcDbCircle
 10
124.4062038802671
 20
204.1449050018345
 30
0.0
 40
0.5000000000000007
100
AcDbArc
 50
90.00000299999607
 51
110.7434599764849
  0
ARC
  5
3DE
330
1F
100
AcDbEntity
  8
Z_OM_OUTLINE
  6
CONTINUOUS
 62
     7
100
AcDbCircle
 10
102.1231531164056
 20
205.5921941347163
 30
0.0
 40
2.064406767147514
100
AcDbArc
 50
101.0038140235005
 51
180.0
  0
ARC
  5
3DF
330
1F
100
AcDbEntity
  8
Z_OM_OUTLINE
  6
CONTINUOUS
 62
     7
100
AcDbCircle
 10
123.7502716293809
 20
146.8057538130836
 30
0.0
 40
2.064406767147663
100
AcDbArc
 50
283.4119308456658
 51
0.0
  0
ARC
  5
3E0
330
1F
100
AcDbEntity
  8
0
  6
CONTINUOUS
 62
     7
100
AcDbCircle
 10
101.4672209109303
 20
196.7720236905929
 30
0.0
 40
0.5000000000000542
100
AcDbArc
 50
58.41385998067138
 51
90.00000300000585
  0
ARC
  5
3E1
330
1F
100
AcDbEntity
  8
0
  6
CONTINUOUS
 62
     7
100
AcDbCircle
 10
102.4672209109303
 20
197.7720246905929
 30
0.0
 40
1.600000000000035
100
AcDbArc
 50
161.7900379999875
 51
198.2099590000127
  0
ARC
  5
3E2
330
1F
100
AcDbEntity
  8
0
  6
CONTINUOUS
 62
     7
100
AcDbCircle
 10
123.4062038802671
 20
205.1449060018345
 30
0.0
 40
1.599999999999957
100
AcDbArc
 50
341.7900430000039
 51
18.20995699999608
  0
ARC
  5
3E3
330
1F
100
AcDbEntity
  8
0
  6
CONTINUOUS
 62
     7
100
AcDbCircle
 10
124.4062038802671
 20
206.1449060018345
 30
0.0
 40
0.4999999999999638
100
AcDbArc
 50
249.2565400235151
 51
270.0000009999949
  0
ARC
  5
3E4
330
1F
100
AcDbEntity
  8
0
  6
CONTINUOUS
 62
     7
100
AcDbCircle
 10
123.4062038802671
 20
197.7720246905929
 30
0.0
 40
1.599999999999957
100
AcDbArc
 50
341.7900430000039
 51
18.20995699999608
  0
ARC
  5
3E5
330
1F
100
AcDbEntity
  8
0
  6
CONTINUOUS
 62
     7
100
AcDbCircle
 10
124.4062038802671
 20
198.7720246905929
 30
0.0
 40
0.4999999999999638
100
AcDbArc
 50
249.2565400235151
 51
270.0000009999949
  0
ARC
  5
3E6
330
1F
100
AcDbEntity
  8
0
  6
CONTINUOUS
 62
     7
100
AcDbCircle
 10
124.4062038802671
 20
155.6259242572071
 30
0.0
 40
0.4999999999999638
100
AcDbArc
 50
249.2565400235151
 51
269.9999970000039
  0
ARC
  5
3E7
330
1F
100
AcDbEntity
  8
0
  6
CONTINUOUS
 62
     7
100
AcDbCircle
 10
123.4062038802671
 20
154.6259232572071
 30
0.0
 40
1.599999999999948
100
AcDbArc
 50
341.7900430000049
 51
18.20995699999608
  0
ARC
  5
3E8
330
1F
100
AcDbEntity
  8
0
  6
CONTINUOUS
 62
     7
100
AcDbCircle
 10
102.4672209109303
 20
154.6259232572071
 30
0.0
 40
1.60000000000012
100
AcDbArc
 50
161.7900409999835
 51
198.2099620000116
  0
ARC
  5
3E9
330
1F
100
AcDbEntity
  8
0
  6
CONTINUOUS
 62
     7
100
AcDbCircle
 10
101.4672209109303
 20
153.6259232572071
 30
0.0
 40
0.5000000000000542
100
AcDbArc
 50
58.41385998067138
 51
90.00000300000585
  0
ARC
  5
3EA
330
1F
100
AcDbEntity
  8
1
  6
CONTINUOUS
 62
     7
100
AcDbCircle
 10
119.9791108389
 20
201.9489739739
 30
0.0
 40
0.5
100
AcDbArc
 50
0.0
 51
90.0
  0
ARC
  5
3EB
330
1F
100
AcDbEntity
  8
1
  6
CONTINUOUS
 62
     7
100
AcDbCircle
 10
105.9791108389
 20
201.9489739739
 30
0.0
 40
0.5
100
AcDbArc
 50
90.0
 51
180.0
  0
ARC
  5
3EC
330
1F
100
AcDbEntity
  8
1
  6
CONTINUOUS
 62
     7
100
AcDbCircle
 10
105.9791108389
 20
177.4489739739
 30
0.0
 40
0.5
100
AcDbArc
 50
180.0
 51
270.0
  0
ARC
  5
3ED
330
1F
100
AcDbEntity
  8
1
  6
CONTINUOUS
 62
     7
100
AcDbCircle
 10
119.9791108389
 20
177.4489739739
 30
0.0
 40
0.5
100
AcDbArc
 50
270.0
 51
0.0
  0
ARC
  5
3EE
330
1F
100
AcDbEntity
  8
1
  6
CONTINUOUS
 62
     7
100
AcDbCircle
 10
122.279111569
 20
126.1989725136
 30
0.0
 40
0.7000000000000028
100
AcDbArc
 50
270.0
 51
0.0
  0
ARC
  5
3EF
330
1F
100
AcDbEntity
  8
1
  6
CONTINUOUS
 62
     7
100
AcDbCircle
 10
103.6791108864
 20
126.1989725136
 30
0.0
 40
0.7000000000000028
100
AcDbArc
 50
180.0
 51
270.0
  0
ARC
  5
3F0
330
1F
100
AcDbEntity
  8
1
  6
CONTINUOUS
 62
     7
100
AcDbCircle
 10
103.6791108864
 20
210.2989754342
 30
0.0
 40
0.6999999999999886
100
AcDbArc
 50
90.0
 51
180.0
  0
ARC
  5
3F1
330
1F
100
AcDbEntity
  8
1
  6
CONTINUOUS
 62
     7
100
AcDbCircle
 10
122.279111569
 20
210.2989754342
 30
0.0
 40
0.7000000000000028
100
AcDbArc
 50
0.0
 51
90.0
  0
ARC
  5
3F2
330
1F
100
AcDbEntity
  8
1
  6
CONTINUOUS
 62
     7
100
AcDbCircle
 10
121.8791115689999
 20
209.8989754342
 30
0.0
 40
0.2999999999999972
100
AcDbArc
 50
0.0
 51
90.0
  0
ARC
  5
3F3
330
1F
100
AcDbEntity
  8
1
  6
CONTINUOUS
 62
     7
100
AcDbCircle
 10
121.8791115689999
 20
209.8989754342
 30
0.0
 40
0.7000000000001023
100
AcDbArc
 50
0.0
 51
90.0
  0
ARC
  5
3F4
330
1F
100
AcDbEntity
  8
1
  6
CONTINUOUS
 62
     7
100
AcDbCircle
 10
104.0791108864
 20
209.8989754342
 30
0.0
 40
0.3000000000000114
100
AcDbArc
 50
90.0
 51
180.0
  0
ARC
  5
3F5
330
1F
100
AcDbEntity
  8
1
  6
CONTINUOUS
 62
     7
100
AcDbCircle
 10
104.0791108864
 20
209.8989754342
 30
0.0
 40
0.7000000000001023
100
AcDbArc
 50
89.99999999999186
 51
180.0
  0
ARC
  5
3F6
330
1F
100
AcDbEntity
  8
1
  6
CONTINUOUS
 62
     7
100
AcDbCircle
 10
104.0791108864
 20
126.5989725136
 30
0.0
 40
0.7000000000000028
100
AcDbArc
 50
180.0
 51
270.0000000000081
  0
ARC
  5
3F7
330
1F
100
AcDbEntity
  8
1
  6
CONTINUOUS
 62
     7
100
AcDbCircle
 10
104.0791108864
 20
126.5989725136
 30
0.0
 40
0.2999999999999972
100
AcDbArc
 50
180.0
 51
270.0
  0
ARC
  5
3F8
330
1F
100
AcDbEntity
  8
1
  6
CONTINUOUS
 62
     7
100
AcDbCircle
 10
121.8791115689999
 20
126.5989725136
 30
0.0
 40
0.7000000000001023
100
AcDbArc
 50
270.0
 51
0.0
  0
ARC
  5
3F9
330
1F
100
AcDbEntity
  8
1
  6
CONTINUOUS
 62
     7
100
AcDbCircle
 10
121.8791115689999
 20
126.5989725136
 30
0.0
 40
0.2999999999999972
100
AcDbArc
 50
270.0
 51
0.0
  0
ARC
  5
3FA
330
1F
100
AcDbEntity
  8
0
  6
CONTINUOUS
 62
     7
100
AcDbCircle
 10
112.9791108389
 20
169.2489739739
 30
0.0
 40
3.999999999999933
100
AcDbArc
 50
16.32877405140712
 51
17.37598985249675
  0
ARC
  5
3FB
330
1F
100
AcDbEntity
  8
0
  6
CONTINUOUS
 62
     7
100
AcDbCircle
 10
112.9791108389
 20
169.2489739739
 30
0.0
 40
4.000000000000045
100
AcDbArc
 50
4.32877405140663
 51
5.37598985249686
  0
ARC
  5
3FC
330
1F
100
AcDbEntity
  8
0
  6
CONTINUOUS
 62
     7
100
AcDbCircle
 10
112.9791108389
 20
169.2489739739
 30
0.0
 40
4.000000000000389
100
AcDbArc
 50
352.3287740514059
 51
353.3759898525039
  0
ARC
  5
3FD
330
1F
100
AcDbEntity
  8
0
  6
CONTINUOUS
 62
     7
100
AcDbCircle
 10
112.9791108389
 20
169.2489739739
 30
0.0
 40
4.000000000000137
100
AcDbArc
 50
340.3287740514006
 51
341.3759898524962
  0
ARC
  5
3FE
330
1F
100
AcDbEntity
  8
0
  6
CONTINUOUS
 62
     7
100
AcDbCircle
 10
112.9791108389
 20
169.2489739739
 30
0.0
 40
3.999999999999614
100
AcDbArc
 50
328.3287740514024
 51
329.3759898525005
  0
ARC
  5
3FF
330
1F
100
AcDbEntity
  8
0
  6
CONTINUOUS
 62
     7
100
AcDbCircle
 10
112.9791108389
 20
169.2489739739
 30
0.0
 40
3.999999999999498
100
AcDbArc
 50
316.3287740514023
 51
317.3759898525003
  0
ARC
  5
400
330
1F
100
AcDbEntity
  8
0
  6
CONTINUOUS
 62
     7
100
AcDbCircle
 10
112.9791108389
 20
169.2489739739
 30
0.0
 40
3.999999999999868
100
AcDbArc
 50
304.3287740514036
 51
305.3759898524974
  0
ARC
  5
401
330
1F
100
AcDbEntity
  8
0
  6
CONTINUOUS
 62
     7
100
AcDbCircle
 10
112.9791108389
 20
169.2489739739
 30
0.0
 40
3.999999999999856
100
AcDbArc
 50
292.3287740513941
 51
293.3759898525041
  0
ARC
  5
402
330
1F
100
AcDbEntity
  8
0
  6
CONTINUOUS
 62
     7
100
AcDbCircle
 10
112.9791108389
 20
169.2489739739
 30
0.0
 40
4.000000000000151
100
AcDbArc
 50
280.3287740514034
 51
281.3759898525029
  0
ARC
  5
403
330
1F
100
AcDbEntity
  8
0
  6
CONTINUOUS
 62
     7
100
AcDbCircle
 10
112.9791108389
 20
169.2489739739
 30
0.0
 40
3.999999999999661
100
AcDbArc
 50
268.3287740513987
 51
269.3759898524953
  0
ARC
  5
404
330
1F
100
AcDbEntity
  8
0
  6
CONTINUOUS
 62
     7
100
AcDbCircle
 10
112.9791108389
 20
169.2489739739
 30
0.0
 40
4.000000000000038
100
AcDbArc
 50
256.3287740513994
 51
257.3759898525003
  0
ARC
  5
405
330
1F
100
AcDbEntity
  8
0
  6
CONTINUOUS
 62
     7
100
AcDbCircle
 10
112.9791108389
 20
169.2489739739
 30
0.0
 40
4.000000000000161
100
AcDbArc
 50
244.3287740514031
 51
245.3759898524982
  0
ARC
  5
406
330
1F
100
AcDbEntity
  8
0
  6
CONTINUOUS
 62
     7
100
AcDbCircle
 10
112.9791108389
 20
169.2489739739
 30
0.0
 40
4.000000000000244
100
AcDbArc
 50
232.328774051405
 51
233.3759898525035
  0
ARC
  5
407
330
1F
100
AcDbEntity
  8
0
  6
CONTINUOUS
 62
     7
100
AcDbCircle
 10
112.9791108389
 20
169.2489739739
 30
0.0
 40
3.99999999999997
100
AcDbArc
 50
220.3287740514021
 51
221.3759898525031
  0
ARC
  5
408
330
1F
100
AcDbEntity
  8
0
  6
CONTINUOUS
 62
     7
100
AcDbCircle
 10
112.9791108389
 20
169.2489739739
 30
0.0
 40
3.999999999999871
100
AcDbArc
 50
208.3287740514015
 51
209.3759898524928
  0
ARC
  5
409
330
1F
100
AcDbEntity
  8
0
  6
CONTINUOUS
 62
     7
100
AcDbCircle
 10
112.9791108389
 20
169.2489739739
 30
0.0
 40
3.999999999999941
100
AcDbArc
 50
196.3287740514075
 51
197.3759898524968
  0
ARC
  5
40A
330
1F
100
AcDbEntity
  8
0
  6
CONTINUOUS
 62
     7
100
AcDbCircle
 10
112.9791108389
 20
169.2489739739
 30
0.0
 40
4.000000000000048
100
AcDbArc
 50
184.328774051407
 51
185.3759898524968
  0
ARC
  5
40B
330
1F
100
AcDbEntity
  8
0
  6
CONTINUOUS
 62
     7
100
AcDbCircle
 10
112.9791108389
 20
169.2489739739
 30
0.0
 40
4.000000000000385
100
AcDbArc
 50
172.3287740514063
 51
173.3759898525044
  0
ARC
  5
40C
330
1F
100
AcDbEntity
  8
0
  6
CONTINUOUS
 62
     7
100
AcDbCircle
 10
112.9791108389
 20
169.2489739739
 30
0.0
 40
4.000000000000137
100
AcDbArc
 50
160.3287740514006
 51
161.3759898524965
  0
ARC
  5
40D
330
1F
100
AcDbEntity
  8
0
  6
CONTINUOUS
 62
     7
100
AcDbCircle
 10
112.9791108389
 20
169.2489739739
 30
0.0
 40
3.999999999999599
100
AcDbArc
 50
148.3287740514027
 51
149.3759898525005
  0
ARC
  5
40E
330
1F
100
AcDbEntity
  8
0
  6
CONTINUOUS
 62
     7
100
AcDbCircle
 10
112.9791108389
 20
169.2489739739
 30
0.0
 40
4.000000000000185
100
AcDbArc
 50
136.3287740513919
 51
137.3759898525006
  0
ARC
  5
40F
330
1F
100
AcDbEntity
  8
0
  6
CONTINUOUS
 62
     7
100
AcDbCircle
 10
112.9791108389
 20
169.2489739739
 30
0.0
 40
3.999999999999868
100
AcDbArc
 50
124.3287740514037
 51
125.3759898524975
  0
ARC
  5
410
330
1F
100
AcDbEntity
  8
0
  6
CONTINUOUS
 62
     7
100
AcDbCircle
 10
112.9791108389
 20
169.2489739739
 30
0.0
 40
3.999999999999856
100
AcDbArc
 50
112.328774051394
 51
113.3759898525042
  0
ARC
  5
411
330
1F
100
AcDbEntity
  8
0
  6
CONTINUOUS
 62
     7
100
AcDbCircle
 10
112.9791108389
 20
169.2489739739
 30
0.0
 40
4.000000000000151
100
AcDbArc
 50
100.3287740514034
 51
101.3759898525029
  0
ARC
  5
412
330
1F
100
AcDbEntity
  8
0
  6
CONTINUOUS
 62
     7
100
AcDbCircle
 10
112.9791108389
 20
169.2489739739
 30
0.0
 40
3.999999999999661
100
AcDbArc
 50
88.32877405139871
 51
89.37598985249527
  0
ARC
  5
413
330
1F
100
AcDbEntity
  8
0
  6
CONTINUOUS
 62
     7
100
AcDbCircle
 10
112.9791108389
 20
169.2489739739
 30
0.0
 40
4.000000000000011
100
AcDbArc
 50
76.32877405139928
 51
77.37598985250015
  0
ARC
  5
414
330
1F
100
AcDbEntity
  8
0
  6
CONTINUOUS
 62
     7
100
AcDbCircle
 10
112.9791108389
 20
169.2489739739
 30
0.0
 40
4.000000000000135
100
AcDbArc
 50
64.32877405140295
 51
65.37598985249822
  0
ARC
  5
415
330
1F
100
AcDbEntity
  8
0
  6
CONTINUOUS
 62
     7
100
AcDbCircle
 10
112.9791108389
 20
169.2489739739
 30
0.0
 40
4.000000000000222
100
AcDbArc
 50
52.3287740514048
 51
53.37598985250325
  0
ARC
  5
416
330
1F
100
AcDbEntity
  8
0
  6
CONTINUOUS
 62
     7
100
AcDbCircle
 10
112.9791108389
 20
169.2489739739
 30
0.0
 40
3.99999999999997
100
AcDbArc
 50
40.32877405140218
 51
41.37598985250263
  0
ARC
  5
417
330
1F
100
AcDbEntity
  8
0
  6
CONTINUOUS
 62
     7
100
AcDbCircle
 10
112.9791108389
 20
169.2489739739
 30
0.0
 40
3.999999999999858
100
AcDbArc
 50
28.32877405140112
 51
29.37598985249281
  0
ARC
  5
418
330
1F
100
AcDbEntity
  8
0
  6
CONTINUOUS
 62
     7
100
AcDbCircle
 10
159.2143052506
 20
169.2489739739
 30
0.0
 40
6.318055555556101
100
AcDbArc
 50
149.0427236691981
 51
210.9572763308021
  0
ARC
  5
419
330
1F
100
AcDbEntity
  8
0
  6
CONTINUOUS
 62
     7
100
AcDbCircle
 10
218.8962496951
 20
209.7489739739
 30
0.0
 40
0.2999999999999829
100
AcDbArc
 50
90.0
 51
180.0
  0
ARC
  5
41A
330
1F
100
AcDbEntity
  8
0
  6
CONTINUOUS
 62
     7
100
AcDbCircle
 10
232.2962496951
 20
209.7489739739
 30
0.0
 40
0.3000000000000114
100
AcDbArc
 50
0.0
 51
90.0
  0
ARC
  5
41B
330
1F
100
AcDbEntity
  8
0
  6
CONTINUOUS
 62
     7
100
AcDbCircle
 10
223.8962496951
 20
209.7489739739
 30
0.0
 40
0.2999999999999829
100
AcDbArc
 50
90.0
 51
180.0
  0
ARC
  5
41C
330
1F
100
AcDbEntity
  8
0
  6
CONTINUOUS
 62
     7
100
AcDbCircle
 10
189.2462496951
 20
130.2489739739
 30
0.0
 40
1.300000000000011
100
AcDbArc
 50
270.0
 51
90.0
  0
ARC
  5
41D
330
1F
100
AcDbEntity
  8
0
  6
CONTINUOUS
 62
     7
100
AcDbCircle
 10
183.2462496951
 20
130.2489739739
 30
0.0
 40
1.299999999999983
100
AcDbArc
 50
90.0
 51
270.0
  0
ARC
  5
41E
330
1F
100
AcDbEntity
  8
0
  6
CONTINUOUS
 62
     7
100
AcDbCircle
 10
232.3962496951
 20
208.5489739739
 30
0.0
 40
0.500000000000021
100
AcDbArc
 50
0.86397053619058
 51
89.13602946381269
  0
ARC
  5
41F
330
1F
100
AcDbEntity
  8
0
  6
CONTINUOUS
 62
     7
100
AcDbCircle
 10
232.3962496951
 20
126.2489739739
 30
0.0
 40
0.5000000000000207
100
AcDbArc
 50
270.8639705361873
 51
359.136029463811
  0
ARC
  5
420
330
1F
100
AcDbEntity
  8
0
  6
CONTINUOUS
 62
     7
100
AcDbCircle
 10
232.3962496951
 20
208.5489739739
 30
0.0
 40
0.5
100
AcDbArc
 50
0.0
 51
0.86397053619058
  0
ARC
  5
421
330
1F
100
AcDbEntity
  8
0
  6
CONTINUOUS
 62
     7
100
AcDbCircle
 10
232.3962496951
 20
126.2489739739
 30
0.0
 40
0.5000000000000209
100
AcDbArc
 50
359.136029463811
 51
0.0
  0
ARC
  5
422
330
1F
100
AcDbEntity
  8
0
  6
CONTINUOUS
 62
     7
100
AcDbCircle
 10
232.3962496951
 20
208.5489739739
 30
0.0
 40
0.5000000000000207
100
AcDbArc
 50
89.13602946381269
 51
90.0
  0
ARC
  5
423
330
1F
100
AcDbEntity
  8
0
  6
CONTINUOUS
 62
     7
100
AcDbCircle
 10
232.3962496951
 20
126.2489739739
 30
0.0
 40
0.5
100
AcDbArc
 50
270.0
 51
270.8639705361873
  0
ARC
  5
424
330
1F
100
AcDbEntity
  8
0
  6
CONTINUOUS
 62
     7
100
AcDbCircle
 10
217.7893533801
 20
210.2489739739
 30
0.0
 40
0.5000000000001331
100
AcDbArc
 50
5.00000000001808
 51
90.0
  0
ARC
  5
425
330
1F
100
AcDbEntity
  8
1
  6
CONTINUOUS
 62
     7
100
AcDbCircle
 10
105.6791112276999
 20
142.9489739739
 30
0.0
 40
0.1999999999998039
100
AcDbArc
 50
180.0
 51
270.0
  0
ARC
  5
426
330
1F
100
AcDbEntity
  8
1
  6
CONTINUOUS
 62
     7
100
AcDbCircle
 10
111.2791112277002
 20
142.9489739739
 30
0.0
 40
0.2000000000001023
100
AcDbArc
 50
270.0
 51
0.0
  0
ARC
  5
427
330
1F
100
AcDbEntity
  8
1
  6
CONTINUOUS
 62
     7
100
AcDbCircle
 10
105.6791112276999
 20
142.9489739739
 30
0.0
 40
0.6999999999998039
100
AcDbArc
 50
180.0
 51
270.0
  0
ARC
  5
428
330
1F
100
AcDbEntity
  8
1
  6
CONTINUOUS
 62
     7
100
AcDbCircle
 10
111.2791112277002
 20
142.9489739739
 30
0.0
 40
0.7000000000001023
100
AcDbArc
 50
270.0
 51
359.9999999999931
  0
ARC
  5
429
330
1F
100
AcDbEntity
  8
1
  6
CONTINUOUS
 62
     7
100
AcDbCircle
 10
105.6791112276999
 20
150.1489739739
 30
0.0
 40
0.6999999999999886
100
AcDbArc
 50
90.0
 51
180.0
  0
ARC
  5
42A
330
1F
100
AcDbEntity
  8
1
  6
CONTINUOUS
 62
     7
100
AcDbCircle
 10
111.2791112277002
 20
150.1489739739
 30
0.0
 40
0.6999999999999034
100
AcDbArc
 50
0.0
 51
90.0
  0
ARC
  5
42B
330
1F
100
AcDbEntity
  8
1
  6
CONTINUOUS
 62
     7
100
AcDbCircle
 10
111.2791112277002
 20
130.3489739739
 30
0.0
 40
0.7000000000001023
100
AcDbArc
 50
270.0
 51
359.9999999999837
  0
ARC
  5
42C
330
1F
100
AcDbEntity
  8
1
  6
CONTINUOUS
 62
     7
100
AcDbCircle
 10
105.6791112276999
 20
130.3489739739
 30
0.0
 40
0.6999999999998039
100
AcDbArc
 50
180.0
 51
270.0
  0
ARC
  5
42D
330
1F
100
AcDbEntity
  8
1
  6
CONTINUOUS
 62
     7
100
AcDbCircle
 10
111.2791112277002
 20
137.5489739738998
 30
0.0
 40
0.6999999999999034
100
AcDbArc
 50
0.00000000000931
 51
90.0
  0
ARC
  5
42E
330
1F
100
AcDbEntity
  8
1
  6
CONTINUOUS
 62
     7
100
AcDbCircle
 10
105.6791112276999
 20
137.5489739738998
 30
0.0
 40
0.7000000000001023
100
AcDbArc
 50
90.0
 51
180.0
  0
ARC
  5
42F
330
1F
100
AcDbEntity
  8
1
  6
CONTINUOUS
 62
     7
100
AcDbCircle
 10
111.2791112277002
 20
137.5489739738998
 30
0.0
 40
0.1999999999999034
100
AcDbArc
 50
0.0
 51
90.0
  0
ARC
  5
430
330
1F
100
AcDbEntity
  8
1
  6
CONTINUOUS
 62
     7
100
AcDbCircle
 10
105.6791112276999
 20
137.5489739738998
 30
0.0
 40
0.2000000000001023
100
AcDbArc
 50
90.0
 51
180.0
  0
ARC
  5
431
330
1F
100
AcDbEntity
  8
1
  6
CONTINUOUS
 62
     7
100
AcDbCircle
 10
120.2791112277002
 20
137.5489739738998
 30
0.0
 40
0.1999999999999034
100
AcDbArc
 50
0.0
 51
90.0
  0
ARC
  5
432
330
1F
100
AcDbEntity
  8
1
  6
CONTINUOUS
 62
     7
100
AcDbCircle
 10
114.6791112277
 20
137.5489739738998
 30
0.0
 40
0.2000000000001023
100
AcDbArc
 50
90.0
 51
180.0
  0
ARC
  5
433
330
1F
100
AcDbEntity
  8
1
  6
CONTINUOUS
 62
     7
100
AcDbCircle
 10
120.2791112277002
 20
137.5489739738998
 30
0.0
 40
0.6999999999999034
100
AcDbArc
 50
0.0
 51
90.0
  0
ARC
  5
434
330
1F
100
AcDbEntity
  8
1
  6
CONTINUOUS
 62
     7
100
AcDbCircle
 10
114.6791112277
 20
137.5489739738998
 30
0.0
 40
0.7000000000001023
100
AcDbArc
 50
90.0
 51
179.9999999999907
  0
ARC
  5
435
330
1F
100
AcDbEntity
  8
1
  6
CONTINUOUS
 62
     7
100
AcDbCircle
 10
120.2791112277002
 20
130.3489739739
 30
0.0
 40
0.7000000000001023
100
AcDbArc
 50
270.0
 51
0.0
  0
ARC
  5
436
330
1F
100
AcDbEntity
  8
1
  6
CONTINUOUS
 62
     7
100
AcDbCircle
 10
114.6791112277
 20
130.3489739739
 30
0.0
 40
0.6999999999999034
100
AcDbArc
 50
180.0000000000163
 51
270.0
  0
ARC
  5
437
330
1F
100
AcDbEntity
  8
1
  6
CONTINUOUS
 62
     7
100
AcDbCircle
 10
114.6791112277
 20
150.1489739739
 30
0.0
 40
0.6999999999999886
100
AcDbArc
 50
90.0
 51
180.0
  0
ARC
  5
438
330
1F
100
AcDbEntity
  8
1
  6
CONTINUOUS
 62
     7
100
AcDbCircle
 10
120.2791112277002
 20
150.1489739739
 30
0.0
 40
0.6999999999999034
100
AcDbArc
 50
0.0
 51
90.0
  0
ARC
  5
439
330
1F
100
AcDbEntity
  8
1
  6
CONTINUOUS
 62
     7
100
AcDbCircle
 10
114.6791112277
 20
142.9489739739
 30
0.0
 40
0.6999999999999034
100
AcDbArc
 50
180.000000000007
 51
270.0
  0
ARC
  5
43A
330
1F
100
AcDbEntity
  8
1
  6
CONTINUOUS
 62
     7
100
AcDbCircle
 10
120.2791112277002
 20
142.9489739739
 30
0.0
 40
0.7000000000001023
100
AcDbArc
 50
270.0
 51
0.0
  0
ARC
  5
43B
330
1F
100
AcDbEntity
  8
1
  6
CONTINUOUS
 62
     7
100
AcDbCircle
 10
114.6791112277
 20
142.9489739739
 30
0.0
 40
0.1999999999999034
100
AcDbArc
 50
180.0
 51
270.0
  0
ARC
  5
43C
330
1F
100
AcDbEntity
  8
1
  6
CONTINUOUS
 62
     7
100
AcDbCircle
 10
120.2791112277002
 20
142.9489739739
 30
0.0
 40
0.2000000000001023
100
AcDbArc
 50
270.0
 51
0.0
  0
CIRCLE
  5
43D
330
1F
100
AcDbEntity
  8
0
  6
CONTINUOUS
 62
     7
100
AcDbCircle
 10
112.9791108389
 20
169.2489739739
 30
0.0
 40
3.25
  0
CIRCLE
  5
43E
330
1F
100
AcDbEntity
  8
0
  6
CONTINUOUS
 62
     7
100
AcDbCircle
 10
166.8962496951
 20
206.2489739739
 30
0.0
 40
0.549999999999983
  0
CIRCLE
  5
43F
330
1F
100
AcDbEntity
  8
0
  6
CONTINUOUS
 62
     7
100
AcDbCircle
 10
166.8962496951
 20
130.2489739739
 30
0.0
 40
0.549999999999983
  0
CIRCLE
  5
440
330
1F
100
AcDbEntity
  8
0
  6
CONTINUOUS
 62
     7
100
AcDbCircle
 10
166.8962496951
 20
168.2489739739
 30
0.0
 40
0.549999999999983
  0
CIRCLE
  5
441
330
1F
100
AcDbEntity
  8
1
  6
CONTINUOUS
 62
     7
100
AcDbCircle
 10
108.4791112277001
 20
157.2489739738999
 30
0.0
 40
1.800000000000097
  0
CIRCLE
  5
442
330
1F
100
AcDbEntity
  8
1
  6
CONTINUOUS
 62
     7
100
AcDbCircle
 10
108.4791112277001
 20
145.2489739738999
 30
0.0
 40
1.800000000000097
  0
CIRCLE
  5
443
330
1F
100
AcDbEntity
  8
1
  6
CONTINUOUS
 62
     7
100
AcDbCircle
 10
108.4791112277001
 20
135.2489739738999
 30
0.0
 40
1.800000000000097
  0
CIRCLE
  5
444
330
1F
100
AcDbEntity
  8
1
  6
CONTINUOUS
 62
     7
100
AcDbCircle
 10
117.4791112277001
 20
135.2489739738999
 30
0.0
 40
1.800000000000097
  0
CIRCLE
  5
445
330
1F
100
AcDbEntity
  8
1
  6
CONTINUOUS
 62
     7
100
AcDbCircle
 10
117.4791112277001
 20
145.2489739738999
 30
0.0
 40
1.800000000000097
  0
SPLINE
  5
446
330
1F
100
AcDbEntity
  8
黒地
  6
CONTINUOUS
 62
     7
100
AcDbSpline
210
0.0
220
0.0
230
1.0
 70
  1067
 71
     3
 72
    51
 73
    47
 74
    45
 42
0.000000001
 43
0.0000000001
 44
0.00000001
 40
0.0
 40
0.0
 40
0.0
 40
0.0
 40
0.0529100078344262
 40
0.1340595284585339
 40
0.2185956036623112
 40
0.2719170458824827
 40
0.3281741531932674
 40
0.4623257179149299
 40
0.6224421019850944
 40
0.7565936670596977
 40
0.8128507749964989
 40
0.8696748835774252
 40
1.011735155051931
 40
1.196413508011795
 40
1.381091861026555
 40
1.523152132626643
 40
1.579976241282247
 40
1.632053617998388
 40
1.756238131607199
 40
1.904458357250456
 40
2.028642870245585
 40
2.080720246513516
 40
2.285192250379148
 40
2.502889326537017
 40
2.792492991569279
 40
3.181401441039797
 40
3.473544166514682
 40
3.745239206996406
 40
3.966603600781191
 40
4.137966358949612
 40
4.196033531954228
 40
4.334501405888446
 40
4.499769513134467
 40
4.638237386426155
 40
4.696304559004844
 40
4.747893055615904
 40
4.876864297147904
 40
5.044526911137623
 40
5.212189524747558
 40
5.341160762118761
 40
5.392749254620696
 40
5.449006362553632
 40
5.583157927623319
 40
5.74327431173316
 40
5.877425876749328
 40
5.933682974850086
 40
5.933682974850086
 40
5.933682974850086
 40
5.933682974850086
 10
105.4633272864637
 20
206.6359910329422
 30
0.0
 10
105.456112024192
 20
206.6183835949558
 30
0.0
 10
105.4378305320802
 20
206.5737711410147
 30
0.0
 10
105.3548047990051
 20
206.5759825380111
 30
0.0
 10
105.2761219413032
 20
206.573022083412
 30
0.0
 10
105.2395737983456
 20
206.6367861954691
 30
0.0
 10
105.2510771755789
 20
206.7184373261888
 30
0.0
 10
105.2430649089544
 20
206.8338818567154
 30
0.0
 10
105.2513311936152
 20
206.9824712938866
 30
0.0
 10
105.2355804272072
 20
207.0840859794217
 30
0.0
 10
105.2615003290247
 20
207.1923795396026
 30
0.0
 10
105.1496409444238
 20
207.1655115311286
 30
0.0
 10
105.0382258041319
 20
207.1827015507972
 30
0.0
 10
104.8627350716871
 20
207.1736045106127
 30
0.0
 10
104.6869040175436
 20
207.1828965074136
 30
0.0
 10
104.5761367972581
 20
207.1650766303762
 30
0.0
 10
104.4651130202651
 20
207.1925141577811
 30
0.0
 10
104.4885441286803
 20
207.0913674890124
 30
0.0
 10
104.4750918750018
 20
206.9967296145306
 30
0.0
 10
104.4798238359138
 20
206.8595063496387
 30
0.0
 10
104.4796731589246
 20
206.7522734564781
 30
0.0
 10
104.4771953378722
 20
206.6256422984617
 30
0.0
 10
104.5155509604569
 20
206.4612862225846
 30
0.0
 10
104.7171029221979
 20
206.311556945682
 30
0.0
 10
105.0092013528293
 20
206.2390587481144
 30
0.0
 10
105.3330230480606
 20
206.2181980430423
 30
0.0
 10
105.6524618643253
 20
206.2414943567828
 30
0.0
 10
105.9015599724825
 20
206.3184367709911
 30
0.0
 10
106.1060507056453
 20
206.428676566742
 30
0.0
 10
106.1633511661826
 20
206.5808879892904
 30
0.0
 10
106.1584327449711
 20
206.7035115137486
 30
0.0
 10
106.159170848765
 20
206.8228482788434
 30
0.0
 10
106.1646670377374
 20
206.976501758665
 30
0.0
 10
106.1481290767584
 20
207.0803939556348
 30
0.0
 10
106.175746784582
 20
207.190751033898
 30
0.0
 10
106.072738926917
 20
207.1672238475815
 30
0.0
 10
105.9706364631827
 20
207.1818289771221
 30
0.0
 10
105.8115730318233
 20
207.1741323128525
 30
0.0
 10
105.6523799847354
 20
207.181901525214
 30
0.0
 10
105.550524294425
 20
207.1670619986427
 30
0.0
 10
105.4479031527642
 20
207.1908012569839
 30
0.0
 10
105.4744525259021
 20
207.0835713992061
 30
0.0
 10
105.4585103282334
 20
206.9826807755528
 30
0.0
 10
105.4644967111865
 20
206.8338845603543
 30
0.0
 10
105.4632298961643
 20
206.7183103938599
 30
0.0
 10
105.4633050755392
 20
206.6547656222513
 30
0.0
 10
105.4633272864637
 20
206.6359910329422
 30
0.0
 11
105.4633272864637
 21
206.6359910329422
 31
0.0
 11
105.4365977998293
 21
206.5903291978995
 31
0.0
 11
105.3569075596211
 21
206.5750089422795
 31
0.0
 11
105.273771299856
 21
206.5903291978995
 31
0.0
 11
105.2462363580481
 21
206.6359910329422
 31
0.0
 11
105.2462363580481
 21
206.6922481408765
 31
0.0
 11
105.2462363580481
 21
206.8263997059507
 31
0.0
 11
105.2462363580481
 21
206.9865160900714
 31
0.0
 11
105.2462363580481
 21
207.1206676551456
 31
0.0
 11
105.2462363580481
 21
207.1769247630799
 31
0.0
 11
105.1894122490371
 21
207.1769247630799
 31
0.0
 11
105.0473519765097
 21
207.1769247630799
 31
0.0
 11
104.8626736222241
 21
207.1769247630799
 31
0.0
 11
104.6779952679384
 21
207.1769247630799
 31
0.0
 11
104.535934995411
 21
207.1769247630799
 31
0.0
 11
104.4791108864
 21
207.1769247630799
 31
0.0
 11
104.4791108864
 21
207.1248473862398
 31
0.0
 11
104.4791108864
 21
207.0006628722366
 31
0.0
 11
104.4791108864
 21
206.8524426458456
 31
0.0
 11
104.4791108864
 21
206.7282581318423
 31
0.0
 11
104.4791108864
 21
206.6761807550022
 31
0.0
 11
104.5345149923946
 21
206.4793580265518
 31
0.0
 11
104.7007356140399
 21
206.3387780739159
 31
0.0
 11
104.9777852068284
 21
206.2544346693483
 31
0.0
 11
105.3656762262524
 21
206.2263215851026
 31
0.0
 11
105.6565867061376
 21
206.2531258046912
 31
0.0
 11
105.9161093452406
 21
206.3335384634573
 31
0.0
 11
106.0988978476584
 21
206.458400622675
 31
0.0
 11
106.1597719907205
 21
206.6185865582652
 31
0.0
 11
106.1597719907205
 21
206.676653731566
 31
0.0
 11
106.1597719907205
 21
206.81512160636
 31
0.0
 11
106.1597719907205
 21
206.9803897149851
 31
0.0
 11
106.1597719907205
 21
207.1188575897792
 31
0.0
 11
106.1597719907205
 21
207.1769247630799
 31
0.0
 11
106.1081834941089
 21
207.1769247630799
 31
0.0
 11
105.9792122525799
 21
207.1769247630799
 31
0.0
 11
105.8115496385921
 21
207.1769247630799
 31
0.0
 11
105.6438870246044
 21
207.1769247630799
 31
0.0
 11
105.5149157830753
 21
207.1769247630799
 31
0.0
 11
105.4633272864637
 21
207.1769247630799
 31
0.0
 11
105.4633272864637
 21
207.1206676551456
 31
0.0
 11
105.4633272864637
 21
206.9865160900715
 31
0.0
 11
105.4633272864637
 21
206.8263997059507
 31
0.0
 11
105.4633272864637
 21
206.6922481408765
 31
0.0
 11
105.4633272864637
 21
206.6359910329422
 31
0.0
  0
SPLINE
  5
447
330
1F
100
AcDbEntity
  8
黒地
  6
CONTINUOUS
 62
     7
100
AcDbSpline
210
0.0
220
0.0
230
1.0
 70
  1067
 71
     3
 72
    54
 73
    50
 74
    48
 42
0.000000001
 43
0.0000000001
 44
0.00000001
 40
0.0
 40
0.0
 40
0.0
 40
0.0
 40
0.0535206834346688
 40
0.1380268193403752
 40
0.2191451508953419
 40
0.2722559377256242
 40
0.3237391704137803
 40
0.4465068801299946
 40
0.5930360823990166
 40
0.7158037924510618
 40
0.7672870257010582
 40
0.818875521928653
 40
0.9478467625331244
 40
1.11550937538373
 40
1.28317198829837
 40
1.412143229044339
 40
1.463731725353504
 40
1.510869419935765
 40
1.623274691591568
 40
1.757435822168552
 40
1.869841093583424
 40
1.916978787985918
 40
2.117088756568001
 40
2.320410097342089
 40
2.582082551044503
 40
2.930448099533766
 40
3.319528858638585
 40
3.611206809804359
 40
3.836460350366695
 40
4.056380666957641
 40
4.126219996303665
 40
4.300818319571339
 40
4.52779613960232
 40
4.754773959423408
 40
4.929372282296332
 40
4.999211611450936
 40
5.056035720382558
 40
5.198095992602551
 40
5.382774346031373
 40
5.567452698233287
 40
5.709512967729059
 40
5.766337075265672
 40
5.823296029786452
 40
5.970190175655962
 40
6.171045436334727
 40
6.389887735283129
 40
6.590742995961382
 40
6.737637141827567
 40
6.794596086451084
 40
6.794596086451084
 40
6.794596086451084
 40
6.794596086451084
 10
105.2462363580481
 20
208.3706591521962
 30
0.0
 10
105.2537549698863
 20
208.3883509364206
 30
0.0
 10
105.2731450305613
 20
208.4339770574194
 30
0.0
 10
105.3565085991462
 20
208.4305881995324
 30
0.0
 10
105.4352023765537
 20
208.4331505999099
 30
0.0
 10
105.4691298097909
 20
208.3712076563973
 30
0.0
 10
105.459240557907
 20
208.2953253574402
 30
0.0
 10
105.4660848850486
 20
208.1895145876776
 30
0.0
 10
105.4586841774319
 20
208.0535759744563
 30
0.0
 10
105.4731146152295
 20
207.9606266185039
 30
0.0
 10
105.4493465477116
 20
207.8616101335953
 30
0.0
 10
105.5509812216533
 20
207.8859486069489
 30
0.0
 10
105.6521925387861
 20
207.8704026944227
 30
0.0
 10
105.8114857083677
 20
207.8786387081517
 30
0.0
 10
105.9711329416974
 20
207.870200435268
 30
0.0
 10
106.071670176095
 20
207.886399798746
 30
0.0
 10
106.1724379907775
 20
207.8614702780037
 30
0.0
 10
106.1512457838985
 20
207.9530566729798
 30
0.0
 10
106.1634157852887
 20
208.038736260034
 30
0.0
 10
106.1590797396292
 20
208.162940128868
 30
0.0
 10
106.1593745355988
 20
208.2599930669439
 30
0.0
 10
106.1612429871455
 20
208.379642513468
 30
0.0
 10
106.1296768061586
 20
208.5357290286073
 30
0.0
 10
105.950335241082
 20
208.6864191941144
 30
0.0
 10
105.6856932188216
 20
208.7599002177964
 30
0.0
 10
105.3520937103223
 20
208.778826753389
 30
0.0
 10
105.0084003236689
 20
208.758532185069
 30
0.0
 10
104.7136212011586
 20
208.6782379135836
 30
0.0
 10
104.5129487917084
 20
208.5132113010707
 30
0.0
 10
104.4767036303486
 20
208.3347937572623
 30
0.0
 10
104.4801049416169
 20
208.1806860563218
 30
0.0
 10
104.478201905405
 20
208.022796243591
 30
0.0
 10
104.4814401755502
 20
207.8160345449249
 30
0.0
 10
104.4717778226448
 20
207.5969833442943
 30
0.0
 10
104.4944355870623
 20
207.4624908531115
 30
0.0
 10
104.4597334093138
 20
207.3273498963175
 30
0.0
 10
104.5744656814937
 20
207.3525747301721
 30
0.0
 10
104.6876977248109
 20
207.3372290615798
 30
0.0
 10
104.8625109904889
 20
207.3454666505156
 30
0.0
 10
105.0382250263182
 20
207.3367204735154
 30
0.0
 10
105.1497421386134
 20
207.353709284829
 30
0.0
 10
105.2616649730573
 20
207.3270083083193
 30
0.0
 10
105.2345206909112
 20
207.4410593634524
 30
0.0
 10
105.2521560112644
 20
207.5583174939093
 30
0.0
 10
105.2442628361202
 20
207.7550787495022
 30
0.0
 10
105.2467408935977
 20
207.9594503206221
 30
0.0
 10
105.2461416669698
 20
208.1489137651318
 30
0.0
 10
105.2462430727119
 20
208.283715092126
 30
0.0
 10
105.2462378237735
 20
208.3516713708203
 30
0.0
 10
105.2462363580481
 20
208.3706591521962
 30
0.0
 11
105.2462363580481
 21
208.3706591521962
 31
0.0
 11
105.273771299856
 21
208.4165534897633
 31
0.0
 11
105.3569075596211
 21
208.4317076721516
 31
0.0
 11
105.4365977998293
 21
208.4165534897633
 31
0.0
 11
105.4633272864637
 21
208.3706591521962
 31
0.0
 11
105.4633272864637
 21
208.3191759189497
 31
0.0
 11
105.4633272864637
 21
208.1964082089002
 31
0.0
 11
105.4633272864637
 21
208.0498790065832
 31
0.0
 11
105.4633272864637
 21
207.9271112965338
 31
0.0
 11
105.4633272864637
 21
207.8756280632872
 31
0.0
 11
105.5149157830753
 21
207.8756280632872
 31
0.0
 11
105.6438870246043
 21
207.8756280632872
 31
0.0
 11
105.8115496385921
 21
207.8756280632872
 31
0.0
 11
105.9792122525799
 21
207.8756280632872
 31
0.0
 11
106.1081834941089
 21
207.8756280632872
 31
0.0
 11
106.1597719907205
 21
207.8756280632872
 31
0.0
 11
106.1597719907205
 21
207.922765757925
 31
0.0
 11
106.1597719907205
 21
208.0351710297537
 31
0.0
 11
106.1597719907205
 21
208.169332160646
 31
0.0
 11
106.1597719907205
 21
208.2817374324747
 31
0.0
 11
106.1597719907205
 21
208.3288751271125
 31
0.0
 11
106.1100911834718
 21
208.5227199549278
 31
0.0
 11
105.9611151910182
 21
208.6610880197097
 31
0.0
 11
105.7129436572988
 21
208.7440540544123
 31
0.0
 11
105.3656762262524
 21
208.7716927919901
 31
0.0
 11
104.9777852068284
 21
208.7412889351054
 31
0.0
 11
104.7007356140399
 21
208.6500773644511
 31
0.0
 11
104.5345149923946
 21
208.4980580800274
 31
0.0
 11
104.4791108864
 21
208.2852310818343
 31
0.0
 11
104.4791108864
 21
208.2153917521501
 31
0.0
 11
104.4791108864
 21
208.0407934279397
 31
0.0
 11
104.4791108864
 21
207.8138156064662
 31
0.0
 11
104.4791108864
 21
207.5868377849928
 31
0.0
 11
104.4791108864
 21
207.4122394607824
 31
0.0
 11
104.4791108864
 21
207.3424001310982
 31
0.0
 11
104.535934995411
 21
207.3424001310982
 31
0.0
 11
104.6779952679384
 21
207.3424001310982
 31
0.0
 11
104.8626736222241
 21
207.3424001310982
 31
0.0
 11
105.0473519765097
 21
207.3424001310982
 31
0.0
 11
105.1894122490371
 21
207.3424001310982
 31
0.0
 11
105.2462363580481
 21
207.3424001310982
 31
0.0
 11
105.2462363580481
 21
207.3993590856196
 31
0.0
 11
105.2462363580481
 21
207.5462532314908
 31
0.0
 11
105.2462363580481
 21
207.7471084921718
 31
0.0
 11
105.2462363580481
 21
207.9659507911227
 31
0.0
 11
105.2462363580481
 21
208.1668060518036
 31
0.0
 11
105.2462363580481
 21
208.3137001976747
 31
0.0
 11
105.2462363580481
 21
208.3706591521962
 31
0.0
  0
SPLINE
  5
448
330
1F
100
AcDbEntity
  8
黒地
  6
CONTINUOUS
 62
     7
100
AcDbSpline
210
0.0
220
0.0
230
1.0
 70
  1067
 71
     3
 72
    43
 73
    39
 74
    37
 42
0.000000001
 43
0.0000000001
 44
0.00000001
 40
0.0
 40
0.0
 40
0.0
 40
0.0
 40
0.0826326035922021
 40
0.1758422129339786
 40
0.2707528857029942
 40
0.3535391189292832
 40
0.4383298825908278
 40
0.6248695637286724
 40
0.8114092451730451
 40
0.8962000094904207
 40
0.9684091814989907
 40
1.140600284050655
 40
1.346118696892382
 40
1.518309799642942
 40
1.590518971792711
 40
1.673119645157761
 40
1.854841126327308
 40
2.0365626069756
 40
2.119163279734785
 40
2.37353593906797
 40
2.68343339060052
 40
3.144808301836352
 40
3.593604641248393
 40
3.894407336119436
 40
4.138808857900761
 40
4.224139359735153
 40
4.411866463429822
 40
4.599593566560634
 40
4.684924067801836
 40
4.757140149004945
 40
4.929347727258309
 40
5.134885804343886
 40
5.3070933786854
 40
5.37930945451699
 40
5.464100218853863
 40
5.650639900397598
 40
5.837179581937098
 40
5.921970336277772
 40
5.921970336277772
 40
5.921970336277772
 40
5.921970336277772
 10
107.2410415873619
 20
206.6342638713332
 30
0.0
 10
107.2350235649089
 20
206.6046793394324
 30
0.0
 10
107.2222172247284
 20
206.5417234385659
 30
0.0
 10
107.1206442716192
 20
206.5262199414117
 30
0.0
 10
107.021276335841
 20
206.540705643395
 30
0.0
 10
106.9948494576926
 20
206.6367358552276
 30
0.0
 10
107.0029341728018
 20
206.751234127153
 30
0.0
 10
107.0045984792144
 20
206.9117119941301
 30
0.0
 10
106.9841918339239
 20
207.0421575812917
 30
0.0
 10
107.0236492696506
 20
207.1962538432832
 30
0.0
 10
106.8818001895517
 20
207.1643932973759
 30
0.0
 10
106.7514226674547
 20
207.1810517139781
 30
0.0
 10
106.5543984338196
 20
207.1811459226733
 30
0.0
 10
106.4242825285187
 20
207.1642166869378
 30
0.0
 10
106.2828806979228
 20
207.1963066976836
 30
0.0
 10
106.3212988029162
 20
207.045862587583
 30
0.0
 10
106.2996482378901
 20
206.9181770114462
 30
0.0
 10
106.3081166384077
 20
206.7631261446546
 30
0.0
 10
106.3004649945261
 20
206.591999141395
 30
0.0
 10
106.3798871988857
 20
206.3661423996004
 30
0.0
 10
106.7241940163902
 20
206.2359633647857
 30
0.0
 10
107.1275573544625
 20
206.2122693283212
 30
0.0
 10
107.5274821838574
 20
206.2356044252216
 30
0.0
 10
107.8622218526321
 20
206.359142831829
 30
0.0
 10
107.9410590770971
 20
206.578742029282
 30
0.0
 10
107.9328579272072
 20
206.7494396550676
 30
0.0
 10
107.9419049177975
 20
206.9097125609872
 30
0.0
 10
107.9191510938254
 20
207.0412898552067
 30
0.0
 10
107.9591703935416
 20
207.1962370098487
 30
0.0
 10
107.8171374676083
 20
207.1644363384436
 30
0.0
 10
107.6866940832576
 20
207.1810510668791
 30
0.0
 10
107.4897627348987
 20
207.1810738084538
 30
0.0
 10
107.3593665645661
 20
207.1643936983525
 30
0.0
 10
107.2174759308549
 20
207.1962495843547
 30
0.0
 10
107.2570878254677
 20
207.0422049876731
 30
0.0
 10
107.2353304885569
 20
206.9112934667497
 30
0.0
 10
107.241609452924
 20
206.7524042570326
 30
0.0
 10
107.2411767932613
 20
206.6623925328465
 30
0.0
 10
107.2410415873619
 20
206.6342638713332
 30
0.0
 11
107.2410415873619
 21
206.6342638713332
 31
0.0
 11
107.2112480496036
 21
206.5571892845233
 31
0.0
 11
107.1216681484504
 21
206.5314313262941
 31
0.0
 11
107.03031956738
 21
206.5571892845233
 31
0.0
 11
107.0001025428809
 21
206.6342638713332
 31
0.0
 11
107.0001025428809
 21
206.7190546356686
 31
0.0
 11
107.0001025428809
 21
206.9055943172066
 31
0.0
 11
107.0001025428809
 21
207.0921339987445
 31
0.0
 11
107.0001025428809
 21
207.1769247630799
 31
0.0
 11
106.9278933703242
 21
207.1769247630799
 31
0.0
 11
106.7557022665351
 21
207.1769247630799
 31
0.0
 11
106.5501838523351
 21
207.1769247630799
 31
0.0
 11
106.377992748546
 21
207.1769247630799
 31
0.0
 11
106.3057835759893
 21
207.1769247630799
 31
0.0
 11
106.3057835759893
 21
207.0943240894869
 31
0.0
 11
106.3057835759893
 21
206.9126026075823
 31
0.0
 11
106.3057835759893
 21
206.7308811256777
 31
0.0
 11
106.3057835759893
 21
206.6482804520847
 31
0.0
 11
106.3974855239914
 21
206.4110122411091
 31
0.0
 11
106.6727094645181
 21
206.2685755359232
 31
0.0
 11
107.1316325423495
 21
206.2210736709823
 31
0.0
 11
107.5781062786675
 21
206.2666736898777
 31
0.0
 11
107.8460771245732
 21
206.4033261259137
 31
0.0
 11
107.9354269835463
 21
206.6308095481147
 31
0.0
 11
107.9354269835463
 21
206.716140050453
 31
0.0
 11
107.9354269835463
 21
206.9038671555973
 31
0.0
 11
107.9354269835463
 21
207.0915942607416
 31
0.0
 11
107.9354269835463
 21
207.1769247630799
 31
0.0
 11
107.8632109023431
 21
207.1769247630799
 31
0.0
 11
107.6910033240894
 21
207.1769247630799
 31
0.0
 11
107.4854652468188
 21
207.1769247630799
 31
0.0
 11
107.3132576685651
 21
207.1769247630799
 31
0.0
 11
107.2410415873619
 21
207.1769247630799
 31
0.0
 11
107.2410415873619
 21
207.0921339987445
 31
0.0
 11
107.2410415873619
 21
206.9055943172065
 31
0.0
 11
107.2410415873619
 21
206.7190546356686
 31
0.0
 11
107.2410415873619
 21
206.6342638713332
 31
0.0
  0
SPLINE
  5
449
330
1F
100
AcDbEntity
  8
黒地
  6
CONTINUOUS
 62
     7
100
AcDbSpline
210
0.0
220
0.0
230
1.0
 70
  1067
 71
     3
 72
    44
 73
    40
 74
    38
 42
0.000000001
 43
0.0000000001
 44
0.00000001
 40
0.0
 40
0.0
 40
0.0
 40
0.0
 40
0.0803874930677283
 40
0.1750478236450278
 40
0.2680025091937786
 40
0.3482317740159511
 40
0.431268389171529
 40
0.6139489435967187
 40
0.796629498325367
 40
0.8796661141348432
 40
0.9518821947826774
 40
1.124089771780896
 40
1.329627847670474
 40
1.501835424866749
 40
1.574051505655469
 40
1.657627859249893
 40
1.841495836906383
 40
2.025363813994013
 40
2.108940166926922
 40
2.301871995409301
 40
2.523674294286052
 40
2.795625435308209
 40
3.09650713205346
 40
3.5578726849482
 40
3.867721525726453
 40
4.122215820406165
 40
4.203072724574707
 40
4.380957913431029
 40
4.558843101774311
 40
4.639700005400453
 40
4.71190917795688
 40
4.884100281748498
 40
5.08961869580423
 40
5.261809795861449
 40
5.334018962889811
 40
5.417055578717648
 40
5.599736133541764
 40
5.782416688365114
 40
5.865453294194761
 40
5.865453294194761
 40
5.865453294194761
 40
5.865453294194761
 10
107.0001025428809
 20
207.8738344723854
 30
0.0
 10
107.0065168785211
 20
207.9024548316475
 30
0.0
 10
107.0204844040314
 20
207.9647771142131
 30
0.0
 10
107.1215371251093
 20
207.9776590539138
 30
0.0
 10
107.21965821717
 20
207.9647655838531
 30
0.0
 10
107.2463906475273
 20
207.8711559671119
 30
0.0
 10
107.2381175335087
 20
207.7592687214394
 30
0.0
 10
107.2367449426425
 20
207.6021838627765
 30
0.0
 10
107.2564649632028
 20
207.474226843113
 30
0.0
 10
107.2180358679765
 20
207.3230227223439
 30
0.0
 10
107.359497168152
 20
207.3550766811085
 30
0.0
 10
107.4896918505695
 20
207.3382024385403
 30
0.0
 10
107.6867689806911
 20
207.3382280094037
 30
0.0
 10
107.8169947763305
 20
207.3550287416587
 30
0.0
 10
107.9586300233907
 20
207.3230421230972
 30
0.0
 10
107.9196416196241
 20
207.4750967067952
 30
0.0
 10
107.9416787036804
 20
207.6041604101018
 30
0.0
 10
107.9330254920178
 20
207.761127682605
 30
0.0
 10
107.9399478162588
 20
207.9128823622106
 30
0.0
 10
107.8906974904952
 20
208.0860870821367
 30
0.0
 10
107.6786816286141
 20
208.2051484837406
 30
0.0
 10
107.4242542817393
 20
208.2726890392379
 30
0.0
 10
107.0768523058239
 20
208.2960421723857
 30
0.0
 10
106.7245861914887
 20
208.2715632935895
 30
0.0
 10
106.3797881339612
 20
208.1422669434571
 30
0.0
 10
106.3005915178035
 20
207.9167929984565
 30
0.0
 10
106.3080297740606
 20
207.7474574196294
 30
0.0
 10
106.2998430108745
 20
207.595739317909
 30
0.0
 10
106.3208190684276
 20
207.4705445687269
 30
0.0
 10
106.2834157986587
 20
207.3229712772245
 30
0.0
 10
106.4244299438226
 20
207.3552524777054
 30
0.0
 10
106.5543188377821
 20
207.3381304616734
 30
0.0
 10
106.7515054428992
 20
207.338228772711
 30
0.0
 10
106.881643207194
 20
207.3550681809765
 30
0.0
 10
107.0231294438227
 20
207.3230319236005
 30
0.0
 10
106.9845387881761
 20
207.4741816792096
 30
0.0
 10
107.0056419186436
 20
207.6025898525224
 30
0.0
 10
106.9995517521766
 20
207.758132822124
 30
0.0
 10
106.9999714023954
 20
207.8462864621676
 30
0.0
 10
107.0001025428809
 20
207.8738344723854
 30
0.0
 11
107.0001025428809
 21
207.8738344723854
 31
0.0
 11
107.03031956738
 21
207.948326620443
 31
0.0
 11
107.1216681484504
 21
207.9731462649135
 31
0.0
 11
107.2112480496036
 21
207.948326620443
 31
0.0
 11
107.2410415873619
 21
207.8738344723854
 31
0.0
 11
107.2410415873619
 21
207.7907978565593
 31
0.0
 11
107.2410415873619
 21
207.6081173017418
 31
0.0
 11
107.2410415873619
 21
207.4254367469243
 31
0.0
 11
107.2410415873619
 21
207.3424001310982
 31
0.0
 11
107.3132576685651
 21
207.3424001310982
 31
0.0
 11
107.4854652468188
 21
207.3424001310982
 31
0.0
 11
107.6910033240894
 21
207.3424001310982
 31
0.0
 11
107.8632109023431
 21
207.3424001310982
 31
0.0
 11
107.9354269835463
 21
207.3424001310982
 31
0.0
 11
107.9354269835463
 21
207.4259764849272
 31
0.0
 11
107.9354269835463
 21
207.609844463351
 31
0.0
 11
107.9354269835463
 21
207.7937124417747
 31
0.0
 11
107.9354269835463
 21
207.8772887956037
 31
0.0
 11
107.8747106100542
 21
208.0604177481467
 31
0.0
 11
107.6930264946266
 21
208.1876464509155
 31
0.0
 11
107.4314860657592
 21
208.2621718136193
 31
0.0
 11
107.1316325423495
 21
208.2870246727361
 31
0.0
 11
106.6727094645181
 21
208.2396138405297
 31
0.0
 11
106.3974855239914
 21
208.0972829301433
 31
0.0
 11
106.3057835759893
 21
207.8598843209267
 31
0.0
 11
106.3057835759893
 21
207.779027416266
 31
0.0
 11
106.3057835759893
 21
207.6011422260125
 31
0.0
 11
106.3057835759893
 21
207.4232570357589
 31
0.0
 11
106.3057835759893
 21
207.3424001310982
 31
0.0
 11
106.377992748546
 21
207.3424001310982
 31
0.0
 11
106.5501838523352
 21
207.3424001310982
 31
0.0
 11
106.7557022665351
 21
207.3424001310982
 31
0.0
 11
106.9278933703242
 21
207.3424001310982
 31
0.0
 11
107.0001025428809
 21
207.3424001310982
 31
0.0
 11
107.0001025428809
 21
207.4254367469244
 31
0.0
 11
107.0001025428809
 21
207.6081173017418
 31
0.0
 11
107.0001025428809
 21
207.7907978565593
 31
0.0
 11
107.0001025428809
 21
207.8738344723854
 31
0.0
  0
SPLINE
  5
44A
330
1F
100
AcDbEntity
  8
黒地
  6
CONTINUOUS
 62
     7
100
AcDbSpline
210
0.0
220
0.0
230
1.0
 70
  1067
 71
     3
 72
    75
 73
    71
 74
    69
 42
0.000000001
 43
0.0000000001
 44
0.00000001
 40
0.0
 40
0.0
 40
0.0
 40
0.0
 40
0.0731661248184934
 40
0.1660894875579277
 40
0.2578476889037555
 40
0.3333777510044341
 40
0.4158642486608527
 40
0.5973345445006543
 40
0.7788048405896858
 40
0.86129133882892
 40
0.9334521503969312
 40
1.105527931921912
 40
1.310908703559605
 40
1.482984485294239
 40
1.555145297010483
 40
1.637631795207454
 40
1.819102091196925
 40
2.000572387094621
 40
2.083058885182737
 40
2.156271626611753
 40
2.249584140682121
 40
2.341115203525587
 40
2.416500679195455
 40
2.498447439203492
 40
2.678730311336867
 40
2.859013183584896
 40
2.940959943724895
 40
3.013127664005072
 40
3.18521992012673
 40
3.390620354995253
 40
3.562712611362517
 40
3.634880331808308
 40
3.702654152981712
 40
3.864268649469739
 40
4.057163370787823
 40
4.218777866816925
 40
4.286551687696392
 40
4.415600237876265
 40
4.565840152245854
 40
4.740047371569495
 40
4.916054612081076
 40
5.201197987848037
 40
5.440959103282032
 40
5.673336664183976
 40
5.906247806598191
 40
6.158268760790211
 40
6.348879551843766
 40
6.384651725924074
 40
6.420423900006825
 40
6.492626163402506
 40
6.66480079162156
 40
6.870299541632762
 40
7.04247417016066
 40
7.114676433768708
 40
7.183615277375154
 40
7.35596238630781
 40
7.580013627639134
 40
7.80406486837363
 40
7.976411975901542
 40
8.045350818667984
 40
8.117553082567724
 40
8.289727711917664
 40
8.495226463306537
 40
8.667401091796137
 40
8.739603347750872
 40
8.794872519243839
 40
8.926668235879973
 40
9.083972800891857
 40
9.215768517472284
 40
9.271037679085524
 40
9.271037679085524
 40
9.271037679085524
 40
9.271037679085524
 10
108.775691106414
 20
207.8738344723854
 30
0.0
 10
108.7826799806527
 20
207.8994975631723
 30
0.0
 10
108.7985449388496
 20
207.9577536219789
 30
0.0
 10
108.8961142852906
 20
207.9658407645941
 30
0.0
 10
108.991457968288
 20
207.9567825076134
 30
0.0
 10
109.0205196601422
 20
207.8664398879498
 30
0.0
 10
109.0110666178301
 20
207.7564159778582
 30
0.0
 10
109.0104413655718
 20
207.600509905444
 30
0.0
 10
109.0297619795844
 20
207.4733074341524
 30
0.0
 10
108.9916688802553
 20
207.3230252585452
 30
0.0
 10
109.132907961265
 20
207.3551058739218
 30
0.0
 10
109.2629415763416
 20
207.3381975790434
 30
0.0
 10
109.4599206579246
 20
207.3381979036386
 30
0.0
 10
109.5899564863476
 20
207.3551052644087
 30
0.0
 10
109.7311913682269
 20
207.3230261705015
 30
0.0
 10
109.6931179407051
 20
207.4733012793907
 30
0.0
 10
109.712268621403
 20
207.6005647635693
 30
0.0
 10
109.712223527271
 20
207.7562625410737
 30
0.0
 10
109.7017707833448
 20
207.8659175219398
 30
0.0
 10
109.7332269409531
 20
207.954766216462
 30
0.0
 10
109.8284622454583
 20
207.9621737860793
 30
0.0
 10
109.9245388148713
 20
207.9532785730343
 30
0.0
 10
109.9530476338839
 20
207.8630927352501
 30
0.0
 10
109.9438273595104
 20
207.7537260124043
 30
0.0
 10
109.9431256370165
 20
207.5988311068519
 30
0.0
 10
109.9622862918511
 20
207.472402376073
 30
0.0
 10
109.9244992433197
 20
207.3230110073039
 30
0.0
 10
110.065645294158
 20
207.3551398245246
 30
0.0
 10
110.1954732024294
 20
207.3383147919137
 30
0.0
 10
110.3932081000211
 20
207.3376389720875
 30
0.0
 10
110.521356008949
 20
207.3564067758014
 30
0.0
 10
110.6594135108446
 20
207.3226504080408
 30
0.0
 10
110.6286303212803
 20
207.4539048103804
 30
0.0
 10
110.6463089752577
 20
207.5768436381045
 30
0.0
 10
110.6405442246457
 20
207.7554830582362
 30
0.0
 10
110.6394374557268
 20
207.8950985089016
 30
0.0
 10
110.6444808178959
 20
208.0141512902647
 30
0.0
 10
110.6117896446311
 20
208.1334749819812
 30
0.0
 10
110.4774685398716
 20
208.219306825493
 30
0.0
 10
110.3202833380663
 20
208.2756468258058
 30
0.0
 10
110.1082171894923
 20
208.2902871527981
 30
0.0
 10
109.8696478318964
 20
208.2986366299934
 30
0.0
 10
109.645802927831
 20
208.0801782941463
 30
0.0
 10
109.4441441663025
 20
208.2894826347146
 30
0.0
 10
109.1916910420104
 20
208.2757369910211
 30
0.0
 10
109.0014579902335
 20
208.328744724001
 30
0.0
 10
108.7700589348504
 20
208.1401138067895
 30
0.0
 10
108.7747928132474
 20
208.2367940623634
 30
0.0
 10
108.7846079251568
 20
208.29389130492
 30
0.0
 10
108.6517567243381
 20
208.2551473789211
 30
0.0
 10
108.5295980938778
 20
208.2794199114029
 30
0.0
 10
108.3289262944443
 20
208.2772306404054
 30
0.0
 10
108.2011562398904
 20
208.2592515914219
 30
0.0
 10
108.06278087392
 20
208.2927525098523
 30
0.0
 10
108.0949168394481
 20
208.1562958768887
 30
0.0
 10
108.0746312266405
 20
208.0205473835209
 30
0.0
 10
108.0852858224172
 20
207.8077377231602
 30
0.0
 10
108.0746325904427
 20
207.5949258258343
 30
0.0
 10
108.0949138045733
 20
207.4591815929935
 30
0.0
 10
108.062785102319
 20
207.3227182128333
 30
0.0
 10
108.2011291272719
 20
207.3562481894123
 30
0.0
 10
108.329215157194
 20
207.337976219305
 30
0.0
 10
108.5284136046845
 20
207.3371527924501
 30
0.0
 10
108.6544916958808
 20
207.3577918652365
 30
0.0
 10
108.7902918922134
 20
207.3221888835642
 30
0.0
 10
108.7665793682243
 20
207.4322687514824
 30
0.0
 10
108.7796362673843
 20
207.5340319757295
 30
0.0
 10
108.7747333298155
 20
207.679222198429
 30
0.0
 10
108.7757708706668
 20
207.7929768833544
 30
0.0
 10
108.775709297494
 20
207.8553932696549
 30
0.0
 10
108.775691106414
 20
207.8738344723854
 30
0.0
 11
108.775691106414
 21
207.8738344723854
 31
0.0
 11
108.8057752723278
 21
207.940529482217
 31
0.0
 11
108.8959945554227
 21
207.9627832952584
 31
0.0
 11
108.9848188233719
 21
207.9397655453513
 31
0.0
 11
109.0145044135298
 21
207.8703137198743
 31
0.0
 11
109.0145044135298
 21
207.787827221628
 31
0.0
 11
109.0145044135298
 21
207.6063569254862
 31
0.0
 11
109.0145044135298
 21
207.4248866293445
 31
0.0
 11
109.0145044135298
 21
207.3424001310982
 31
0.0
 11
109.0866652255615
 21
207.3424001310982
 31
0.0
 11
109.2587410080985
 21
207.3424001310982
 31
0.0
 11
109.4641217808041
 21
207.3424001310982
 31
0.0
 11
109.6361975633411
 21
207.3424001310982
 31
0.0
 11
109.7083583753728
 21
207.3424001310982
 31
0.0
 11
109.7083583753728
 21
207.4248866293445
 31
0.0
 11
109.7083583753728
 21
207.6063569254863
 31
0.0
 11
109.7083583753728
 21
207.787827221628
 31
0.0
 11
109.7083583753728
 21
207.8703137198743
 31
0.0
 11
109.7385006669177
 21
207.9370336406906
 31
0.0
 11
109.8291268294304
 21
207.9592625427473
 31
0.0
 11
109.9177185948552
 21
207.9362530965019
 31
0.0
 11
109.9471716824888
 21
207.866859396656
 31
0.0
 11
109.9471716824888
 21
207.7849126364126
 31
0.0
 11
109.9471716824888
 21
207.6046297638771
 31
0.0
 11
109.9471716824888
 21
207.4243468913416
 31
0.0
 11
109.9471716824888
 21
207.3424001310982
 31
0.0
 11
110.0193394031669
 21
207.3424001310982
 31
0.0
 11
110.1914316601685
 21
207.3424001310982
 31
0.0
 11
110.3968320959447
 21
207.3424001310982
 31
0.0
 11
110.5689243529463
 21
207.3424001310982
 31
0.0
 11
110.6410920736244
 21
207.3424001310982
 31
0.0
 11
110.6410920736244
 21
207.4101739526426
 31
0.0
 11
110.6410920736244
 21
207.5717884501714
 31
0.0
 11
110.6410920736244
 21
207.7646831730284
 31
0.0
 11
110.6410920736244
 21
207.9262976705572
 31
0.0
 11
110.6410920736244
 21
207.9940714921016
 31
0.0
 11
110.6017410213845
 21
208.1169739871858
 31
0.0
 11
110.4833225035549
 21
208.2094352589082
 31
0.0
 11
110.3191425067434
 21
208.2676854449102
 31
0.0
 11
110.144200964521
 21
208.2870246727361
 31
0.0
 11
109.8611374448314
 21
208.2526475137841
 31
0.0
 11
109.6447855422964
 21
208.1493167490501
 31
0.0
 11
109.4366459610666
 21
208.2526475137842
 31
0.0
 11
109.2062857814417
 21
208.2870246727361
 31
0.0
 11
108.9551664478604
 21
208.2657257807768
 31
0.0
 11
108.775691106414
 21
208.2015301730817
 31
0.0
 11
108.775691106414
 21
208.2373023471795
 31
0.0
 11
108.775691106414
 21
208.2730745212774
 31
0.0
 11
108.7034888425037
 21
208.2730745212774
 31
0.0
 11
108.5313142131792
 21
208.2730745212774
 31
0.0
 11
108.3258154620498
 21
208.2730745212774
 31
0.0
 11
108.1536408327253
 21
208.2730745212774
 31
0.0
 11
108.081438568815
 21
208.2730745212774
 31
0.0
 11
108.081438568815
 21
208.2041356775604
 31
0.0
 11
108.081438568815
 21
208.031788568268
 31
0.0
 11
108.081438568815
 21
207.8077373261878
 31
0.0
 11
108.081438568815
 21
207.5836860841076
 31
0.0
 11
108.081438568815
 21
207.4113389748152
 31
0.0
 11
108.081438568815
 21
207.3424001310982
 31
0.0
 11
108.1536408327253
 21
207.3424001310982
 31
0.0
 11
108.3258154620498
 21
207.3424001310982
 31
0.0
 11
108.5313142131792
 21
207.3424001310982
 31
0.0
 11
108.7034888425037
 21
207.3424001310982
 31
0.0
 11
108.775691106414
 21
207.3424001310982
 31
0.0
 11
108.775691106414
 21
207.3976693025921
 31
0.0
 11
108.775691106414
 21
207.5294650192313
 31
0.0
 11
108.775691106414
 21
207.6867695842523
 31
0.0
 11
108.775691106414
 21
207.8185653008915
 31
0.0
 11
108.775691106414
 21
207.8738344723854
 31
0.0
  0
SPLINE
  5
44B
330
1F
100
AcDbEntity
  8
黒地
  6
CONTINUOUS
 62
     7
100
AcDbSpline
210
0.0
220
0.0
230
1.0
 70
  1067
 71
     3
 72
    54
 73
    50
 74
    48
 42
0.000000001
 43
0.0000000001
 44
0.00000001
 40
0.0
 40
0.0
 40
0.0
 40
0.0
 40
0.0752727386809665
 40
0.1675965820651601
 40
0.2618349946026679
 40
0.3373780277005212
 40
0.3945401677758698
 40
0.5308498872701763
 40
0.6935421335124206
 40
0.8298518534112249
 40
0.8870139940210438
 40
0.9592646179235489
 40
1.131554567293077
 40
1.337190958582124
 40
1.509480908127682
 40
1.581731532155655
 40
1.650468627498182
 40
1.822311365692625
 40
2.045706924748854
 40
2.26910248251576
 40
2.44094521810288
 40
2.509682312181153
 40
2.591815904748981
 40
2.772509807996582
 40
2.953203709754189
 40
3.035337300618562
 40
3.080334811254
 40
3.125332321852513
 40
3.339404560213351
 40
3.54477770321259
 40
3.79044453228857
 40
4.007925402922213
 40
4.183959026802577
 40
4.328976641617743
 40
4.393931735109476
 40
4.548824650174254
 40
4.733696838678185
 40
4.888589752916403
 40
4.953544845864343
 40
5.025795470299329
 40
5.198085420884155
 40
5.403721813403394
 40
5.576011760474202
 40
5.648262379385457
 40
5.705424520002325
 40
5.841734239934269
 40
6.004426486301654
 40
6.140736206204096
 40
6.197898336898916
 40
6.197898336898916
 40
6.197898336898916
 40
6.197898336898916
 10
112.6188914040173
 20
206.6272887956038
 30
0.0
 10
112.6123042952548
 20
206.6006439804556
 30
0.0
 10
112.5976379516649
 20
206.5413186459007
 30
0.0
 10
112.4985694961563
 20
206.5316872451701
 30
0.0
 10
112.4029708159686
 20
206.540371629732
 30
0.0
 10
112.3740291051673
 20
206.6220238018714
 30
0.0
 10
112.381006478484
 20
206.7103783619857
 30
0.0
 10
112.3761329384365
 20
206.8287814272173
 30
0.0
 10
112.382719671486
 20
206.978748903018
 30
0.0
 10
112.3686583735807
 20
207.0838072748315
 30
0.0
 10
112.3934479852227
 20
207.1970757698527
 30
0.0
 10
112.2572225947986
 20
207.1617464689632
 30
0.0
 10
112.1307491397901
 20
207.1820761735733
 30
0.0
 10
111.9315220372548
 20
207.1813860098605
 30
0.0
 10
111.8033599648951
 20
207.163040315642
 30
0.0
 10
111.6649764394202
 20
207.1966286393151
 30
0.0
 10
111.6969755966807
 20
207.0605074007406
 30
0.0
 10
111.6768195246278
 20
206.9251497151402
 30
0.0
 10
111.687270019156
 20
206.7128400364049
 30
0.0
 10
111.6772113232051
 20
206.5011358560616
 30
0.0
 10
111.6961015954732
 20
206.3646253977973
 30
0.0
 10
111.6652485360362
 20
206.2260892522673
 30
0.0
 10
111.8139343776276
 20
206.265156406233
 30
0.0
 10
111.9430885874199
 20
206.2384558764221
 30
0.0
 10
112.0884716683623
 20
206.2633896602306
 30
0.0
 10
112.2050085426891
 20
206.2312441873914
 30
0.0
 10
112.2382353768507
 20
206.2833621520355
 30
0.0
 10
112.3029853032787
 20
206.3703425550819
 30
0.0
 10
112.4710124735322
 20
206.2072574864062
 30
0.0
 10
112.6851436344636
 20
206.2231081550167
 30
0.0
 10
112.911744828086
 20
206.2313605549894
 30
0.0
 10
113.1142859521141
 20
206.296121308881
 30
0.0
 10
113.2759510541775
 20
206.3941538731485
 30
0.0
 10
113.3171694343879
 20
206.5258968632811
 30
0.0
 10
113.3120152302637
 20
206.6472718161897
 30
0.0
 10
113.3131143087326
 20
206.7810241015975
 30
0.0
 10
113.3184929197827
 20
206.9521210774235
 30
0.0
 10
113.3019319839449
 20
207.0703276254262
 30
0.0
 10
113.331084958025
 20
207.1967911779232
 30
0.0
 10
113.1934119499607
 20
207.1626276516128
 30
0.0
 10
113.0658284069782
 20
207.1815646622628
 30
0.0
 10
112.8663859064751
 20
207.182032952795
 30
0.0
 10
112.7399531257438
 20
207.1617497445296
 30
0.0
 10
112.6037329921451
 20
207.1970763888642
 30
0.0
 10
112.6284921161747
 20
207.0838023437189
 30
0.0
 10
112.6147345295179
 20
206.9788056447825
 30
0.0
 10
112.6199005788301
 20
206.8285480612135
 30
0.0
 10
112.6188073601272
 20
206.7109172961493
 30
0.0
 10
112.6188722367277
 20
206.6463619605992
 30
0.0
 10
112.6188914040173
 20
206.6272887956038
 30
0.0
 11
112.6188914040173
 21
206.6272887956038
 31
0.0
 11
112.5892971541369
 21
206.5580777763127
 31
0.0
 11
112.4999165408616
 21
206.5349520788051
 31
0.0
 11
112.4085596561296
 21
206.5580777763127
 31
0.0
 11
112.3782845059994
 21
206.6272887956038
 31
0.0
 11
112.3782845059994
 21
206.6844509362213
 31
0.0
 11
112.3782845059994
 21
206.8207606561554
 31
0.0
 11
112.3782845059994
 21
206.9834529025283
 31
0.0
 11
112.3782845059994
 21
207.1197626224624
 31
0.0
 11
112.3782845059994
 21
207.1769247630799
 31
0.0
 11
112.3060338815641
 21
207.1769247630799
 31
0.0
 11
112.1337439309874
 21
207.1769247630799
 31
0.0
 11
111.9281075383637
 21
207.1769247630799
 31
0.0
 11
111.7558175877871
 21
207.1769247630799
 31
0.0
 11
111.6835669633518
 21
207.1769247630799
 31
0.0
 11
111.6835669633518
 21
207.1081876675851
 31
0.0
 11
111.6835669633518
 21
206.9363449288481
 31
0.0
 11
111.6835669633518
 21
206.71294936849
 31
0.0
 11
111.6835669633518
 21
206.4895538081319
 31
0.0
 11
111.6835669633518
 21
206.3177110693948
 31
0.0
 11
111.6835669633518
 21
206.2489739739
 31
0.0
 11
111.7657005559808
 21
206.2489739739
 31
0.0
 11
111.9463944597646
 21
206.2489739739
 31
0.0
 11
112.1270883635484
 21
206.2489739739
 31
0.0
 11
112.2092219561774
 21
206.2489739739
 31
0.0
 11
112.2386833474725
 21
206.2829857717423
 31
0.0
 11
112.2681447387677
 21
206.3169975695846
 31
0.0
 11
112.4698074639631
 21
206.245170896895
 31
0.0
 11
112.673761999755
 21
206.2210736709823
 31
0.0
 11
112.9184210846252
 21
206.2433025730389
 31
0.0
 11
113.1254147605565
 21
206.3100224938553
 31
0.0
 11
113.2665936147841
 21
206.4151717604759
 31
0.0
 11
113.3136089466648
 21
206.5523565534822
 31
0.0
 11
113.3136089466648
 21
206.6173116472804
 31
0.0
 11
113.3136089466648
 21
206.7722045632606
 31
0.0
 11
113.3136089466648
 21
206.9570767533015
 31
0.0
 11
113.3136089466648
 21
207.1119696692817
 31
0.0
 11
113.3136089466648
 21
207.1769247630799
 31
0.0
 11
113.2413583222295
 21
207.1769247630799
 31
0.0
 11
113.0690683716529
 21
207.1769247630799
 31
0.0
 11
112.8634319790292
 21
207.1769247630799
 31
0.0
 11
112.6911420284526
 21
207.1769247630799
 31
0.0
 11
112.6188914040173
 21
207.1769247630799
 31
0.0
 11
112.6188914040173
 21
207.1197626224624
 31
0.0
 11
112.6188914040173
 21
206.9834529025283
 31
0.0
 11
112.6188914040173
 21
206.8207606561554
 31
0.0
 11
112.6188914040173
 21
206.6844509362213
 31
0.0
 11
112.6188914040173
 21
206.6272887956038
 31
0.0
  0
SPLINE
  5
44C
330
1F
100
AcDbEntity
  8
黒地
  6
CONTINUOUS
 62
     7
100
AcDbSpline
210
0.0
220
0.0
230
1.0
 70
  1067
 71
     3
 72
    59
 73
    55
 74
    53
 42
0.000000001
 43
0.0000000001
 44
0.00000001
 40
0.0
 40
0.0
 40
0.0
 40
0.0
 40
0.0732146163647692
 40
0.167235015796661
 40
0.259523601292077
 40
0.3349872554897244
 40
0.3909749257191235
 40
0.5244839862838857
 40
0.683833510540981
 40
0.8173425714700526
 40
0.8733302421882199
 40
0.9455808661207383
 40
1.117870815571808
 40
1.323507206967366
 40
1.495797156599056
 40
1.568047780659785
 40
1.637092793054225
 40
1.801738591753806
 40
1.998251318970435
 40
2.162897117037406
 40
2.231942128946602
 40
2.358459531697092
 40
2.505974663809524
 40
2.679770424576211
 40
2.860810666210518
 40
3.123755293830352
 40
3.302940950874211
 40
3.358783538177329
 40
3.49194663317976
 40
3.650883232181167
 40
3.784046329089273
 40
3.839888918164428
 40
3.912139542084455
 40
4.084429491657028
 40
4.290065883390719
 40
4.462355833395828
 40
4.534606457625239
 40
4.612521626683639
 40
4.813460746839491
 40
5.088214237494833
 40
5.387572517934666
 40
5.662326007401271
 40
5.863265125701355
 40
5.941180293777473
 40
6.013430918209176
 40
6.185720868811197
 40
6.391357261541339
 40
6.563647209537317
 40
6.635897827516567
 40
6.692251656500213
 40
6.826633864075854
 40
6.987025531178256
 40
7.121407738714533
 40
7.177761557797959
 40
7.177761557797959
 40
7.177761557797959
 40
7.177761557797959
 10
112.3782845059994
 20
207.8842638713331
 30
0.0
 10
112.385355646655
 20
207.9099202460334
 30
0.0
 10
112.4015073570211
 20
207.9685239090497
 30
0.0
 10
112.4999425915808
 20
207.9760125537616
 30
0.0
 10
112.5954630984866
 20
207.96747671932
 30
0.0
 10
112.6228792486047
 20
207.8862963465068
 30
0.0
 10
112.6163605824149
 20
207.7994153463193
 30
0.0
 10
112.6209291693472
 20
207.6833557601306
 30
0.0
 10
112.6146086838394
 20
207.5365568918972
 30
0.0
 10
112.6282095549053
 20
207.4334952905547
 30
0.0
 10
112.6040748083769
 20
207.3222035282016
 30
0.0
 10
112.7400934540189
 20
207.3577185238962
 30
0.0
 10
112.8663675764504
 20
207.3371875235064
 30
0.0
 10
113.0656622825921
 20
207.3379559044882
 30
0.0
 10
113.1938293483354
 20
207.356278044215
 30
0.0
 10
113.3323148769267
 20
207.3226707028056
 30
0.0
 10
113.3007972588466
 20
207.4561074002758
 30
0.0
 10
113.3189651067266
 20
207.5811948813863
 30
0.0
 10
113.3130765964911
 20
207.7632338966054
 30
0.0
 10
113.3118364034164
 20
207.9054844952154
 30
0.0
 10
113.3171579243331
 20
208.0250679105528
 30
0.0
 10
113.2842280914182
 20
208.1432778562156
 30
0.0
 10
113.1486522915553
 20
208.2244674562877
 30
0.0
 10
112.9913578561231
 20
208.2783080424402
 30
0.0
 10
112.777499359243
 20
208.2825235051495
 30
0.0
 10
112.6024667467737
 20
208.3294906444305
 30
0.0
 10
112.3653229838043
 20
208.1521696893651
 30
0.0
 10
112.3832270030949
 20
208.300759337015
 30
0.0
 10
112.37520618811
 20
208.4056047329011
 30
0.0
 10
112.382805216352
 20
208.5561186282538
 30
0.0
 10
112.3689811519939
 20
208.6580535036549
 30
0.0
 10
112.3930625367648
 20
208.769193852955
 30
0.0
 10
112.2570695848568
 20
208.7336167952261
 30
0.0
 10
112.130726315336
 20
208.754290742924
 30
0.0
 10
111.9318857830275
 20
208.753041583676
 30
0.0
 10
111.8024822528394
 20
208.7359585868883
 30
0.0
 10
111.66221973224
 20
208.7683813892594
 30
0.0
 10
111.7002177285064
 20
208.6134210478731
 30
0.0
 10
111.6752835655024
 20
208.4540470382424
 30
0.0
 10
111.6856559550801
 20
208.1836491291991
 30
0.0
 10
111.6856559356026
 20
207.9077249749552
 30
0.0
 10
111.675283617508
 20
207.6373270042482
 30
0.0
 10
111.7002176357219
 20
207.4779531465182
 30
0.0
 10
111.6622198599855
 20
207.3229925765957
 30
0.0
 10
111.8024815716196
 20
207.355416228197
 30
0.0
 10
111.9318931438396
 20
207.3383247884334
 30
0.0
 10
112.1306961492891
 20
207.3371150279609
 30
0.0
 10
112.2571392539263
 20
207.3576841626026
 30
0.0
 10
112.3932027021323
 20
207.3222155469361
 30
0.0
 10
112.3688957446107
 20
207.4341317187129
 30
0.0
 10
112.3823496111803
 20
207.5377497578612
 30
0.0
 10
112.3772976103034
 20
207.6858427687466
 30
0.0
 10
112.3783666949052
 20
207.8018185827958
 30
0.0
 10
112.378303250141
 20
207.865460561703
 30
0.0
 10
112.3782845059994
 20
207.8842638713331
 30
0.0
 11
112.3782845059994
 21
207.8842638713331
 31
0.0
 11
112.4085596561296
 21
207.9509256665185
 31
0.0
 11
112.4999165408616
 21
207.9731462649135
 31
0.0
 11
112.5892971541369
 21
207.9501617296528
 31
0.0
 11
112.6188914040173
 21
207.8807431188222
 31
0.0
 11
112.6188914040173
 21
207.824755448099
 31
0.0
 11
112.6188914040173
 21
207.6912463871434
 31
0.0
 11
112.6188914040173
 21
207.531896862777
 31
0.0
 11
112.6188914040173
 21
207.3983878018215
 31
0.0
 11
112.6188914040173
 21
207.3424001310982
 31
0.0
 11
112.6911420284526
 21
207.3424001310982
 31
0.0
 11
112.8634319790292
 21
207.3424001310982
 31
0.0
 11
113.0690683716529
 21
207.3424001310982
 31
0.0
 11
113.2413583222295
 21
207.3424001310982
 31
0.0
 11
113.3136089466648
 21
207.3424001310982
 31
0.0
 11
113.3136089466648
 21
207.4114451435869
 31
0.0
 11
113.3136089466648
 21
207.5760909425985
 31
0.0
 11
113.3136089466648
 21
207.772603670451
 31
0.0
 11
113.3136089466648
 21
207.9372494694626
 31
0.0
 11
113.3136089466648
 21
208.0062944819513
 31
0.0
 11
113.2741665541474
 21
208.1265065906827
 31
0.0
 11
113.1559058058879
 21
208.2146831730285
 31
0.0
 11
112.9908124063024
 21
208.2689891197787
 31
0.0
 11
112.8106727719293
 21
208.2870246727361
 31
0.0
 11
112.5483933171809
 21
208.2683331305137
 31
0.0
 11
112.3782845059994
 21
208.2120260013221
 31
0.0
 11
112.3782845059994
 21
208.2678685904702
 31
0.0
 11
112.3782845059994
 21
208.4010316876695
 31
0.0
 11
112.3782845059994
 21
208.5599682875526
 31
0.0
 11
112.3782845059994
 21
208.6931313847519
 31
0.0
 11
112.3782845059994
 21
208.7489739739
 31
0.0
 11
112.306033881564
 21
208.7489739739
 31
0.0
 11
112.1337439309874
 21
208.7489739739
 31
0.0
 11
111.9281075383638
 21
208.7489739739
 31
0.0
 11
111.7558175877871
 21
208.7489739739
 31
0.0
 11
111.6835669633518
 21
208.7489739739
 31
0.0
 11
111.6835669633518
 21
208.6710588047652
 31
0.0
 11
111.6835669633518
 21
208.4701196843649
 31
0.0
 11
111.6835669633518
 21
208.1953661932054
 31
0.0
 11
111.6835669633518
 21
207.8960079117928
 31
0.0
 11
111.6835669633518
 21
207.6212544206332
 31
0.0
 11
111.6835669633518
 21
207.420315300233
 31
0.0
 11
111.6835669633518
 21
207.3424001310982
 31
0.0
 11
111.7558175877871
 21
207.3424001310982
 31
0.0
 11
111.9281075383638
 21
207.3424001310982
 31
0.0
 11
112.1337439309875
 21
207.3424001310982
 31
0.0
 11
112.306033881564
 21
207.3424001310982
 31
0.0
 11
112.3782845059994
 21
207.3424001310982
 31
0.0
 11
112.3782845059994
 21
207.3987539600826
 31
0.0
 11
112.3782845059994
 21
207.5331361676609
 31
0.0
 11
112.3782845059994
 21
207.6935278347704
 31
0.0
 11
112.3782845059994
 21
207.8279100423487
 31
0.0
 11
112.3782845059994
 21
207.8842638713331
 31
0.0
  0
SPLINE
  5
44D
330
1F
100
AcDbEntity
  8
黒地
  6
CONTINUOUS
 62
     7
100
AcDbSpline
210
0.0
220
0.0
230
1.0
 70
  1067
 71
     3
 72
    14
 73
    10
 74
     8
 42
0.000000001
 43
0.0000000001
 44
0.00000001
 40
0.0
 40
0.0
 40
0.0
 40
0.0
 40
0.2575833780417118
 40
0.5117245897125503
 40
0.7035477805220086
 40
1.059790847383404
 40
1.251614038193047
 40
1.505767792576198
 40
1.763327767467675
 40
1.763327767467675
 40
1.763327767467675
 40
1.763327767467675
 10
111.1780400462025
 20
207.6502334732889
 30
0.0
 10
111.0977883661434
 20
207.6388743336273
 30
0.0
 10
110.9383574342148
 20
207.6163078515525
 30
0.0
 10
110.7124421566302
 20
207.2913248758425
 30
0.0
 10
111.0955172855671
 20
207.3631257217642
 30
0.0
 10
111.2605616563996
 20
207.3631235734209
 30
0.0
 10
111.6436467604401
 20
207.2913276969588
 30
0.0
 10
111.4177011279321
 20
207.6162923175226
 30
0.0
 10
111.2582808004358
 20
207.6388696588508
 30
0.0
 10
111.1780400462025
 20
207.6502334732889
 30
0.0
 11
111.1780400462025
 21
207.6502334732889
 31
0.0
 11
110.9360464367004
 21
207.5619821579889
 31
0.0
 11
110.8080953153739
 21
207.3424001310982
 31
0.0
 11
110.9999185091369
 21
207.3424001310982
 31
0.0
 11
111.3561615832681
 21
207.3424001310982
 31
0.0
 11
111.5479847770311
 21
207.3424001310982
 31
0.0
 11
111.4200087447198
 21
207.5619821579889
 31
0.0
 11
111.1780400462025
 21
207.6502334732889
 31
0.0
  0
SPLINE
  5
44E
330
1F
100
AcDbEntity
  8
黒地
  6
CONTINUOUS
 62
     7
100
AcDbSpline
210
0.0
220
0.0
230
1.0
 70
  1067
 71
     3
 72
    14
 73
    10
 74
     8
 42
0.000000001
 43
0.0000000001
 44
0.00000001
 40
0.0
 40
0.0
 40
0.0
 40
0.0
 40
0.2444594889094334
 40
0.4845350753411392
 40
0.6730515635376516
 40
1.023153610828853
 40
1.211670099025522
 40
1.451759425646957
 40
1.696195359227378
 40
1.696195359227378
 40
1.696195359227378
 40
1.696195359227378
 10
111.1780400462025
 20
206.8971245823923
 30
0.0
 10
111.2536109334497
 20
206.9070481899464
 30
0.0
 10
111.4033974918837
 20
206.9267174430814
 30
0.0
 10
111.6357158586891
 20
207.2256375863314
 30
0.0
 10
111.2565144331564
 20
207.1568104166936
 30
0.0
 10
111.0995666519561
 20
207.1568128184931
 30
0.0
 10
110.7203551384112
 20
207.2256344754381
 30
0.0
 10
110.952702825701
 20
206.9267328799737
 30
0.0
 10
111.1024797634892
 20
206.9070528642924
 30
0.0
 10
111.1780400462025
 20
206.8971245823923
 30
0.0
 11
111.1780400462025
 21
206.8971245823923
 31
0.0
 11
111.4091973773393
 21
206.9766653566921
 31
0.0
 11
111.5416075649355
 21
207.1769247630799
 31
0.0
 11
111.3530910737406
 21
207.1769247630799
 31
0.0
 11
111.0029890186643
 21
207.1769247630799
 31
0.0
 11
110.8144725274694
 21
207.1769247630799
 31
0.0
 11
110.9469076260505
 21
206.9766653566921
 31
0.0
 11
111.1780400462025
 21
206.8971245823923
 31
0.0
  0
SPLINE
  5
44F
330
1F
100
AcDbEntity
  8
0
  6
CONTINUOUS
 62
     7
100
AcDbSpline
210
0.0
220
0.0
230
1.0
 70
  1064
 71
     3
 72
    21
 73
    17
 74
    15
 42
0.000000001
 43
0.0000000001
 44
0.00000001
 40
0.0
 40
0.0
 40
0.0
 40
0.0
 40
0.0871645475324819
 40
0.174329083900924
 40
0.2179497874502278
 40
0.2615709762312158
 40
0.3051908185848051
 40
0.3488104695976748
 40
0.3924298329185311
 40
0.4360491968699349
 40
0.4796688505722809
 40
0.5232886929730213
 40
0.5669098795680135
 40
0.6105305905099314
 40
0.6976194567042052
 40
0.784707948712657
 40
0.784707948712657
 40
0.784707948712657
 40
0.784707948712657
 10
123.229110838827
 20
210.749050126339
 30
0.0
 10
123.2276475993763
 20
210.7781393435001
 30
0.0
 10
123.2247211061266
 20
210.8363177728167
 30
0.0
 10
123.2050236172376
 20
210.9068792921723
 30
0.0
 10
123.182849464011
 20
210.9606427620388
 30
0.0
 10
123.1626598967866
 20
210.9993860785238
 30
0.0
 10
123.1391924507595
 20
211.0362169998746
 30
0.0
 10
123.1126024877966
 20
211.0708663485935
 30
0.0
 10
123.0830894718219
 20
211.1030604309146
 30
0.0
 10
123.0508863981319
 20
211.1325636375356
 30
0.0
 10
123.0162289492409
 20
211.1591430421019
 30
0.0
 10
122.9793908768533
 20
211.1825992680331
 30
0.0
 10
122.9406414208316
 20
211.2027770246788
 30
0.0
 10
122.8868944713207
 20
211.2249252208998
 30
0.0
 10
122.8163784420623
 20
211.2445918724079
 30
0.0
 10
122.758250766981
 20
211.2475132803571
 30
0.0
 10
122.729186991239
 20
211.248973973926
 30
0.0
 11
123.229110838827
 21
210.749050126339
 31
0.0
 11
123.2215139354019
 21
210.8358829870937
 31
0.0
 11
123.1989525559649
 21
210.9200770538947
 31
0.0
 11
123.1822575832296
 21
210.960376479804
 31
0.0
 11
123.1621133366718
 21
210.999067790221
 31
0.0
 11
123.1386719464888
 21
211.0358535473899
 31
0.0
 11
123.1121152413857
 21
211.0704572382871
 31
0.0
 11
123.0826411371846
 21
211.1026119594369
 31
0.0
 11
123.0504774369322
 21
211.1320762658389
 31
0.0
 11
123.015865654119
 21
211.158622428175
 31
0.0
 11
122.9790727568091
 21
211.1820526099044
 31
0.0
 11
122.9403753131475
 21
211.2021850671452
 31
0.0
 11
122.90007079609
 21
211.2188677645588
 31
0.0
 11
122.815944663394
 21
211.2413903030172
 31
0.0
 11
122.729186991239
 21
211.248973973926
 31
0.0
  0
SPLINE
  5
450
330
1F
100
AcDbEntity
  8
0
  6
CONTINUOUS
 62
     7
100
AcDbSpline
210
0.0
220
0.0
230
1.0
 70
  1064
 71
     3
 72
    21
 73
    17
 74
    15
 42
0.000000001
 43
0.0000000001
 44
0.00000001
 40
0.0
 40
0.0
 40
0.0
 40
0.0
 40
0.0871645475320654
 40
0.1743290839002483
 40
0.2179497874497305
 40
0.2615709762309141
 40
0.3051908185845883
 40
0.348810469597523
 40
0.3924298329184099
 40
0.4360491968697841
 40
0.4796688505721241
 40
0.5232886929728764
 40
0.5669098795678439
 40
0.6105305905097834
 40
0.697619456704207
 40
0.7847079487127052
 40
0.7847079487127052
 40
0.7847079487127052
 40
0.7847079487127052
 10
122.729186991239
 20
125.248973973874
 30
0.0
 10
122.7582762083999
 20
125.2504372133244
 30
0.0
 10
122.8164546377164
 20
125.2533637065734
 30
0.0
 10
122.8870161570719
 20
125.2730611954625
 30
0.0
 10
122.9407796269384
 20
125.295235348689
 30
0.0
 10
122.9795229434236
 20
125.3154249159134
 30
0.0
 10
123.0163538647745
 20
125.3388923619404
 30
0.0
 10
123.0510032134937
 20
125.3654823249034
 30
0.0
 10
123.0831972958147
 20
125.3949953408782
 30
0.0
 10
123.1127005024355
 20
125.4271984145681
 30
0.0
 10
123.1392799070019
 20
125.4618558634591
 30
0.0
 10
123.1627361329331
 20
125.4986939358467
 30
0.0
 10
123.1829138895788
 20
125.5374433918683
 30
0.0
 10
123.2050620857999
 20
125.5911903413794
 30
0.0
 10
123.2247287373085
 20
125.6617063706375
 30
0.0
 10
123.227650145258
 20
125.7198340457189
 30
0.0
 10
123.229110838827
 20
125.748897821461
 30
0.0
 11
122.729186991239
 21
125.248973973874
 31
0.0
 11
122.8160198519933
 21
125.2565708772982
 31
0.0
 11
122.9002139187942
 21
125.2791322567351
 31
0.0
 11
122.9405133447036
 21
125.2958272294704
 31
0.0
 11
122.9792046551209
 21
125.3159714760283
 31
0.0
 11
123.0159904122899
 21
125.3394128662111
 31
0.0
 11
123.0505941031871
 21
125.3659695713143
 31
0.0
 11
123.0827488243369
 21
125.3954436755154
 31
0.0
 11
123.112213130739
 21
125.4276073757678
 31
0.0
 11
123.138759293075
 21
125.462219158581
 31
0.0
 11
123.1621894748044
 21
125.4990120558909
 31
0.0
 11
123.1823219320452
 21
125.5377094995525
 31
0.0
 11
123.1990046294589
 21
125.57801401661
 31
0.0
 11
123.2215271679178
 21
125.662140149306
 31
0.0
 11
123.229110838827
 21
125.748897821461
 31
0.0
  0
SPLINE
  5
451
330
1F
100
AcDbEntity
  8
0
  6
CONTINUOUS
 62
     7
100
AcDbSpline
210
0.0
220
0.0
230
1.0
 70
  1064
 71
     3
 72
    21
 73
    17
 74
    15
 42
0.000000001
 43
0.0000000001
 44
0.00000001
 40
0.0
 40
0.0
 40
0.0
 40
0.0
 40
0.0871645475323898
 40
0.1743290839007649
 40
0.2179497874500949
 40
0.2615709762310643
 40
0.3051908185846862
 40
0.3488104695975698
 40
0.3924298329184462
 40
0.43604919686983
 40
0.4796688505721872
 40
0.5232886929729352
 40
0.5669098795679275
 40
0.6105305905098616
 40
0.6976194567042044
 40
0.7847079487126671
 40
0.7847079487126671
 40
0.7847079487126671
 40
0.7847079487126671
 10
102.729110838874
 20
125.748897821461
 30
0.0
 10
102.7305740783244
 20
125.7198086043
 30
0.0
 10
102.7335005715734
 20
125.6616301749833
 30
0.0
 10
102.7531980604624
 20
125.5910686556276
 30
0.0
 10
102.775372213689
 20
125.5373051857613
 30
0.0
 10
102.7955617809134
 20
125.4985618692762
 30
0.0
 10
102.8190292269405
 20
125.4617309479254
 30
0.0
 10
102.8456191899033
 20
125.4270815992063
 30
0.0
 10
102.8751322058781
 20
125.3948875168854
 30
0.0
 10
102.9073352795681
 20
125.3653843102645
 30
0.0
 10
102.9419927284591
 20
125.3388049056981
 30
0.0
 10
102.9788308008467
 20
125.3153486797668
 30
0.0
 10
103.0175802568684
 20
125.2951709231212
 30
0.0
 10
103.0713272063793
 20
125.2730227269001
 30
0.0
 10
103.1418432356375
 20
125.2533560753914
 30
0.0
 10
103.1999709107189
 20
125.2504346674426
 30
0.0
 10
103.229034686461
 20
125.248973973874
 30
0.0
 11
102.729110838874
 21
125.748897821461
 31
0.0
 11
102.7367077422982
 21
125.6620649607063
 31
0.0
 11
102.7592691217351
 21
125.5778708939053
 31
0.0
 11
102.7759640944704
 21
125.537571467996
 31
0.0
 11
102.7961083410283
 21
125.498880157579
 31
0.0
 11
102.8195497312112
 21
125.4620944004101
 31
0.0
 11
102.8461064363143
 21
125.4274907095129
 31
0.0
 11
102.8755805405154
 21
125.3953359883631
 31
0.0
 11
102.9077442407678
 21
125.365871681961
 31
0.0
 11
102.942356023581
 21
125.339325519625
 31
0.0
 11
102.9791489208909
 21
125.3158953378955
 31
0.0
 11
103.0178463645525
 21
125.2957628806548
 31
0.0
 11
103.05815088161
 21
125.2790801832411
 31
0.0
 11
103.1422770143059
 21
125.2565576447823
 31
0.0
 11
103.229034686461
 21
125.248973973874
 31
0.0
  0
SPLINE
  5
452
330
1F
100
AcDbEntity
  8
0
  6
CONTINUOUS
 62
     7
100
AcDbSpline
210
0.0
220
0.0
230
1.0
 70
  1064
 71
     3
 72
    21
 73
    17
 74
    15
 42
0.000000001
 43
0.0000000001
 44
0.00000001
 40
0.0
 40
0.0
 40
0.0
 40
0.0
 40
0.0871645475321742
 40
0.1743290839003555
 40
0.2179497874498879
 40
0.2615709762310206
 40
0.3051908185847111
 40
0.3488104695976346
 40
0.3924298329184717
 40
0.4360491968698755
 40
0.4796688505722406
 40
0.5232886929729451
 40
0.5669098795679822
 40
0.6105305905099141
 40
0.6976194567042496
 40
0.7847079487127123
 40
0.7847079487127123
 40
0.7847079487127123
 40
0.7847079487127123
 10
103.229034686461
 20
211.248973973927
 30
0.0
 10
103.1999454693001
 20
211.2475107344763
 30
0.0
 10
103.1417670399836
 20
211.2445842412264
 30
0.0
 10
103.0712055206281
 20
211.2248867523375
 30
0.0
 10
103.0174420507616
 20
211.202712599111
 30
0.0
 10
102.9786987342764
 20
211.1825230318866
 30
0.0
 10
102.9418678129254
 20
211.1590555858596
 30
0.0
 10
102.9072184642064
 20
211.1324656228966
 30
0.0
 10
102.8750243818853
 20
211.1029526069219
 30
0.0
 10
102.8455211752644
 20
211.0707495332319
 30
0.0
 10
102.8189417706981
 20
211.0360920843409
 30
0.0
 10
102.7954855447669
 20
210.9992540119533
 30
0.0
 10
102.7753077881213
 20
210.9605045559316
 30
0.0
 10
102.7531595919001
 20
210.9067576064207
 30
0.0
 10
102.7334929403914
 20
210.8362415771624
 30
0.0
 10
102.7305715324426
 20
210.7781139020811
 30
0.0
 10
102.729110838874
 20
210.749050126339
 30
0.0
 11
103.229034686461
 21
211.248973973927
 31
0.0
 11
103.1422018257066
 21
211.2413770705019
 31
0.0
 11
103.0580077589059
 21
211.2188156910649
 31
0.0
 11
103.0177083329964
 21
211.2021207183296
 31
0.0
 11
102.9790170225791
 21
211.1819764717717
 31
0.0
 11
102.9422312654101
 21
211.1585350815888
 31
0.0
 11
102.9076275745129
 21
211.1319783764857
 31
0.0
 11
102.8754728533631
 21
211.1025042722847
 31
0.0
 11
102.846008546961
 21
211.0703405720322
 31
0.0
 11
102.819462384625
 21
211.035728789219
 31
0.0
 11
102.7960322028956
 21
210.9989358919091
 31
0.0
 11
102.7758997456548
 21
210.9602384482475
 31
0.0
 11
102.7592170482411
 21
210.91993393119
 31
0.0
 11
102.7366945097823
 21
210.8358077984941
 31
0.0
 11
102.729110838874
 21
210.749050126339
 31
0.0
  0
SPLINE
  5
453
330
1F
100
AcDbEntity
  8
0
  6
CONTINUOUS
 62
     7
100
AcDbSpline
210
0.0
220
0.0
230
1.0
 70
  1064
 71
     3
 72
    19
 73
    15
 74
    13
 42
0.000000001
 43
0.0000000001
 44
0.00000001
 40
0.0
 40
0.0
 40
0.0
 40
0.0
 40
0.0825770564898722
 40
0.1651524710591768
 40
0.2023323129490346
 40
0.2395114997295883
 40
0.2728804415529996
 40
0.3062498163248306
 40
0.3353195961724068
 40
0.3643803932604536
 40
0.3890433165141946
 40
0.4137291174832722
 40
0.4529090955589987
 40
0.4920012273798
 40
0.4920012273798
 40
0.4920012273798
 40
0.4920012273798
 10
123.815934927733
 20
124.491833860573
 30
0.0
 10
123.8433524541019
 20
124.4943975014234
 30
0.0
 10
123.8981869617822
 20
124.4995247309515
 30
0.0
 10
123.9645296116108
 20
124.5123662182979
 30
0.0
 10
124.015150276737
 20
124.5255984150602
 30
0.0
 10
124.0494074210316
 20
124.5364276796836
 30
0.0
 10
124.0818460441511
 20
124.5486268782921
 30
0.0
 10
124.1110031690644
 20
124.5617141904827
 30
0.0
 10
124.1379329136892
 20
124.576096205283
 30
0.0
 10
124.1611544882792
 20
124.5910539155769
 30
0.0
 10
124.181827482044
 20
124.6071767999623
 30
0.0
 10
124.2026800213366
 20
124.6279564494824
 30
0.0
 10
124.2235989862247
 20
124.6564951096992
 30
0.0
 10
124.2272749342893
 20
124.6827043229203
 30
0.0
 10
124.2291108389
 20
124.6957942244
 30
0.0
 11
123.815934927733
 21
124.491833860573
 31
0.0
 11
123.898016808731
 21
124.5008634468293
 31
0.0
 11
123.9791108388998
 21
124.516434490585
 31
0.0
 11
124.015065659759
 21
124.5258997692372
 31
0.0
 11
124.0505046437429
 21
124.5371412255297
 31
0.0
 11
124.0817152763086
 21
124.548947269993
 31
0.0
 11
124.1121330604593
 21
124.562668551563
 31
0.0
 11
124.1377343754757
 21
124.5764389820273
 31
0.0
 11
124.1621235407922
 21
124.5922408338003
 31
0.0
 11
124.1814749810298
 21
124.6075307493071
 31
0.0
 11
124.1989571492931
 21
124.6249595334102
 31
0.0
 11
124.2205531332554
 21
124.657650272487
 31
0.0
 11
124.2291108389
 21
124.6957942244
 31
0.0
  0
SPLINE
  5
454
330
1F
100
AcDbEntity
  8
0
  6
CONTINUOUS
 62
     7
100
AcDbSpline
210
0.0
220
0.0
230
1.0
 70
  1064
 71
     3
 72
    19
 73
    15
 74
    13
 42
0.000000001
 43
0.0000000001
 44
0.00000001
 40
0.0
 40
0.0
 40
0.0
 40
0.0
 40
0.0390921318208075
 40
0.0782721098965104
 40
0.102957910865578
 40
0.1276208341193302
 40
0.1566816312073924
 40
0.1857514110549416
 40
0.2191207858267668
 40
0.25248972765018
 40
0.2896689144307686
 40
0.3268487563206055
 40
0.40942417088993
 40
0.4920012273797865
 40
0.4920012273797865
 40
0.4920012273797865
 40
0.4920012273797865
 10
124.2291108389
 20
211.8021537234
 30
0.0
 10
124.2272749342893
 20
211.8152436248797
 30
0.0
 10
124.2235989862247
 20
211.8414528381009
 30
0.0
 10
124.2026800213366
 20
211.8699914983175
 30
0.0
 10
124.181827482044
 20
211.8907711478377
 30
0.0
 10
124.1611544882792
 20
211.906894032223
 30
0.0
 10
124.1379329136892
 20
211.9218517425171
 30
0.0
 10
124.1110031690644
 20
211.9362337573173
 30
0.0
 10
124.0818460441511
 20
211.9493210695078
 30
0.0
 10
124.0494074210316
 20
211.9615202681164
 30
0.0
 10
124.015150276737
 20
211.9723495327399
 30
0.0
 10
123.9645296116109
 20
211.9855817295021
 30
0.0
 10
123.8981869617821
 20
211.9984232168484
 30
0.0
 10
123.8433524541019
 20
212.0035504463767
 30
0.0
 10
123.815934927733
 20
212.006114087227
 30
0.0
 11
124.2291108389
 21
211.8021537234
 31
0.0
 11
124.2205531332554
 21
211.8402976753131
 31
0.0
 11
124.1989571492931
 21
211.8729884143898
 31
0.0
 11
124.1814749810298
 21
211.8904171984929
 31
0.0
 11
124.1621235407922
 21
211.9057071139997
 31
0.0
 11
124.1377343754757
 21
211.9215089657727
 31
0.0
 11
124.1121330604593
 21
211.935279396237
 31
0.0
 11
124.0817152763086
 21
211.949000677807
 31
0.0
 11
124.0505046437429
 21
211.9608067222703
 31
0.0
 11
124.015065659759
 21
211.9720481785629
 31
0.0
 11
123.9791108388998
 21
211.981513457215
 31
0.0
 11
123.898016808731
 21
211.9970845009707
 31
0.0
 11
123.815934927733
 21
212.006114087227
 31
0.0
  0
SPLINE
  5
455
330
1F
100
AcDbEntity
  8
0
  6
CONTINUOUS
 62
     7
100
AcDbSpline
210
0.0
220
0.0
230
1.0
 70
  1064
 71
     3
 72
    19
 73
    15
 74
    13
 42
0.000000001
 43
0.0000000001
 44
0.00000001
 40
0.0
 40
0.0
 40
0.0
 40
0.0
 40
0.0390921318208429
 40
0.0782721098965337
 40
0.1029579108656113
 40
0.1276208341194252
 40
0.1566816312076616
 40
0.185751411055307
 40
0.2191207858270983
 40
0.2524897276504124
 40
0.2896689144309502
 40
0.3268487563207559
 40
0.4094241708900466
 40
0.4920012273799313
 40
0.4920012273799313
 40
0.4920012273799313
 40
0.4920012273799313
 10
101.7291108389
 20
124.6957942244
 30
0.0
 10
101.7309467435107
 20
124.6827043229203
 30
0.0
 10
101.7346226915753
 20
124.6564951096991
 30
0.0
 10
101.7555416564635
 20
124.6279564494825
 30
0.0
 10
101.776394195756
 20
124.6071767999623
 30
0.0
 10
101.7970671895209
 20
124.5910539155768
 30
0.0
 10
101.8202887641108
 20
124.5760962052825
 30
0.0
 10
101.8472185087355
 20
124.561714190482
 30
0.0
 10
101.8763756336488
 20
124.5486268782916
 30
0.0
 10
101.9088142567684
 20
124.5364276796835
 30
0.0
 10
101.943071401063
 20
124.5255984150601
 30
0.0
 10
101.9936920661892
 20
124.512366218298
 30
0.0
 10
102.0600347160178
 20
124.4995247309514
 30
0.0
 10
102.1148692236981
 20
124.4943975014234
 30
0.0
 10
102.142286750067
 20
124.491833860573
 30
0.0
 11
101.7291108389
 21
124.6957942244
 31
0.0
 11
101.7376685445446
 21
124.6576502724869
 31
0.0
 11
101.7592645285069
 21
124.6249595334102
 31
0.0
 11
101.7767466967702
 21
124.6075307493071
 31
0.0
 11
101.7960981370078
 21
124.5922408338002
 31
0.0
 11
101.8204873023243
 21
124.5764389820269
 31
0.0
 11
101.8460886173406
 21
124.5626685515623
 31
0.0
 11
101.8765064014914
 21
124.5489472699925
 31
0.0
 11
101.9077170340571
 21
124.5371412255295
 31
0.0
 11
101.943156018041
 21
124.5258997692372
 31
0.0
 11
101.9791108389002
 21
124.516434490585
 31
0.0
 11
102.060204869069
 21
124.5008634468293
 31
0.0
 11
102.142286750067
 21
124.491833860573
 31
0.0
  0
SPLINE
  5
456
330
1F
100
AcDbEntity
  8
0
  6
CONTINUOUS
 62
     7
100
AcDbSpline
210
0.0
220
0.0
230
1.0
 70
  1064
 71
     3
 72
    19
 73
    15
 74
    13
 42
0.000000001
 43
0.0000000001
 44
0.00000001
 40
0.0
 40
0.0
 40
0.0
 40
0.0
 40
0.0825770564898675
 40
0.1651524710591941
 40
0.2023323129489825
 40
0.2395114997295897
 40
0.272880441552996
 40
0.3062498163248328
 40
0.3353195961723705
 40
0.3643803932604721
 40
0.3890433165142242
 40
0.4137291174832617
 40
0.4529090955589487
 40
0.492001227379784
 40
0.492001227379784
 40
0.492001227379784
 40
0.492001227379784
 10
102.142286750067
 20
212.006114087227
 30
0.0
 10
102.1148692236981
 20
212.0035504463766
 30
0.0
 10
102.0600347160178
 20
211.9984232168485
 30
0.0
 10
101.9936920661891
 20
211.985581729502
 30
0.0
 10
101.943071401063
 20
211.9723495327399
 30
0.0
 10
101.9088142567684
 20
211.9615202681163
 30
0.0
 10
101.8763756336488
 20
211.949321069508
 30
0.0
 10
101.8472185087356
 20
211.9362337573173
 30
0.0
 10
101.8202887641108
 20
211.9218517425171
 30
0.0
 10
101.7970671895208
 20
211.9068940322231
 30
0.0
 10
101.776394195756
 20
211.8907711478376
 30
0.0
 10
101.7555416564634
 20
211.8699914983176
 30
0.0
 10
101.7346226915753
 20
211.8414528381008
 30
0.0
 10
101.7309467435107
 20
211.8152436248796
 30
0.0
 10
101.7291108389
 20
211.8021537234
 30
0.0
 11
102.142286750067
 21
212.006114087227
 31
0.0
 11
102.060204869069
 21
211.9970845009707
 31
0.0
 11
101.9791108389002
 21
211.981513457215
 31
0.0
 11
101.943156018041
 21
211.9720481785628
 31
0.0
 11
101.9077170340571
 21
211.9608067222703
 31
0.0
 11
101.8765064014914
 21
211.949000677807
 31
0.0
 11
101.8460886173407
 21
211.9352793962371
 31
0.0
 11
101.8204873023243
 21
211.9215089657727
 31
0.0
 11
101.7960981370078
 21
211.9057071139997
 31
0.0
 11
101.7767466967702
 21
211.8904171984929
 31
0.0
 11
101.7592645285069
 21
211.8729884143898
 31
0.0
 11
101.7376685445446
 21
211.8402976753131
 31
0.0
 11
101.7291108389
 21
211.8021537234
 31
0.0
  0
XLINE
  5
457
330
1F
100
AcDbEntity
  8
1
  6
DOT_CENTER
 62
     3
 60
     1
100
AcDbXline
 10
102.729110838874
 20
129.2664298796
 30
0.0
 11
-1.0
 21
0.0
 31
0.0
  0
XLINE
  5
458
330
1F
100
AcDbEntity
  8
1
  6
DOT_CENTER
 62
     3
 60
     1
100
AcDbXline
 10
102.729110838874
 20
207.7315190815
 30
0.0
 11
-1.0
 21
0.0
 31
0.0
  0
XLINE
  5
459
330
1F
100
AcDbEntity
  8
1
  6
DOT_CENTER
 62
     3
 60
     1
100
AcDbXline
 10
218.2983088031
 20
209.0489754461
 30
0.0
 11
-1.0
 21
0.0
 31
0.0
  0
LWPOLYLINE
  5
45A
330
1F
100
AcDbEntity
  8
黒地
  6
CONTINUOUS
 62
     7
100
AcDbPolyline
 90
        5
 70
     1
 43
0.0
 10
113.4523133097407
 20
206.2489739739
 10
114.1460344129986
 20
206.2489739739
 10
114.1460344129986
 20
207.1769247630799
 10
113.4523133097407
 20
207.1769247630799
 10
113.4523133097407
 20
206.2489739739
  0
LWPOLYLINE
  5
45B
330
1F
100
AcDbEntity
  8
黒地
  6
CONTINUOUS
 62
     7
100
AcDbPolyline
 90
        5
 70
     1
 43
0.0
 10
114.1460344129986
 20
208.7489739739
 10
113.4523133097407
 20
208.7489739739
 10
113.4523133097407
 20
208.3846093036551
 10
114.1460344129986
 20
208.3846093036551
 10
114.1460344129986
 20
208.7489739739
  0
LWPOLYLINE
  5
45C
330
1F
100
AcDbEntity
  8
黒地
  6
CONTINUOUS
 62
     7
100
AcDbPolyline
 90
        5
 70
     1
 43
0.0
 10
114.1460344129986
 20
208.2730745212774
 10
113.4523133097407
 20
208.2730745212774
 10
113.4523133097407
 20
207.3424001310982
 10
114.1460344129986
 20
207.3424001310982
 10
114.1460344129986
 20
208.2730745212774
  0
LWPOLYLINE
  5
45D
330
1F
100
AcDbEntity
  8
黒地
  6
CONTINUOUS
 62
     7
100
AcDbPolyline
 90
        5
 70
     1
 43
0.0
 10
108.081438568815
 20
206.2489739739
 10
108.775691106414
 20
206.2489739739
 10
108.775691106414
 20
207.1769247630799
 10
108.081438568815
 20
207.1769247630799
 10
108.081438568815
 20
206.2489739739
  0
LWPOLYLINE
  5
45E
330
1F
100
AcDbEntity
  8
黒地
  6
CONTINUOUS
 62
     7
100
AcDbPolyline
 90
        5
 70
     1
 43
0.0
 10
109.0145044135298
 20
206.2489739739
 10
109.7083583753728
 20
206.2489739739
 10
109.7083583753728
 20
207.1769247630799
 10
109.0145044135298
 20
207.1769247630799
 10
109.0145044135298
 20
206.2489739739
  0
LWPOLYLINE
  5
45F
330
1F
100
AcDbEntity
  8
黒地
  6
CONTINUOUS
 62
     7
100
AcDbPolyline
 90
        5
 70
     1
 43
0.0
 10
109.9471716824888
 20
206.2489739739
 10
110.6410920736244
 20
206.2489739739
 10
110.6410920736244
 20
207.1769247630799
 10
109.9471716824888
 20
207.1769247630799
 10
109.9471716824888
 20
206.2489739739
  0
LWPOLYLINE
  5
460
330
1F
100
AcDbEntity
  8
0
  6
CONTINUOUS
 62
     7
100
AcDbPolyline
 90
        9
 70
     0
 43
0.0
 10
102.2203846611
 20
129.4613445186
 10
102.1240882352
 20
129.4630246245
 10
102.0317388999
 20
129.4646376752
 10
101.9468073743
 20
129.4661203407
 10
101.8724856209
 20
129.4674167418
 10
101.8115668509
 20
129.4684821748
 10
101.7663405861
 20
129.4692719363
 10
101.7385065558
 20
129.4697562241
 10
101.7291108389
 20
129.4699201368
  0
LWPOLYLINE
  5
461
330
1F
100
AcDbEntity
  8
0
  6
CONTINUOUS
 62
     7
100
AcDbPolyline
 90
        9
 70
     0
 43
0.0
 10
101.7291108389
 20
207.5280288242
 10
101.7385065558
 20
207.528192737
 10
101.7663405861
 20
207.5286770247
 10
101.8115668509
 20
207.5294667863
 10
101.8724856209
 20
207.5305322193
 10
101.9468073743
 20
207.5318286203
 10
102.0317388999
 20
207.5333112859
 10
102.1240882352
 20
207.5349206113
 10
102.2203846611
 20
207.5366044425
  0
LWPOLYLINE
  5
462
330
1F
100
AcDbEntity
  8
0
  6
CONTINUOUS
 62
     7
100
AcDbPolyline
 90
        9
 70
     0
 43
0.0
 10
124.2291117329
 20
123.9253023647
 10
124.2215140034
 20
123.9239612602
 10
124.1989573706
 20
123.9199826502
 10
124.1621235628
 20
123.9134894692
 10
124.1121338923
 20
123.9046754324
 10
124.0505045522
 20
123.8938087606
 10
123.9791112263
 20
123.8812210046
 10
123.9001201708
 20
123.8672921442
 10
123.815934198
 20
123.8524468624
  0
LWPOLYLINE
  5
463
330
1F
100
AcDbEntity
  8
0
  6
CONTINUOUS
 62
     7
100
AcDbPolyline
 90
        9
 70
     0
 43
0.0
 10
123.815934198
 20
212.6455010854
 10
123.9001201708
 20
212.6306558036
 10
123.9791112263
 20
212.6167269432
 10
124.0505045522
 20
212.6041391872
 10
124.1121338923
 20
212.5932725154
 10
124.1621235628
 20
212.5844584786
 10
124.1989573706
 20
212.5779652976
 10
124.2215140034
 20
212.5739866876
 10
124.2291117329
 20
212.5726455831
  0
LWPOLYLINE
  5
464
330
1F
100
AcDbEntity
  8
0
  6
CONTINUOUS
 62
     7
100
AcDbPolyline
 90
        8
 70
     0
 43
0.0
 10
101.7291108389
 20
129.2489731692
 10
101.7390245949
 20
129.2491482579
 10
101.768372732
 20
129.2496586226
 10
101.8159914553
 20
129.2504893624
 10
101.8799924301
 20
129.2516069495
 10
101.9578377115
 20
129.2529666804
 10
102.0464403215
 20
129.2545126759
 10
102.142286744
 20
129.2561853313
  0
LWPOLYLINE
  5
465
330
1F
100
AcDbEntity
  8
0
  6
CONTINUOUS
 62
     7
100
AcDbPolyline
 90
        9
 70
     0
 43
0.0
 10
102.142286744
 20
123.8524468624
 10
102.0581007712
 20
123.8672921442
 10
101.9791108507
 20
123.8812210046
 10
101.90771703
 20
123.8938087606
 10
101.846088614
 20
123.9046754324
 10
101.7960981359
 20
123.9134894692
 10
101.7592645282
 20
123.9199826502
 10
101.7367069623
 20
123.9239612602
 10
101.7291108389
 20
123.9253023647
  0
LWPOLYLINE
  5
466
330
1F
100
AcDbEntity
  8
0
  6
CONTINUOUS
 62
     7
100
AcDbPolyline
 90
        8
 70
     0
 43
0.0
 10
102.142286744
 20
207.7417636298
 10
102.0464403215
 20
207.7434362852
 10
101.9578377115
 20
207.7449822806
 10
101.8799924301
 20
207.7463420116
 10
101.8159914553
 20
207.7474558734
 10
101.768372732
 20
207.7482903384
 10
101.7390245949
 20
207.7488007032
 10
101.7291108389
 20
207.7489757918
  0
LWPOLYLINE
  5
467
330
1F
100
AcDbEntity
  8
0
  6
CONTINUOUS
 62
     7
100
AcDbPolyline
 90
        8
 70
     0
 43
0.0
 10
101.7291108389
 20
212.5726455831
 10
101.7390245949
 20
212.5743964695
 10
101.768372732
 20
212.5795708977
 10
101.8159914553
 20
212.5879677021
 10
101.8799924301
 20
212.5992516064
 10
101.9578377115
 20
212.6129793011
 10
102.0464403215
 20
212.6285994433
 10
102.142286744
 20
212.6455010854
  0
DIMENSION
  5
47B
330
1F
100
AcDbEntity
  8
1
100
AcDbDimension
  2
*D1
 10
232.8962499931
 20
116.748973199
 30
0.0
 11
247.8962499931
 21
118.998973199
 31
0.0
 70
    32
  1
30
 53
0.00013888888889
  3
ME10_DIM_10
100
AcDbAlignedDimension
 13
262.8962499931
 23
135.5888041499398
 33
0.0
 14
232.8962499931
 24
158.5888041499398
 34
0.0
100
AcDbRotatedDimension
  0
DIMENSION
  5
488
330
1F
100
AcDbEntity
  8
1
100
AcDbDimension
  2
*D3
 10
127.4367123728933
 20
109.748973199
 30
0.0
 11
112.9367123728933
 21
111.998973199
 31
0.0
 70
    32
  1
29.5
 53
0.00013888888889
  3
ME10_DIM_11
100
AcDbAlignedDimension
 13
98.4367123728933
 23
140.8091429467798
 33
0.0
 14
127.4367123728933
 24
140.8091429467798
 34
0.0
100
AcDbRotatedDimension
  0
DIMENSION
  5
495
330
1F
100
AcDbEntity
  8
1
100
AcDbDimension
  2
*D4
 10
101.7291108389
 20
116.748973199
 30
0.0
 11
112.9791112859
 21
118.998973199
 31
0.0
 70
    32
  1
<>
 53
0.00013888888889
  3
ME10_DIM_12
100
AcDbAlignedDimension
 13
124.2291117329
 23
124.6957929813
 33
0.0
 14
101.7291108389
 24
124.6957929813
 34
0.0
100
AcDbRotatedDimension
  0
DIMENSION
  5
4A2
330
1F
100
AcDbEntity
  8
1
100
AcDbDimension
  2
*D5
 10
145.833685757168
 20
123.748973199
 30
0.0
 11
143.583685757168
 21
168.2489739739
 31
0.0
 70
    32
  1
<>
 53
90.0
  3
ME10_DIM_13
100
AcDbAlignedDimension
 13
123.229111569
 23
212.7489747488
 33
0.0
 14
123.229111569
 24
123.748973199
 34
0.0
 50
90.0
100
AcDbRotatedDimension
  0
DIMENSION
  5
4AF
330
1F
100
AcDbEntity
  8
1
100
AcDbDimension
  2
*D6
 10
162.8962496951
 20
116.748973199
 30
0.0
 11
157.896249695072
 21
118.998973199
 31
0.0
 70
    32
  1
<>
 53
0.00013888888889
  3
ME10_DIM_14
100
AcDbAlignedDimension
 13
152.8962496950439
 23
167.917631280651
 33
0.0
 14
162.8962496951
 24
125.7488990211
 34
0.0
100
AcDbRotatedDimension
  0
DIMENSION
  5
4BC
330
1F
100
AcDbEntity
  8
1
100
AcDbDimension
  2
*D7
 10
232.8962499931
 20
116.748973199
 30
0.0
 11
197.8962498441
 21
118.998973199
 31
0.0
 70
    32
  1
<>
 53
0.00013888888889
  3
ME10_DIM_15
100
AcDbAlignedDimension
 13
162.8962496951
 23
125.7488990211
 33
0.0
 14
232.8962499931
 24
126.2489745401
 34
0.0
100
AcDbRotatedDimension
  0
DIMENSION
  5
4C9
330
1F
100
AcDbEntity
  8
1
100
AcDbDimension
  2
*D8
 10
138.833685757168
 20
175.5887888911399
 30
0.0
 11
136.583685757168
 21
195.612167223687
 31
0.0
 70
    32
  1
37
 53
90.0
  3
ME10_DIM_16
100
AcDbAlignedDimension
 13
123.229111569
 23
212.7489747488
 33
0.0
 14
132.736623159917
 24
175.5887888911399
 34
0.0
 50
90.0
100
AcDbRotatedDimension
  0
ENDSEC
  0
SECTION
  2
OBJECTS
  0
DICTIONARY
  5
C
330
0
100
AcDbDictionary
  3
ACAD_GROUP
350
D
  3
ACAD_LAYOUT
350
1A
  3
ACAD_MATERIAL
350
43
  3
ACAD_MLEADERSTYLE
350
6B
  3
ACAD_MLINESTYLE
350
17
  3
ACAD_PLOTSETTINGS
350
19
  3
ACAD_SCALELIST
350
47
  3
ACAD_VISUALSTYLE
350
2A
  3
ACDBHEADERROUNDTRIPXREC
350
4CA
  3
ACDBVARIABLEDICTIONARY
350
4EB
  0
DICTIONARY
  5
4F2
330
8
100
AcDbDictionary
280
     1
  3
ACAD_XREC_ROUNDTRIP
360
4F3
  0
DICTIONARY
  5
D
102
{ACAD_REACTORS
330
C
102
}
330
C
100
AcDbDictionary
  0
DICTIONARY
  5
1A
102
{ACAD_REACTORS
330
C
102
}
330
C
100
AcDbDictionary
  0
DICTIONARY
  5
43
102
{ACAD_REACTORS
330
C
102
}
330
C
100
AcDbDictionary
  3
BYBLOCK
350
45
  3
BYLAYER
350
44
  3
GLOBAL
350
46
  0
DICTIONARY
  5
6B
102
{ACAD_REACTORS
330
C
102
}
330
C
100
AcDbDictionary
  3
STANDARD
350
6C
  0
DICTIONARY
  5
17
102
{ACAD_REACTORS
330
C
102
}
330
C
100
AcDbDictionary
  3
STANDARD
350
18
  0
DICTIONARY
  5
19
102
{ACAD_REACTORS
330
C
102
}
330
C
100
AcDbDictionary
  0
DICTIONARY
  5
47
102
{ACAD_REACTORS
330
C
102
}
330
C
100
AcDbDictionary
  3
A0
350
48
  3
A1
350
49
  3
A2
350
4A
  3
A3
350
4B
  3
A4
350
4C
  3
A5
350
4D
  3
A6
350
4E
  3
A7
350
4F
  3
A8
350
50
  3
A9
350
51
  3
B0
350
52
  3
B1
350
53
  3
B2
350
54
  3
B3
350
55
  3
B4
350
56
  3
B5
350
57
  3
B6
350
58
  3
B7
350
59
  3
B8
350
5A
  3
B9
350
5B
  3
C0
350
5C
  3
C1
350
5D
  3
C2
350
5E
  3
C3
350
5F
  3
C4
350
60
  3
C5
350
61
  3
C6
350
62
  3
C7
350
63
  3
C8
350
64
  3
C9
350
65
  3
D0
350
66
  3
D1
350
67
  3
D2
350
68
  0
DICTIONARY
  5
2A
102
{ACAD_REACTORS
330
C
102
}
330
C
100
AcDbDictionary
  3
2DWIREFRAME
350
2F
  3
BASIC
350
32
  3
BRIGHTEN
350
36
  3
COLORCHANGE
350
3A
  3
CONCEPTUAL
350
34
  3
DIM
350
35
  3
EDGECOLOROFF
350
3D
  3
FACEPATTERN
350
39
  3
FLAT
350
2B
  3
FLATWITHEDGES
350
2C
  3
GOURAUD
350
2D
  3
GOURAUDWITHEDGES
350
2E
  3
HIDDEN
350
31
  3
JITTEROFF
350
3B
  3
LINEPATTERN
350
38
  3
OVERHANGOFF
350
3C
  3
REALISTIC
350
33
  3
SHADED
350
42
  3
SHADED_WITH_EDGES
350
41
  3
SHADES_OF_GRAY
350
3E
  3
SKETCHY
350
3F
  3
THICKEN
350
37
  3
WIREFRAME
350
30
  3
X-RAY
350
40
  0
DICTIONARY
  5
4CA
102
{ACAD_REACTORS
330
C
102
}
330
C
100
AcDbDictionary
  3
CEPSNID
350
4D4
  3
CEPSNTYPE
350
4D3
  3
DIMSTYLEDATA
350
4EA
  3
FINGERPRINTGUID
350
4D5
  3
HYPERLINKBASE
350
4CD
  3
INSUNITS
350
4D2
  3
LAYOUTDICT
350
4CF
  3
LWETCUNION
350
4D1
  3
PLOTSETDICT
350
4D0
  3
PSVPSCALE
350
4D7
  3
PUCSBASE
350
4DA
  3
PUCSORGBACK
350
4E0
  3
PUCSORGBOTTOM
350
4DC
  3
PUCSORGFRONT
350
4DF
  3
PUCSORGLEFT
350
4DD
  3
PUCSORGRIGHT
350
4DE
  3
PUCSORGTOP
350
4DB
  3
PUCSORTHOREF
350
4D8
  3
PUCSORTHOVIEW
350
4D9
  3
STYLESHEET
350
4CE
  3
TSTACKALIGN
350
4CB
  3
TSTACKSIZE
350
4CC
  3
UCSBASE
350
4E3
  3
UCSORGBACK
350
4E9
  3
UCSORGBOTTOM
350
4E5
  3
UCSORGFRONT
350
4E8
  3
UCSORGLEFT
350
4E6
  3
UCSORGRIGHT
350
4E7
  3
UCSORGTOP
350
4E4
  3
UCSORTHOREF
350
4E1
  3
UCSORTHOVIEW
350
4E2
  3
VERSIONGUID
350
4D6
  0
DICTIONARY
  5
4EB
102
{ACAD_REACTORS
330
C
102
}
330
C
100
AcDbDictionary
  3
CANNOSCALE
350
4F4
  3
CMLEADERSTYLE
350
4ED
  3
CTABLESTYLE
350
4EC
  3
DIMASSOC
350
4F0
  3
HIDETEXT
350
4F1
  3
MSLTSCALE
350
4F5
  0
XRECORD
  5
4F3
102
{ACAD_REACTORS
330
4F2
102
}
330
4F2
100
AcDbXrecord
102
VTR_0.000_0.000_1.000_1.000_GRIDDISPLAY
 70
     3
102
VTR_0.000_0.000_1.000_1.000_GRIDMAJOR
 70
     5
102
VTR_0.000_0.000_1.000_1.000_DEFAULTLIGHTING
280
     1
102
VTR_0.000_0.000_1.000_1.000_DEFAULTLIGHTINGTYPE
 70
     1
102
VTR_0.000_0.000_1.000_1.000_BRIGHTNESS
141
0.0
102
VTR_0.000_0.000_1.000_1.000_CONTRAST
142
0.0
  0
MATERIAL
  5
45
102
{ACAD_REACTORS
330
43
102
}
102
{ACAD_XDICTIONARY
360
4F8
102
}
330
43
100
AcDbMaterial
  1
BYBLOCK
  0
MATERIAL
  5
44
102
{ACAD_REACTORS
330
43
102
}
102
{ACAD_XDICTIONARY
360
4F6
102
}
330
43
100
AcDbMaterial
  1
BYLAYER
  0
MATERIAL
  5
46
102
{ACAD_REACTORS
330
43
102
}
102
{ACAD_XDICTIONARY
360
4FA
102
}
330
43
100
AcDbMaterial
  1
GLOBAL
  0
ACAD_PROXY_OBJECT
  5
6C
102
{ACAD_REACTORS
330
6B
102
}
330
6B
100
AcDbProxyObject
 90
      499
 91
      505
 93
      610
310
40901902A4063FBFFFFFE056BD1B81E855B9FC0AD7A3703D0AD73F4214DD185B99185C9900AD7A3703D0AC73F90141901A02B5E8DC0F42B1CFC02B5E8DC0F42B1CFE5764000000000000300FC0
340
14
340
0
340
11
340
0
 94
        0
1001
ACAD_MLEADERVER
1070
     2
  0
MLINESTYLE
  5
18
102
{ACAD_REACTORS
330
17
102
}
330
17
100
AcDbMlineStyle
  2
Standard
 70
     0
  3

 62
   256
 51
90.0
 52
90.0
 71
     2
 49
0.5
 62
   256
  6
BYLAYER
 49
-0.5
 62
   256
  6
BYLAYER
  0
ACAD_PROXY_OBJECT
  5
48
102
{ACAD_REACTORS
330
47
102
}
330
47
100
AcDbProxyObject
 90
      499
 91
      503
 93
       41
310
903313A31580
  0
ACAD_PROXY_OBJECT
  5
49
102
{ACAD_REACTORS
330
47
102
}
330
47
100
AcDbProxyObject
 90
      499
 91
      503
 93
      105
310
903313A324000000000000004000
  0
ACAD_PROXY_OBJECT
  5
4A
102
{ACAD_REACTORS
330
47
102
}
330
47
100
AcDbProxyObject
 90
      499
 91
      503
 93
      105
310
903313A344000000000000104000
  0
ACAD_PROXY_OBJECT
  5
4B
102
{ACAD_REACTORS
330
47
102
}
330
47
100
AcDbProxyObject
 90
      499
 91
      503
 93
      105
310
903313A354000000000000144000
  0
ACAD_PROXY_OBJECT
  5
4C
102
{ACAD_REACTORS
330
47
102
}
330
47
100
AcDbProxyObject
 90
      499
 91
      503
 93
      105
310
903313A384000000000000204000
  0
ACAD_PROXY_OBJECT
  5
4D
102
{ACAD_REACTORS
330
47
102
}
330
47
100
AcDbProxyObject
 90
      499
 91
      503
 93
      113
310
904313A31304000000000000244000
  0
ACAD_PROXY_OBJECT
  5
4E
102
{ACAD_REACTORS
330
47
102
}
330
47
100
AcDbProxyObject
 90
      499
 91
      503
 93
      113
310
904313A31364000000000000304000
  0
ACAD_PROXY_OBJECT
  5
4F
102
{ACAD_REACTORS
330
47
102
}
330
47
100
AcDbProxyObject
 90
      499
 91
      503
 93
      113
310
904313A32304000000000000344000
  0
ACAD_PROXY_OBJECT
  5
50
102
{ACAD_REACTORS
330
47
102
}
330
47
100
AcDbProxyObject
 90
      499
 91
      503
 93
      113
310
904313A333040000000000003E4000
  0
ACAD_PROXY_OBJECT
  5
51
102
{ACAD_REACTORS
330
47
102
}
330
47
100
AcDbProxyObject
 90
      499
 91
      503
 93
      113
310
904313A34304000000000000444000
  0
ACAD_PROXY_OBJECT
  5
52
102
{ACAD_REACTORS
330
47
102
}
330
47
100
AcDbProxyObject
 90
      499
 91
      503
 93
      113
310
904313A35304000000000000494000
  0
ACAD_PROXY_OBJECT
  5
53
102
{ACAD_REACTORS
330
47
102
}
330
47
100
AcDbProxyObject
 90
      499
 91
      503
 93
      121
310
905313A3130304000000000000594000
  0
ACAD_PROXY_OBJECT
  5
54
102
{ACAD_REACTORS
330
47
102
}
330
47
100
AcDbProxyObject
 90
      499
 91
      503
 93
      105
310
903323A310000000000000010100
  0
ACAD_PROXY_OBJECT
  5
55
102
{ACAD_REACTORS
330
47
102
}
330
47
100
AcDbProxyObject
 90
      499
 91
      503
 93
      105
310
903343A310000000000000410100
  0
ACAD_PROXY_OBJECT
  5
56
102
{ACAD_REACTORS
330
47
102
}
330
47
100
AcDbProxyObject
 90
      499
 91
      503
 93
      105
310
903383A310000000000000810100
  0
ACAD_PROXY_OBJECT
  5
57
102
{ACAD_REACTORS
330
47
102
}
330
47
100
AcDbProxyObject
 90
      499
 91
      503
 93
      113
310
90431303A310000000000000910100
  0
ACAD_PROXY_OBJECT
  5
58
102
{ACAD_REACTORS
330
47
102
}
330
47
100
AcDbProxyObject
 90
      499
 91
      503
 93
      121
310
9053130303A310000000000001650100
  0
ACAD_PROXY_OBJECT
  5
59
102
{ACAD_REACTORS
330
47
102
}
330
47
100
AcDbProxyObject
 90
      499
 91
      503
 93
      257
310
90E312F31323822203D2031272D3022000000000000200FC000000000000284000
  0
ACAD_PROXY_OBJECT
  5
5A
102
{ACAD_REACTORS
330
47
102
}
330
47
100
AcDbProxyObject
 90
      499
 91
      503
 93
      249
310
90D312F363422203D2031272D3022000000000000240FC000000000000284000
  0
ACAD_PROXY_OBJECT
  5
5B
102
{ACAD_REACTORS
330
47
102
}
330
47
100
AcDbProxyObject
 90
      499
 91
      503
 93
      249
310
90D312F333222203D2031272D3022000000000000280FC000000000000284000
  0
ACAD_PROXY_OBJECT
  5
5C
102
{ACAD_REACTORS
330
47
102
}
330
47
100
AcDbProxyObject
 90
      499
 91
      503
 93
      249
310
90D312F313622203D2031272D30220000000000002C0FC000000000000284000
  0
ACAD_PROXY_OBJECT
  5
5D
102
{ACAD_REACTORS
330
47
102
}
330
47
100
AcDbProxyObject
 90
      499
 91
      503
 93
      249
310
90D332F333222203D2031272D30220000000000002E0FC000000000000284000
  0
ACAD_PROXY_OBJECT
  5
5E
102
{ACAD_REACTORS
330
47
102
}
330
47
100
AcDbProxyObject
 90
      499
 91
      503
 93
      241
310
90C312F3822203D2031272D3022000000000000300FC000000000000284000
  0
ACAD_PROXY_OBJECT
  5
5F
102
{ACAD_REACTORS
330
47
102
}
330
47
100
AcDbProxyObject
 90
      499
 91
      503
 93
      249
310
90D332F313622203D2031272D3022000000000000320FC000000000000284000
  0
ACAD_PROXY_OBJECT
  5
60
102
{ACAD_REACTORS
330
47
102
}
330
47
100
AcDbProxyObject
 90
      499
 91
      503
 93
      241
310
90C312F3422203D2031272D3022000000000000340FC000000000000284000
  0
ACAD_PROXY_OBJECT
  5
61
102
{ACAD_REACTORS
330
47
102
}
330
47
100
AcDbProxyObject
 90
      499
 91
      503
 93
      241
310
90C332F3822203D2031272D3022000000000000360FC000000000000284000
  0
ACAD_PROXY_OBJECT
  5
62
102
{ACAD_REACTORS
330
47
102
}
330
47
100
AcDbProxyObject
 90
      499
 91
      503
 93
      241
310
90C312F3222203D2031272D3022000000000000380FC000000000000284000
  0
ACAD_PROXY_OBJECT
  5
63
102
{ACAD_REACTORS
330
47
102
}
330
47
100
AcDbProxyObject
 90
      499
 91
      503
 93
      241
310
90C332F3422203D2031272D30220000000000003A0FC000000000000284000
  0
ACAD_PROXY_OBJECT
  5
64
102
{ACAD_REACTORS
330
47
102
}
330
47
100
AcDbProxyObject
 90
      499
 91
      503
 93
      161
310
90A3122203D2031272D30224000000000000284000
  0
ACAD_PROXY_OBJECT
  5
65
102
{ACAD_REACTORS
330
47
102
}
330
47
100
AcDbProxyObject
 90
      499
 91
      503
 93
      257
310
90E312D312F3222203D2031272D30220000000000003E0FC000000000000284000
  0
ACAD_PROXY_OBJECT
  5
66
102
{ACAD_REACTORS
330
47
102
}
330
47
100
AcDbProxyObject
 90
      499
 91
      503
 93
      225
310
90A3322203D2031272D302200000000000002100000000000000284000
  0
ACAD_PROXY_OBJECT
  5
67
102
{ACAD_REACTORS
330
47
102
}
330
47
100
AcDbProxyObject
 90
      499
 91
      503
 93
      225
310
90A3622203D2031272D302200000000000006100000000000000284000
  0
ACAD_PROXY_OBJECT
  5
68
102
{ACAD_REACTORS
330
47
102
}
330
47
100
AcDbProxyObject
 90
      499
 91
      503
 93
      249
310
90D31272D3022203D2031272D30220000000000000A100000000000000284000
  0
ACAD_PROXY_OBJECT
  5
2F
102
{ACAD_REACTORS
330
2A
102
}
330
2A
100
AcDbProxyObject
 90
      499
 91
      501
 93
      436
310
42CC9915DA5C99599C985B595049028333333333333E33F0000000000000F90107901411070040501600405405064090741402480A0340
1001
ACAD
1000
AcDbSavedByObjectVersion
1070
     0
  0
ACAD_PROXY_OBJECT
  5
32
102
{ACAD_REACTORS
330
2A
102
}
330
2A
100
AcDbProxyObject
 90
      499
 91
      501
 93
      388
310
4150985CDA58D07406404333333333333E33F0000000000000F90107A41107004050150841D405064090741402480A0350
1001
ACAD
1000
AcDbSavedByObjectVersion
1070
     0
  0
ACAD_PROXY_OBJECT
  5
36
102
{ACAD_REACTORS
330
2A
102
}
330
2A
100
AcDbProxyObject
 90
      499
 91
      501
 93
      428
310
42109C9A59DA1D195B90C409028333333333333E33F0000000000000F9010790141107004050150841D405064090741402480A029950
1001
ACAD
1000
AcDbSavedByObjectVersion
1070
     0
  0
ACAD_PROXY_OBJECT
  5
3A
102
{ACAD_REACTORS
330
2A
102
}
330
2A
100
AcDbProxyObject
 90
      499
 91
      501
 93
      452
310
42D0DBDB1BDC90DA185B99D95104090240C333333333333E33F0000000000000F90108901411070040501508421405064090741402480A0350
1001
ACAD
1000
AcDbSavedByObjectVersion
1070
     0
  0
ACAD_PROXY_OBJECT
  5
34
102
{ACAD_REACTORS
330
2A
102
}
330
2A
100
AcDbProxyObject
 90
      499
 91
      501
 93
      500
310
4290DBDB98D95C1D1D585B10940D028333333333333E33F0000000000000F90107902409070040501000000000018199010841D405064090740C02480A0340
1001
ACAD
1000
AcDbSavedByObjectVersion
1070
     0
  0
ACAD_PROXY_OBJECT
  5
35
102
{ACAD_REACTORS
330
2A
102
}
330
2A
100
AcDbProxyObject
 90
      499
 91
      501
 93
      412
310
40D11A5B50B409028333333333333E33F0000000000000F9010790141107004050150841D405064090741402480A02677FFFFFD0
1001
ACAD
1000
AcDbSavedByObjectVersion
1070
     0
  0
ACAD_PROXY_OBJECT
  5
3D
102
{ACAD_REACTORS
330
2A
102
}
330
2A
100
AcDbProxyObject
 90
      499
 91
      501
 93
      452
310
43115919D950DBDB1BDC93D999916409028333333333333E33F0000000000000F9010790141107004050150841D405064090741402480A0350
1001
ACAD
1000
AcDbSavedByObjectVersion
1070
     0
  0
ACAD_PROXY_OBJECT
  5
39
102
{ACAD_REACTORS
330
2A
102
}
330
2A
100
AcDbProxyObject
 90
      499
 91
      501
 93
      444
310
42D19858D95C185D1D195C9B90F409028333333333333E33F0000000000000F9010790141107004050150841D405064090741402480A0350
1001
ACAD
1000
AcDbSavedByObjectVersion
1070
     0
  0
ACAD_PROXY_OBJECT
  5
2B
102
{ACAD_REACTORS
330
2A
102
}
330
2A
100
AcDbProxyObject
 90
      499
 91
      501
 93
      380
310
41119B185D240901404333333333333E33F0000000000000F9010740A907004050150841D405064090741402480A1B50
1001
ACAD
1000
AcDbSavedByObjectVersion
1070
     0
  0
ACAD_PROXY_OBJECT
  5
2C
102
{ACAD_REACTORS
330
2A
102
}
330
2A
100
AcDbProxyObject
 90
      499
 91
      501
 93
      468
310
43519B185D15DA5D1A115919D95CD0140901404333333333333E33F0000000000000F90107409019070040501600405405064090741402480A1B50
1001
ACAD
1000
AcDbSavedByObjectVersion
1070
     0
  0
ACAD_PROXY_OBJECT
  5
2D
102
{ACAD_REACTORS
330
2A
102
}
330
2A
100
AcDbProxyObject
 90
      499
 91
      501
 93
      404
310
41D1DBDD5C985D5910240902404333333333333E33F0000000000000F9010740A9070040501641D405064090741402480A1B50
1001
ACAD
1000
AcDbSavedByObjectVersion
1070
     0
  0
ACAD_PROXY_OBJECT
  5
2E
102
{ACAD_REACTORS
330
2A
102
}
330
2A
100
AcDbProxyObject
 90
      499
 91
      501
 93
      492
310
4411DBDD5C985D5915DA5D1A115919D95CD0340902404333333333333E33F0000000000000F90107409019070040501600405405064090741402480A1B50
1001
ACAD
1000
AcDbSavedByObjectVersion
1070
     0
  0
ACAD_PROXY_OBJECT
  5
31
102
{ACAD_REACTORS
330
2A
102
}
330
2A
100
AcDbProxyObject
 90
      499
 91
      501
 93
      476
310
41921A5919195B90640502408333333333333E33F0000000000000F901079024090700405020000000000001110200405405064090740C02480A0340
1001
ACAD
1000
AcDbSavedByObjectVersion
1070
     0
  0
ACAD_PROXY_OBJECT
  5
3B
102
{ACAD_REACTORS
330
2A
102
}
330
2A
100
AcDbProxyObject
 90
      499
 91
      501
 93
      428
310
42529A5D1D195C93D999914409028333333333333E33F0000000000000F9010790141107004050150A41D405064090741402480A0350
1001
ACAD
1000
AcDbSavedByObjectVersion
1070
     0
  0
ACAD_PROXY_OBJECT
  5
38
102
{ACAD_REACTORS
330
2A
102
}
330
2A
100
AcDbProxyObject
 90
      499
 91
      501
 93
      444
310
42D31A5B995C185D1D195C9B90E409028333333333333E33F0000000000000F9010790141107004050750841D405064090741402483A0350
1001
ACAD
1000
AcDbSavedByObjectVersion
1070
     0
  0
ACAD_PROXY_OBJECT
  5
3C
102
{ACAD_REACTORS
330
2A
102
}
330
2A
100
AcDbProxyObject
 90
      499
 91
      501
 93
      444
310
42D3DD995C9A185B99D3D999915409028333333333333E33F0000000000000F9010790141107004050150941D405064090741402480A0350
1001
ACAD
1000
AcDbSavedByObjectVersion
1070
     0
  0
ACAD_PROXY_OBJECT
  5
33
102
{ACAD_REACTORS
330
2A
102
}
330
2A
100
AcDbProxyObject
 90
      499
 91
      501
 93
      428
310
425499585B1A5CDD1A58D08409038333333333333E33F0000000000000F9010740A907004050150800405405064090740C02480A1B40
1001
ACAD
1000
AcDbSavedByObjectVersion
1070
     0
  0
ACAD_PROXY_OBJECT
  5
42
102
{ACAD_REACTORS
330
2A
102
}
330
2A
100
AcDbProxyObject
 90
      499
 91
      501
 93
      420
310
4194DA1859195911B40902404333333333333E33F0000000000000F9010740A41107004050150800405405064090840C02480A0B40
1001
ACAD
1000
AcDbSavedByObjectVersion
1070
     0
  0
ACAD_PROXY_OBJECT
  5
41
102
{ACAD_REACTORS
330
2A
102
}
330
2A
100
AcDbProxyObject
 90
      499
 91
      501
 93
      516
310
4454DA18591959081DDA5D1A08195919D95CD1A40902404333333333333E33F0000000000000F901074090142907004050250800405405064090740C02480A0B40
1001
ACAD
1000
AcDbSavedByObjectVersion
1070
     0
  0
ACAD_PROXY_OBJECT
  5
3E
102
{ACAD_REACTORS
330
2A
102
}
330
2A
100
AcDbProxyObject
 90
      499
 91
      501
 93
      532
310
4394DA1859195CC81BD98811DC985E5174090240C333333333333E33F0000000000000F901079024090741D01000000000000111010841D405064090740C02480A0340
1001
ACAD
1000
AcDbSavedByObjectVersion
1070
     0
  0
ACAD_PROXY_OBJECT
  5
3F
102
{ACAD_REACTORS
330
2A
102
}
330
2A
100
AcDbProxyObject
 90
      499
 91
      501
 93
      476
310
41D4DAD95D18DA1E51840502408333333333333E33F0000000000000F901079024090741D01000000000000111010B41D405064090741802480A0340
1001
ACAD
1000
AcDbSavedByObjectVersion
1070
     0
  0
ACAD_PROXY_OBJECT
  5
37
102
{ACAD_REACTORS
330
2A
102
}
330
2A
100
AcDbProxyObject
 90
      499
 91
      501
 93
      412
310
41D51A1A58DAD95B90D409028333333333333E33F0000000000000F9010790141107004050150C41D405064090741402480A0350
1001
ACAD
1000
AcDbSavedByObjectVersion
1070
     0
  0
ACAD_PROXY_OBJECT
  5
30
102
{ACAD_REACTORS
330
2A
102
}
330
2A
100
AcDbProxyObject
 90
      499
 91
      501
 93
      420
310
4255DA5C99599C985B595059028333333333333E33F0000000000000F90107901411070040501600405405064090740C02480A0340
1001
ACAD
1000
AcDbSavedByObjectVersion
1070
     0
  0
ACAD_PROXY_OBJECT
  5
40
102
{ACAD_REACTORS
330
2A
102
}
330
2A
100
AcDbProxyObject
 90
      499
 91
      501
 93
      404
310
41560B54985E51940902404000000000000E03F0000000000000F9010740501907004050150841D405064090740C02480A1B40
1001
ACAD
1000
AcDbSavedByObjectVersion
1070
     0
  0
XRECORD
  5
4D4
102
{ACAD_REACTORS
330
4CA
102
}
330
4CA
100
AcDbXrecord
340
0
  0
XRECORD
  5
4D3
102
{ACAD_REACTORS
330
4CA
102
}
330
4CA
100
AcDbXrecord
 90
        0
  0
XRECORD
  5
4EA
102
{ACAD_REACTORS
330
4CA
102
}
330
4CA
100
AcDbXrecord
1000
DSTYLE
1002
{
1070
   171
 70
     2
1070
   143
 40
25.4
1070
   274
 70
     2
1070
    41
 40
0.18
1070
   141
 40
0.09
1070
   271
 70
     4
1070
    43
 40
0.38
1070
   278
 70
    46
1070
    44
 40
0.18
1070
    42
 40
0.0625
1070
   147
 40
0.09
1070
    77
 70
     0
1070
   272
 70
     4
1070
    73
 70
     1
1070
   172
 70
     0
1070
    74
 70
     1
1070
   283
 70
     1
1070
   340
340
11
1070
   140
 40
0.18
1070
   284
 70
     0
1070
    78
 70
     0
1002
}
  0
XRECORD
  5
4D5
102
{ACAD_REACTORS
330
4CA
102
}
330
4CA
100
AcDbXrecord
  1
{EE82FD37-B018-4AB6-BC06-BB2B108F144E}
  0
XRECORD
  5
4CD
102
{ACAD_REACTORS
330
4CA
102
}
330
4CA
100
AcDbXrecord
  1

  0
XRECORD
  5
4D2
102
{ACAD_REACTORS
330
4CA
102
}
330
4CA
100
AcDbXrecord
 90
        4
  0
XRECORD
  5
4CF
102
{ACAD_REACTORS
330
4CA
102
}
330
4CA
100
AcDbXrecord
340
1A
  0
XRECORD
  5
4D1
102
{ACAD_REACTORS
330
4CA
102
}
330
4CA
100
AcDbXrecord
 90
    10781
  0
XRECORD
  5
4D0
102
{ACAD_REACTORS
330
4CA
102
}
330
4CA
100
AcDbXrecord
340
19
  0
XRECORD
  5
4D7
102
{ACAD_REACTORS
330
4CA
102
}
330
4CA
100
AcDbXrecord
 40
0.0
  0
XRECORD
  5
4DA
102
{ACAD_REACTORS
330
4CA
102
}
330
4CA
100
AcDbXrecord
340
0
  0
XRECORD
  5
4E0
102
{ACAD_REACTORS
330
4CA
102
}
330
4CA
100
AcDbXrecord
 10
0.0
 20
0.0
 30
0.0
  0
XRECORD
  5
4DC
102
{ACAD_REACTORS
330
4CA
102
}
330
4CA
100
AcDbXrecord
 10
0.0
 20
0.0
 30
0.0
  0
XRECORD
  5
4DF
102
{ACAD_REACTORS
330
4CA
102
}
330
4CA
100
AcDbXrecord
 10
0.0
 20
0.0
 30
0.0
  0
XRECORD
  5
4DD
102
{ACAD_REACTORS
330
4CA
102
}
330
4CA
100
AcDbXrecord
 10
0.0
 20
0.0
 30
0.0
  0
XRECORD
  5
4DE
102
{ACAD_REACTORS
330
4CA
102
}
330
4CA
100
AcDbXrecord
 10
0.0
 20
0.0
 30
0.0
  0
XRECORD
  5
4DB
102
{ACAD_REACTORS
330
4CA
102
}
330
4CA
100
AcDbXrecord
 10
0.0
 20
0.0
 30
0.0
  0
XRECORD
  5
4D8
102
{ACAD_REACTORS
330
4CA
102
}
330
4CA
100
AcDbXrecord
340
0
  0
XRECORD
  5
4D9
102
{ACAD_REACTORS
330
4CA
102
}
330
4CA
100
AcDbXrecord
 70
     0
  0
XRECORD
  5
4CE
102
{ACAD_REACTORS
330
4CA
102
}
330
4CA
100
AcDbXrecord
  1

  0
XRECORD
  5
4CB
102
{ACAD_REACTORS
330
4CA
102
}
330
4CA
100
AcDbXrecord
 90
        1
  0
XRECORD
  5
4CC
102
{ACAD_REACTORS
330
4CA
102
}
330
4CA
100
AcDbXrecord
 90
       70
  0
XRECORD
  5
4E3
102
{ACAD_REACTORS
330
4CA
102
}
330
4CA
100
AcDbXrecord
340
0
  0
XRECORD
  5
4E9
102
{ACAD_REACTORS
330
4CA
102
}
330
4CA
100
AcDbXrecord
 10
0.0
 20
0.0
 30
0.0
  0
XRECORD
  5
4E5
102
{ACAD_REACTORS
330
4CA
102
}
330
4CA
100
AcDbXrecord
 10
0.0
 20
0.0
 30
0.0
  0
XRECORD
  5
4E8
102
{ACAD_REACTORS
330
4CA
102
}
330
4CA
100
AcDbXrecord
 10
0.0
 20
0.0
 30
0.0
  0
XRECORD
  5
4E6
102
{ACAD_REACTORS
330
4CA
102
}
330
4CA
100
AcDbXrecord
 10
0.0
 20
0.0
 30
0.0
  0
XRECORD
  5
4E7
102
{ACAD_REACTORS
330
4CA
102
}
330
4CA
100
AcDbXrecord
 10
0.0
 20
0.0
 30
0.0
  0
XRECORD
  5
4E4
102
{ACAD_REACTORS
330
4CA
102
}
330
4CA
100
AcDbXrecord
 10
0.0
 20
0.0
 30
0.0
  0
XRECORD
  5
4E1
102
{ACAD_REACTORS
330
4CA
102
}
330
4CA
100
AcDbXrecord
340
0
  0
XRECORD
  5
4E2
102
{ACAD_REACTORS
330
4CA
102
}
330
4CA
100
AcDbXrecord
 70
     0
  0
XRECORD
  5
4D6
102
{ACAD_REACTORS
330
4CA
102
}
330
4CA
100
AcDbXrecord
  1
{FAEB1C32-E019-11D5-929B-00C0DF256EC4}
  0
DICTIONARYVAR
  5
4F4
102
{ACAD_REACTORS
330
4EB
102
}
330
4EB
100
DictionaryVariables
280
     0
  1
1:1
  0
DICTIONARYVAR
  5
4ED
102
{ACAD_REACTORS
330
4EB
102
}
330
4EB
100
DictionaryVariables
280
     0
  1
Standard
  0
DICTIONARYVAR
  5
4EC
102
{ACAD_REACTORS
330
4EB
102
}
330
4EB
100
DictionaryVariables
280
     0
  1
Standard
  0
DICTIONARYVAR
  5
4F0
102
{ACAD_REACTORS
330
4EB
102
}
330
4EB
100
DictionaryVariables
280
     0
  1
2
  0
DICTIONARYVAR
  5
4F1
102
{ACAD_REACTORS
330
4EB
102
}
330
4EB
100
DictionaryVariables
280
     0
  1
1
  0
DICTIONARYVAR
  5
4F5
102
{ACAD_REACTORS
330
4EB
102
}
330
4EB
100
DictionaryVariables
280
     0
  1
1
  0
DICTIONARY
  5
4F8
330
45
100
AcDbDictionary
280
     1
  3
ACAD_XREC_ROUNDTRIP
360
4F9
  0
DICTIONARY
  5
4F6
330
44
100
AcDbDictionary
280
     1
  3
ACAD_XREC_ROUNDTRIP
360
4F7
  0
DICTIONARY
  5
4FA
330
46
100
AcDbDictionary
280
     1
  3
ACAD_XREC_ROUNDTRIP
360
4FB
  0
XRECORD
  5
4F9
102
{ACAD_REACTORS
330
4F8
102
}
330
4F8
100
AcDbXrecord
102
MATERIAL
148
0.0
149
0.0
149
0.0
 93
        0
 94
      127
282
     0
 72
     1
 77
     1
171
     1
175
     1
179
     1
273
     0
  0
XRECORD
  5
4F7
102
{ACAD_REACTORS
330
4F6
102
}
330
4F6
100
AcDbXrecord
102
MATERIAL
148
0.0
149
0.0
149
0.0
 93
        0
 94
      127
282
     0
 72
     1
 77
     1
171
     1
175
     1
179
     1
273
     0
  0
XRECORD
  5
4FB
102
{ACAD_REACTORS
330
4FA
102
}
330
4FA
100
AcDbXrecord
102
MATERIAL
148
0.0
149
0.0
149
0.0
 93
        0
 94
      127
282
     0
 72
     1
 77
     1
171
     1
175
     1
179
     1
273
     0
  0
ENDSEC
  0
EOF
