  0
SECTION
  2
HEADER
  9
$ACADVER
  1
AC1014
  9
$ACADMAINTVER
 70
             0
  9
$DWGCODEPAGE
  3
ANSI_1252
  9
$INSBASE
 10
0.0
 20
0.0
 30
0.0
  9
$EXTMIN
 10
1.00000000000000E+20
 20
1.00000000000000E+20
 30
1.00000000000000E+20
  9
$EXTMAX
 10
-1.00000000000000E+20
 20
-1.00000000000000E+20
 30
-1.00000000000000E+20
  9
$LIMMIN
 10
0.0
 20
0.0
  9
$LIMMAX
 10
0.0
 20
0.0
  9
$ORTHOMODE
 70
             0
  9
$REGENMODE
 70
             1
  9
$FILLMODE
 70
             1
  9
$QTEXTMODE
 70
             0
  9
$MIRRTEXT
 70
             1
  9
$DRAGMODE
 70
             2
  9
$LTSCALE
 40
1.0
  9
$OSMODE
 70
             0
  9
$ATTMODE
 70
             1
  9
$TEXTSIZE
 40
0.2
  9
$TRACEWID
 40
0.05
  9
$TEXTSTYLE
  7
STANDARD
  9
$CLAYER
  8
0
  9
$CELTYPE
  6
CONTINUOUS
  9
$CECOLOR
 62
           256
  9
$CELTSCALE
 40
1.0
  9
$DELOBJ
 70
             1
  9
$DISPSILH
 70
             0
  9
$DIMSCALE
 40
1.0
  9
$DIMASZ
 40
0.18
  9
$DIMEXO
 40
0.0625
  9
$DIMDLI
 40
0.38
  9
$DIMRND
 40
0.0
  9
$DIMDLE
 40
0.0
  9
$DIMEXE
 40
0.18
  9
$DIMTP
 40
0.0
  9
$DIMTM
 40
0.0
  9
$DIMTXT
 40
0.18
  9
$DIMCEN
 40
0.09
  9
$DIMTSZ
 40
0.0
  9
$DIMTOL
 70
             0
  9
$DIMLIM
 70
             0
  9
$DIMTIH
 70
             1
  9
$DIMTOH
 70
             1
  9
$DIMSE1
 70
             0
  9
$DIMSE2
 70
             0
  9
$DIMTAD
 70
             0
  9
$DIMZIN
 70
             0
  9
$DIMBLK
  1

  9
$DIMASO
 70
             1
  9
$DIMSHO
 70
             1
  9
$DIMPOST
  1

  9
$DIMAPOST
  1

  9
$DIMALT
 70
             0
  9
$DIMALTD
 70
             2
  9
$DIMALTF
 40
25.4
  9
$DIMLFAC
 40
1.0
  9
$DIMTOFL
 70
             0
  9
$DIMTVP
 40
0.0
  9
$DIMTIX
 70
             0
  9
$DIMSOXD
 70
             0
  9
$DIMSAH
 70
             0
  9
$DIMBLK1
  1

  9
$DIMBLK2
  1

  9
$DIMSTYLE
  2
STANDARD
  9
$DIMCLRD
 70
             0
  9
$DIMCLRE
 70
             0
  9
$DIMCLRT
 70
             0
  9
$DIMTFAC
 40
1.0
  9
$DIMGAP
 40
0.09
  9
$DIMJUST
 70
             0
  9
$DIMSD1
 70
             0
  9
$DIMSD2
 70
             0
  9
$DIMTOLJ
 70
             1
  9
$DIMTZIN
 70
             0
  9
$DIMALTZ
 70
             0
  9
$DIMALTTZ
 70
             0
  9
$DIMFIT
 70
             3
  9
$DIMUPT
 70
             0
  9
$DIMUNIT
 70
             2
  9
$DIMDEC
 70
             4
  9
$DIMTDEC
 70
             4
  9
$DIMALTU
 70
             2
  9
$DIMALTTD
 70
             2
  9
$DIMTXSTY
  7
STANDARD
  9
$DIMAUNIT
 70
             0
  9
$LUNITS
 70
             2
  9
$LUPREC
 70
             4
  9
$SKETCHINC
 40
0.1
  9
$FILLETRAD
 40
0.0
  9
$AUNITS
 70
             0
  9
$AUPREC
 70
             0
  9
$MENU
  1
acad
  9
$ELEVATION
 40
0.0
  9
$PELEVATION
 40
0.0
  9
$THICKNESS
 40
0.0
  9
$LIMCHECK
 70
             0
  9
$BLIPMODE
 70
             1
  9
$CHAMFERA
 40
0.0
  9
$CHAMFERB
 40
0.0
  9
$CHAMFERC
 40
0.0
  9
$CHAMFERD
 40
0.0
  9
$SKPOLY
 70
             0
  9
$TDCREATE
 40
0.000000000
  9
$TDUPDATE
 40
0.000000000
  9
$TDINDWG
 40
0.0000000000
  9
$TDUSRTIMER
 40
0.0000000000
  9
$USRTIMER
 70
             1
  9
$ANGBASE
 50
0.0
  9
$ANGDIR
 70
             0
  9
$PDMODE
 70
             0
  9
$PDSIZE
 40
0.0
  9
$PLINEWID
 40
0.0
  9
$COORDS
 70
             0
  9
$SPLFRAME
 70
             0
  9
$SPLINETYPE
 70
             6
  9
$SPLINESEGS
 70
             8
  9
$ATTDIA
 70
             0
  9
$ATTREQ
 70
             1
  9
$HANDLING
 70
             1
  9
$HANDSEED
  5
1EF
  9
$SURFTAB1
 70
             6
  9
$SURFTAB2
 70
             6
  9
$SURFTYPE
 70
             6
  9
$SURFU
 70
             6
  9
$SURFV
 70
             6
  9
$UCSNAME
  2

  9
$UCSORG
 10
0.0
 20
0.0
 30
0.0
  9
$UCSXDIR
 10
1.0
 20
0.0
 30
0.0
  9
$UCSYDIR
 10
0.0
 20
1.0
 30
0.0
  9
$PUCSNAME
  2

  9
$PUCSORG
 10
0.0
 20
0.0
 30
0.0
  9
$PUCSXDIR
 10
1.0
 20
0.0
 30
0.0
  9
$PUCSYDIR
 10
0.0
 20
1.0
 30
0.0
  9
$USERI1
 70
             0
  9
$USERI2
 70
             0
  9
$USERI3
 70
             0
  9
$USERI4
 70
             0
  9
$USERI5
 70
             0
  9
$USERR1
 40
11.6
  9
$USERR2
 40
0.0
  9
$USERR3
 40
0.0
  9
$USERR4
 40
0.0
  9
$USERR5
 40
0.0
  9
$WORLDVIEW
 70
             1
  9
$SHADEDGE
 70
             3
  9
$SHADEDIF
 70
            70
  9
$TILEMODE
 70
             1
  9
$MAXACTVP
 70
            16
  9
$PINSBASE
 10
0.0
 20
0.0
 30
0.0
  9
$PLIMCHECK
 70
             0
  9
$PEXTMIN
 10
1.00000000000000E+20
 20
1.00000000000000E+20
 30
1.00000000000000E+20
  9
$PEXTMAX
 10
-1.00000000000000E+20
 20
-1.00000000000000E+20
 30
-1.00000000000000E+20
  9
$PLIMMIN
 10
0.0
 20
0.0
  9
$PLIMMAX
 10
12.0
 20
9.0
  9
$UNITMODE
 70
             0
  9
$VISRETAIN
 70
             0
  9
$PLINEGEN
 70
             1
  9
$PSLTSCALE
 70
             0
  9
$TREEDEPTH
 70
          3020
  9
$PICKSTYLE
 70
             1
  9
$CMLSTYLE
  2
STANDARD
  9
$CMLJUST
 70
             0
  9
$CMLSCALE
 40
1.0
  9
$PROXYGRAPHICS
 70
             0
  9
$MEASUREMENT
 70
             1
  0
ENDSEC
  0
SECTION
  2
CLASSES
  0
CLASS
  1
LWPOLYLINE
  2
AcDbPolyline
  3
"AutoCAD"
 90
        0
280
             0
281
             1
  0
CLASS
  1
IMAGE
  2
AcDbRasterImage
  3
ISM
 90
      127
280
             0
281
             1
  0
CLASS
  1
OLE2FRAME
  2
AcDbOle2Frame
  3
""
 90
        0
280
             0
281
             1
  0
CLASS
  1
HATCH
  2
AcDbHatch
  3
"ACAD_SEDONA"
 90
        0
280
             0
281
             1
  0
CLASS
  1
DICTIONARYVAR
  2
AcDbDictionaryVar
  3
"AutoCAD"
 90
        0
280
             0
281
             0
  0
CLASS
  1
RASTERVARIABLES
  2
AcDbRasterVariables
  3
ISM
 90
        0
280
             0
281
             0
  0
CLASS
  1
IMAGEDEF
  2
AcDbRasterImageDef
  3
ISM
 90
        0
280
             0
281
             0
  0
CLASS
  1
IMAGEDEF_REACTOR
  2
AcDbRasterImageDefReactor
  3
ISM
 90
        1
280
             0
281
             0
  0
CLASS
  1
IDBUFFER
  2
AcDbIdBuffer
  3
"Acad"
 90
        0
280
             0
281
             0
  0
CLASS
  1
SPATIAL_FILTER
  2
AcDbSpatialFilter
  3
"Acad"
 90
        0
280
             0
281
             0
  0
CLASS
  1
XRECORD
  2
AcDbXrecord
  3
"<Built In>"
 90
        0
280
             0
281
             0
  0
CLASS
  1
SORTENTSTABLE
  2
AcDbSortentsTable
  3
"AutoCAD"
 90
        0
280
             0
281
             0
  0
CLASS
  1
LAYER_INDEX
  2
AcDbLayerIndex
  3
"Acad"
 90
        0
280
             0
281
             0
  0
CLASS
  1
SPATIAL_INDEX
  2
AcDbSpatialIndex
  3
"Acad"
 90
        0
280
             0
281
             0
  0
CLASS
  1
OBJECT_PTR
  2
CAseDLPNTableRecord
  3
"ASE-LPNTableRecord"
 90
        1
280
             0
281
             0
  0
CLASS
  1
LAYOUT
  2
AcDbLayout
  3
"AutoCAD 2000"
 90
        1
280
             0
281
             0
  0
CLASS
  1
PLOTSETTINGS
  2
AcDbPlotSettings
  3
"AutoCAD 2000"
 90
        1
280
             0
281
             0
  0
CLASS
  1
ACDBDICTIONARYWDFLT
  2
AcDbDictionaryWithDefault
  3
"AutoCAD 2000"
 90
        1
280
             0
281
             0
  0
CLASS
  1
ACDBPLACEHOLDER
  2
AcDbPlaceHolder
  3
"AutoCAD 2000"
 90
        1
280
             0
281
             0
  0
ENDSEC
  0
SECTION
  2
TABLES
  0
TABLE
  2
VPORT
  5
7
100
AcDbSymbolTable
 70
             1
  0
VPORT
  5
15
100
AcDbSymbolTableRecord
100
AcDbViewportTableRecord
  2
*ACTIVE
 70
             0
 10
0.0
 20
0.0
 11
1.0
 21
1.0
 12
-52.0
 22
33.5
 13
0.0
 23
0.0
 14
1.0
 24
1.0
 15
0.0
 25
0.0
 16
0.0
 26
0.0
 36
1.0
 17
0.0
 27
0.0
 37
0.0
 40
168.30000000000001
 41
1.60267857142857
 42
50.0
 43
0.0
 44
0.0
 50
0.0
 51
0.0
 71
             0
 72
           100
 73
             1
 74
             1
 75
             0
 76
             0
 77
             0
 78
             0
  0
ENDTAB
  0
TABLE
  2
LTYPE
  5
4
100
AcDbSymbolTable
 70
            10
  0
LTYPE
  5
11
100
AcDbSymbolTableRecord
100
AcDbLinetypeTableRecord
  2
BYBLOCK
 70
            64
  3

 72
            65
 73
             0
 40
0.0
  0
LTYPE
  5
12
100
AcDbSymbolTableRecord
100
AcDbLinetypeTableRecord
  2
BYLAYER
 70
            64
  3

 72
            65
 73
             0
 40
0.0
  0
LTYPE
  5
13
100
AcDbSymbolTableRecord
100
AcDbLinetypeTableRecord
  2
CONTINUOUS
 70
            64
  3
Solid line
 72
            65
 73
             0
 40
0.0
  0
LTYPE
  5
1D
100
AcDbSymbolTableRecord
100
AcDbLinetypeTableRecord
  2
DASHED
 70
            64
  3
Dashed
 72
            65
 73
             2
 40
15.0
 49
12.0
 74
             0
 49
-3.0
 74
             0
  0
LTYPE
  5
1E
100
AcDbSymbolTableRecord
100
AcDbLinetypeTableRecord
  2
DOTTED
 70
            64
  3
Dotted
 72
            65
 73
             2
 40
3.5
 49
0.5
 74
             0
 49
-3.0
 74
             0
  0
LTYPE
  5
1F
100
AcDbSymbolTableRecord
100
AcDbLinetypeTableRecord
  2
DOT_CENTER
 70
            64
  3
Dot_Center
 72
            65
 73
             4
 40
2.0
 49
1.25
 74
             0
 49
-0.25
 74
             0
 49
0.25
 74
             0
 49
-0.25
 74
             0
  0
LTYPE
  5
20
100
AcDbSymbolTableRecord
100
AcDbLinetypeTableRecord
  2
LONG_DASHED
 70
            64
  3
Long_Dashed
 72
            65
 73
             2
 40
2.0
 49
1.5
 74
             0
 49
-0.5
 74
             0
  0
LTYPE
  5
21
100
AcDbSymbolTableRecord
100
AcDbLinetypeTableRecord
  2
DASH_CENTER
 70
            64
  3
Dash_Center
 72
            65
 73
             4
 40
36.0
 49
24.0
 74
             0
 49
-3.0
 74
             0
 49
6.0
 74
             0
 49
-3.0
 74
             0
  0
LTYPE
  5
22
100
AcDbSymbolTableRecord
100
AcDbLinetypeTableRecord
  2
PHANTOM
 70
            64
  3
Phantom
 72
            65
 73
             6
 40
2.5
 49
1.25
 74
             0
 49
-0.25
 74
             0
 49
0.25
 74
             0
 49
-0.25
 74
             0
 49
0.25
 74
             0
 49
-0.25
 74
             0
  0
LTYPE
  5
23
100
AcDbSymbolTableRecord
100
AcDbLinetypeTableRecord
  2
CENTER_DASH_DASH
 70
            64
  3
Center_Dash_Dash
 72
            65
 73
             6
 40
22.0
 49
12.0
 74
             0
 49
-3.0
 74
             0
 49
0.5
 74
             0
 49
-3.0
 74
             0
 49
0.5
 74
             0
 49
-3.0
 74
             0
  0
ENDTAB
  0
TABLE
  2
LAYER
  5
2
100
AcDbSymbolTable
 70
             2
  0
LAYER
  5
14
100
AcDbSymbolTableRecord
100
AcDbLayerTableRecord
  2
0
 70
             0
 62
             7
  6
CONTINUOUS
  0
LAYER
  5
24
100
AcDbSymbolTableRecord
100
AcDbLayerTableRecord
  2
1
 70
             0
 62
             7
  6
CONTINUOUS
  0
ENDTAB
  0
TABLE
  2
STYLE
  5
3
100
AcDbSymbolTable
 70
             3
  0
STYLE
  5
17
100
AcDbSymbolTableRecord
100
AcDbTextStyleTableRecord
  2
STANDARD
 70
             0
 40
0.0
 41
1.0
 50
0.0
 71
             0
 42
0.0
  3
txt
  4

  0
STYLE
  5
110
100
AcDbSymbolTableRecord
100
AcDbTextStyleTableRecord
  2
CONVERTER_1
 70
             0
 40
0.0
 41
0.9
 50
0.0
 71
             0
 42
0.0
  3
txt.shx
  4

  0
STYLE
  5
11B
100
AcDbSymbolTableRecord
100
AcDbTextStyleTableRecord
  2
CONVERTER_2
 70
             0
 40
0.0
 41
0.9
 50
15.0
 71
             0
 42
0.0
  3
txt.shx
  4

  0
ENDTAB
  0
TABLE
  2
VIEW
  5
5
100
AcDbSymbolTable
 70
             0
  0
ENDTAB
  0
TABLE
  2
UCS
  5
6
100
AcDbSymbolTable
 70
             0
  0
ENDTAB
  0
TABLE
  2
APPID
  5
8
100
AcDbSymbolTable
 70
             1
  0
APPID
  5
16
100
AcDbSymbolTableRecord
100
AcDbRegAppTableRecord
  2
ACAD
 70
             0
  0
ENDTAB
  0
TABLE
  2
DIMSTYLE
  5
9
100
AcDbSymbolTable
 70
            16
  0
DIMSTYLE
105
18
100
AcDbSymbolTableRecord
100
AcDbDimStyleTableRecord
  2
STANDARD
 70
             0
  3

  4

  5

  6

  7

 40
1.0
 41
0.18
 42
0.0625
 43
0.38
 44
0.18
 45
0.0
 46
0.0
 47
0.0
 48
0.0
 71
             0
 72
             0
 73
             1
 74
             1
 75
             0
 76
             0
 77
             0
 78
             0
140
0.18
141
0.09
142
0.0
143
25.4
144
1.0
145
0.0
146
1.0
147
0.09
170
             0
171
             2
172
             0
173
             0
174
             0
175
             0
176
             0
177
             0
178
             0
270
             2
271
             4
272
             4
273
             2
274
             2
275
             0
280
             0
281
             0
282
             0
283
             1
284
             0
285
             0
286
             0
287
             0
288
             0
340
17
  0
DIMSTYLE
105
124
100
AcDbSymbolTableRecord
100
AcDbDimStyleTableRecord
  2
ME10_DIM_0
 70
             0
  3

  4

  5

  6
_OPEN30
  7
_OPEN30
 40
1.0
 41
2.5
 42
0.5
 43
0.38
 44
1.0
 45
0.0
 46
0.0
 47
0.0
 48
0.0
 71
             0
 72
             0
 73
             0
 74
             0
 75
             0
 76
             0
 77
             1
 78
             8
140
2.5
141
0.09
142
0.0
143
25.4
144
1.0
145
0.0
146
1.0
147
0.625
170
             0
171
             2
172
             0
173
             1
174
             0
175
             0
176
             2
177
             2
178
             2
270
             2
271
             2
272
             4
273
             2
274
             2
275
             0
280
             0
281
             0
282
             0
283
             1
284
             0
285
             0
286
             0
287
             0
288
             0
340
17
  0
DIMSTYLE
105
131
100
AcDbSymbolTableRecord
100
AcDbDimStyleTableRecord
  2
ME10_DIM_1
 70
             0
  3

  4

  5

  6
_OPEN30
  7
_OPEN30
 40
1.0
 41
2.5
 42
0.5
 43
0.38
 44
1.0
 45
0.0
 46
0.0
 47
0.0
 48
0.0
 71
             0
 72
             0
 73
             0
 74
             0
 75
             0
 76
             0
 77
             1
 78
             8
140
2.5
141
0.09
142
0.0
143
25.4
144
1.0
145
0.0
146
1.0
147
0.625
170
             0
171
             2
172
             0
173
             1
174
             0
175
             0
176
             2
177
             2
178
             2
270
             2
271
             2
272
             4
273
             2
274
             2
275
             0
280
             0
281
             0
282
             0
283
             1
284
             0
285
             0
286
             0
287
             0
288
             0
340
17
  0
DIMSTYLE
105
13E
100
AcDbSymbolTableRecord
100
AcDbDimStyleTableRecord
  2
ME10_DIM_2
 70
             0
  3

  4

  5

  6
_OPEN30
  7
_OPEN30
 40
1.0
 41
2.5
 42
0.5
 43
0.38
 44
1.0
 45
0.0
 46
0.0
 47
0.0
 48
0.0
 71
             0
 72
             0
 73
             0
 74
             0
 75
             0
 76
             0
 77
             1
 78
             8
140
2.5
141
0.09
142
0.0
143
25.4
144
1.0
145
0.0
146
1.0
147
0.625
170
             0
171
             2
172
             0
173
             1
174
             0
175
             0
176
             2
177
             2
178
             2
270
             2
271
             2
272
             4
273
             2
274
             2
275
             0
280
             0
281
             0
282
             0
283
             1
284
             0
285
             0
286
             0
287
             0
288
             0
340
17
  0
DIMSTYLE
105
14B
100
AcDbSymbolTableRecord
100
AcDbDimStyleTableRecord
  2
ME10_DIM_3
 70
             0
  3

  4

  5

  6
_OPEN30
  7
_OPEN30
 40
1.0
 41
2.5
 42
0.5
 43
0.38
 44
1.0
 45
0.0
 46
0.0
 47
0.0
 48
0.0
 71
             0
 72
             0
 73
             0
 74
             0
 75
             0
 76
             0
 77
             1
 78
             8
140
2.5
141
0.09
142
0.0
143
25.4
144
1.0
145
0.0
146
1.0
147
0.625
170
             0
171
             2
172
             0
173
             1
174
             0
175
             0
176
             2
177
             2
178
             2
270
             2
271
             2
272
             4
273
             2
274
             2
275
             0
280
             0
281
             0
282
             0
283
             1
284
             0
285
             0
286
             0
287
             0
288
             0
340
17
  0
DIMSTYLE
105
158
100
AcDbSymbolTableRecord
100
AcDbDimStyleTableRecord
  2
ME10_DIM_4
 70
             0
  3

  4

  5

  6
_OPEN30
  7
_OPEN30
 40
1.0
 41
2.5
 42
0.5
 43
0.38
 44
1.0
 45
0.0
 46
0.0
 47
0.0
 48
0.0
 71
             0
 72
             0
 73
             0
 74
             0
 75
             0
 76
             0
 77
             1
 78
             8
140
2.5
141
0.09
142
0.0
143
25.4
144
1.0
145
0.0
146
1.0
147
0.625
170
             0
171
             2
172
             0
173
             1
174
             0
175
             0
176
             2
177
             2
178
             2
270
             2
271
             2
272
             4
273
             2
274
             2
275
             0
280
             0
281
             0
282
             0
283
             1
284
             0
285
             0
286
             0
287
             0
288
             0
340
17
  0
DIMSTYLE
105
165
100
AcDbSymbolTableRecord
100
AcDbDimStyleTableRecord
  2
ME10_DIM_5
 70
             0
  3

  4

  5

  6
_OPEN30
  7
_OPEN30
 40
1.0
 41
2.5
 42
0.5
 43
0.38
 44
1.0
 45
0.0
 46
0.0
 47
0.0
 48
0.0
 71
             0
 72
             0
 73
             0
 74
             0
 75
             0
 76
             0
 77
             1
 78
             8
140
2.5
141
0.09
142
0.0
143
25.4
144
1.0
145
0.0
146
1.0
147
0.625
170
             0
171
             2
172
             0
173
             1
174
             0
175
             0
176
             2
177
             2
178
             2
270
             2
271
             2
272
             4
273
             2
274
             2
275
             0
280
             0
281
             0
282
             0
283
             1
284
             0
285
             0
286
             0
287
             0
288
             0
340
17
  0
DIMSTYLE
105
172
100
AcDbSymbolTableRecord
100
AcDbDimStyleTableRecord
  2
ME10_DIM_6
 70
             0
  3

  4

  5

  6
_OPEN30
  7
_OPEN30
 40
1.0
 41
2.5
 42
0.5
 43
0.38
 44
1.0
 45
0.0
 46
0.0
 47
0.0
 48
0.0
 71
             0
 72
             0
 73
             0
 74
             0
 75
             0
 76
             0
 77
             1
 78
             8
140
2.5
141
0.09
142
0.0
143
25.4
144
1.0
145
0.0
146
1.0
147
0.625
170
             0
171
             2
172
             0
173
             1
174
             0
175
             0
176
             2
177
             2
178
             2
270
             2
271
             2
272
             4
273
             2
274
             2
275
             0
280
             0
281
             0
282
             0
283
             1
284
             0
285
             0
286
             0
287
             0
288
             0
340
17
  0
DIMSTYLE
105
17F
100
AcDbSymbolTableRecord
100
AcDbDimStyleTableRecord
  2
ME10_DIM_7
 70
             0
  3

  4

  5

  6
_OPEN30
  7
_OPEN30
 40
1.0
 41
2.5
 42
0.5
 43
0.38
 44
1.0
 45
0.0
 46
0.0
 47
0.0
 48
0.0
 71
             0
 72
             0
 73
             0
 74
             0
 75
             0
 76
             0
 77
             1
 78
             8
140
2.5
141
0.09
142
0.0
143
25.4
144
1.0
145
0.0
146
1.0
147
0.625
170
             0
171
             2
172
             0
173
             1
174
             0
175
             0
176
             2
177
             2
178
             2
270
             2
271
             2
272
             4
273
             2
274
             2
275
             0
280
             0
281
             0
282
             0
283
             1
284
             0
285
             0
286
             0
287
             0
288
             0
340
17
  0
DIMSTYLE
105
18C
100
AcDbSymbolTableRecord
100
AcDbDimStyleTableRecord
  2
ME10_DIM_8
 70
             0
  3

  4

  5

  6
_OPEN30
  7
_OPEN30
 40
1.0
 41
2.5
 42
0.5
 43
0.38
 44
1.0
 45
0.0
 46
0.0
 47
0.0
 48
0.0
 71
             0
 72
             0
 73
             0
 74
             0
 75
             0
 76
             0
 77
             1
 78
             8
140
2.5
141
0.09
142
0.0
143
25.4
144
1.0
145
0.0
146
1.0
147
0.625
170
             0
171
             2
172
             0
173
             1
174
             0
175
             0
176
             2
177
             2
178
             2
270
             2
271
             2
272
             4
273
             2
274
             2
275
             0
280
             0
281
             0
282
             0
283
             1
284
             0
285
             0
286
             0
287
             0
288
             0
340
17
  0
DIMSTYLE
105
199
100
AcDbSymbolTableRecord
100
AcDbDimStyleTableRecord
  2
ME10_DIM_9
 70
             0
  3

  4

  5

  6
_OPEN30
  7
_OPEN30
 40
1.0
 41
2.5
 42
0.5
 43
0.38
 44
1.0
 45
0.0
 46
0.0
 47
0.0
 48
0.0
 71
             0
 72
             0
 73
             0
 74
             0
 75
             0
 76
             0
 77
             1
 78
             8
140
2.5
141
0.09
142
0.0
143
25.4
144
1.0
145
0.0
146
1.0
147
0.625
170
             0
171
             2
172
             0
173
             1
174
             0
175
             0
176
             2
177
             2
178
             2
270
             2
271
             2
272
             4
273
             2
274
             2
275
             0
280
             0
281
             0
282
             0
283
             1
284
             0
285
             0
286
             0
287
             0
288
             0
340
17
  0
DIMSTYLE
105
1A6
100
AcDbSymbolTableRecord
100
AcDbDimStyleTableRecord
  2
ME10_DIM_10
 70
             0
  3

  4

  5

  6
_OPEN30
  7
_OPEN30
 40
1.0
 41
2.5
 42
0.5
 43
0.38
 44
1.0
 45
0.0
 46
0.0
 47
0.0
 48
0.0
 71
             0
 72
             0
 73
             0
 74
             0
 75
             0
 76
             0
 77
             1
 78
             8
140
2.5
141
0.09
142
0.0
143
25.4
144
1.0
145
0.0
146
1.0
147
0.625
170
             0
171
             2
172
             0
173
             1
174
             0
175
             0
176
             2
177
             2
178
             2
270
             2
271
             2
272
             4
273
             2
274
             2
275
             0
280
             0
281
             0
282
             0
283
             1
284
             0
285
             0
286
             0
287
             0
288
             0
340
17
  0
DIMSTYLE
105
1B5
100
AcDbSymbolTableRecord
100
AcDbDimStyleTableRecord
  2
ME10_DIM_11
 70
             0
  3

  4

  5

  6
_OPEN30
  7
_OPEN30
 40
1.0
 41
2.5
 42
0.5
 43
0.38
 44
1.0
 45
0.0
 46
0.0
 47
0.0
 48
0.0
 71
             0
 72
             0
 73
             0
 74
             0
 75
             0
 76
             0
 77
             1
 78
             8
140
2.5
141
0.09
142
0.0
143
25.4
144
1.0
145
0.0
146
1.0
147
0.625
170
             0
171
             2
172
             0
173
             1
174
             0
175
             0
176
             2
177
             2
178
             2
270
             2
271
             2
272
             4
273
             2
274
             2
275
             0
280
             0
281
             0
282
             0
283
             1
284
             0
285
             0
286
             0
287
             0
288
             0
340
17
  0
DIMSTYLE
105
1C4
100
AcDbSymbolTableRecord
100
AcDbDimStyleTableRecord
  2
ME10_DIM_12
 70
             0
  3

  4

  5

  6
_OPEN30
  7
_OPEN30
 40
1.0
 41
2.5
 42
0.5
 43
0.38
 44
1.0
 45
0.0
 46
0.0
 47
0.0
 48
0.0
 71
             0
 72
             0
 73
             0
 74
             0
 75
             0
 76
             0
 77
             1
 78
             8
140
2.5
141
0.09
142
0.0
143
25.4
144
1.0
145
0.0
146
1.0
147
0.625
170
             0
171
             2
172
             0
173
             1
174
             0
175
             0
176
             2
177
             2
178
             2
270
             2
271
             2
272
             4
273
             2
274
             2
275
             0
280
             0
281
             0
282
             0
283
             1
284
             0
285
             0
286
             0
287
             0
288
             0
340
17
  0
DIMSTYLE
105
1DD
100
AcDbSymbolTableRecord
100
AcDbDimStyleTableRecord
  2
ME10_DIM_13
 70
             0
  3

  4

  5

  6
_OPEN30
  7
_OPEN30
 40
1.0
 41
2.5
 42
0.5
 43
0.38
 44
1.0
 45
0.0
 46
0.0
 47
0.0
 48
0.0
 71
             0
 72
             0
 73
             0
 74
             0
 75
             0
 76
             0
 77
             1
 78
             8
140
2.5
141
0.09
142
0.0
143
25.4
144
1.0
145
0.0
146
1.0
147
0.625
170
             0
171
             2
172
             0
173
             1
174
             0
175
             0
176
             2
177
             2
178
             2
270
             2
271
             2
272
             4
273
             2
274
             2
275
             0
280
             0
281
             0
282
             0
283
             1
284
             0
285
             0
286
             0
287
             0
288
             0
340
17
  0
DIMSTYLE
105
1EC
100
AcDbSymbolTableRecord
100
AcDbDimStyleTableRecord
  2
ME10_DIM_14
 70
             0
  3

  4

  5

  6
_OPEN30
  7
_OPEN30
 40
1.0
 41
2.5
 42
0.5
 43
0.38
 44
1.0
 45
0.0
 46
0.0
 47
0.0
 48
0.0
 71
             0
 72
             0
 73
             0
 74
             0
 75
             0
 76
             0
 77
             1
 78
             8
140
2.5
141
0.09
142
0.0
143
25.4
144
1.0
145
0.0
146
1.0
147
0.625
170
             0
171
             2
172
             0
173
             1
174
             0
175
             0
176
             2
177
             2
178
             2
270
             2
271
             2
272
             4
273
             2
274
             2
275
             0
280
             0
281
             0
282
             0
283
             1
284
             0
285
             0
286
             0
287
             0
288
             0
340
17
  0
ENDTAB
  0
TABLE
  2
BLOCK_RECORD
  5
1
100
AcDbSymbolTable
 70
            17
  0
BLOCK_RECORD
  5
A
100
AcDbSymbolTableRecord
100
AcDbBlockTableRecord
  2
*MODEL_SPACE
  0
BLOCK_RECORD
  5
B
100
AcDbSymbolTableRecord
100
AcDbBlockTableRecord
  2
*PAPER_SPACE
  0
BLOCK_RECORD
  5
112
100
AcDbSymbolTableRecord
100
AcDbBlockTableRecord
  2
*D0
  0
BLOCK_RECORD
  5
11E
100
AcDbSymbolTableRecord
100
AcDbBlockTableRecord
  2
_OPEN30
  0
BLOCK_RECORD
  5
126
100
AcDbSymbolTableRecord
100
AcDbBlockTableRecord
  2
*D2
  0
BLOCK_RECORD
  5
133
100
AcDbSymbolTableRecord
100
AcDbBlockTableRecord
  2
*D3
  0
BLOCK_RECORD
  5
140
100
AcDbSymbolTableRecord
100
AcDbBlockTableRecord
  2
*D4
  0
BLOCK_RECORD
  5
14D
100
AcDbSymbolTableRecord
100
AcDbBlockTableRecord
  2
*D5
  0
BLOCK_RECORD
  5
15A
100
AcDbSymbolTableRecord
100
AcDbBlockTableRecord
  2
*D6
  0
BLOCK_RECORD
  5
167
100
AcDbSymbolTableRecord
100
AcDbBlockTableRecord
  2
*D7
  0
BLOCK_RECORD
  5
174
100
AcDbSymbolTableRecord
100
AcDbBlockTableRecord
  2
*D8
  0
BLOCK_RECORD
  5
181
100
AcDbSymbolTableRecord
100
AcDbBlockTableRecord
  2
*D9
  0
BLOCK_RECORD
  5
18E
100
AcDbSymbolTableRecord
100
AcDbBlockTableRecord
  2
*D10
  0
BLOCK_RECORD
  5
19B
100
AcDbSymbolTableRecord
100
AcDbBlockTableRecord
  2
*D11
  0
BLOCK_RECORD
  5
1A8
100
AcDbSymbolTableRecord
100
AcDbBlockTableRecord
  2
*D12
  0
BLOCK_RECORD
  5
1B7
100
AcDbSymbolTableRecord
100
AcDbBlockTableRecord
  2
*D13
  0
BLOCK_RECORD
  5
1C6
100
AcDbSymbolTableRecord
100
AcDbBlockTableRecord
  2
*D14
  0
BLOCK_RECORD
  5
1D0
100
AcDbSymbolTableRecord
100
AcDbBlockTableRecord
  2
*D15
  0
BLOCK_RECORD
  5
1DF
100
AcDbSymbolTableRecord
100
AcDbBlockTableRecord
  2
*D16
  0
ENDTAB
  0
ENDSEC
  0
SECTION
  2
BLOCKS
  0
BLOCK
  5
D
100
AcDbEntity
  8
0
100
AcDbBlockBegin
  2
*MODEL_SPACE
 70
             0
 10
0.0
 20
0.0
 30
0.0
  3
*MODEL_SPACE
  1

  0
ENDBLK
  5
E
100
AcDbEntity
  8
0
100
AcDbBlockEnd
  0
BLOCK
  5
F
100
AcDbEntity
 67
             1
  8
0
100
AcDbBlockBegin
  2
*PAPER_SPACE
 70
             0
 10
0.0
 20
0.0
 30
0.0
  3
*PAPER_SPACE
  1

  0
ENDBLK
  5
10
100
AcDbEntity
 67
             1
  8
0
100
AcDbBlockEnd
  0
BLOCK
  5
113
100
AcDbEntity
  8
0
100
AcDbBlockBegin
  2
*D0
 70
             1
 10
0.0
 20
0.0
 30
0.0
  3
*D0
  1

  0
LINE
  5
114
100
AcDbEntity
  8
0
  6
CONTINUOUS
 62
             2
100
AcDbLine
 10
-35.0
 20
19.5
 11
0.0
 21
19.5
  0
LINE
  5
115
100
AcDbEntity
  8
0
  6
CONTINUOUS
 62
             2
100
AcDbLine
 10
-35.0
 20
13.0
 11
-35.0
 21
20.5
  0
LINE
  5
116
100
AcDbEntity
  8
0
  6
CONTINUOUS
 62
             2
100
AcDbLine
 10
0.0
 20
15.0
 11
0.0
 21
20.5
  0
LINE
  5
117
100
AcDbEntity
  8
0
 62
             2
100
AcDbLine
 10
-35.0
 20
19.5
 11
-32.5
 21
20.16987298107781
  0
LINE
  5
118
100
AcDbEntity
  8
0
 62
             2
100
AcDbLine
 10
-35.0
 20
19.5
 11
-32.5
 21
18.8301270189222
  0
LINE
  5
119
100
AcDbEntity
  8
0
 62
             2
100
AcDbLine
 10
0.0
 20
19.5
 11
-2.5
 21
18.8301270189222
  0
LINE
  5
11A
100
AcDbEntity
  8
0
 62
             2
100
AcDbLine
 10
0.0
 20
19.5
 11
-2.5
 21
20.16987298107781
  0
MTEXT
  5
11C
100
AcDbEntity
  8
0
 62
             2
100
AcDbMText
 10
-19.70993649053891
 20
20.5
 30
0.0
 40
2.5
 41
0.0
 71
             7
 72
             1
  1
35
  7
CONVERTER_2
 11
0.99999999999706
 21
0.00000242406841
 31
0.0
  0
ENDBLK
  5
11D
100
AcDbEntity
  8
0
100
AcDbBlockEnd
  0
BLOCK
  5
11F
100
AcDbEntity
  8
0
 62
             0
100
AcDbBlockBegin
  2
_OPEN30
 70
             0
 10
0.0
 20
0.0
 30
0.0
  3
_OPEN30
  1

  0
LINE
  5
120
100
AcDbEntity
  8
0
  6
BYBLOCK
 62
             0
100
AcDbLine
 10
-1.0
 20
0.267949
 11
0.0
 21
0.0
  0
LINE
  5
121
100
AcDbEntity
  8
0
  6
BYBLOCK
 62
             0
100
AcDbLine
 10
0.0
 20
0.0
 11
-1.0
 21
-0.267949
  0
LINE
  5
122
100
AcDbEntity
  8
0
  6
BYBLOCK
 62
             0
100
AcDbLine
 10
0.0
 20
0.0
 11
-1.0
 21
0.0
  0
ENDBLK
  5
123
100
AcDbEntity
  8
0
 62
             0
100
AcDbBlockEnd
  0
BLOCK
  5
127
100
AcDbEntity
  8
0
100
AcDbBlockBegin
  2
*D2
 70
             1
 10
0.0
 20
0.0
 30
0.0
  3
*D2
  1

  0
LINE
  5
128
100
AcDbEntity
  8
0
  6
CONTINUOUS
 62
             2
100
AcDbLine
 10
-113.0
 20
19.5
 11
-70.0
 21
19.5
  0
LINE
  5
129
100
AcDbEntity
  8
0
  6
CONTINUOUS
 62
             2
100
AcDbLine
 10
-113.0
 20
6.29999999999947
 11
-113.0
 21
20.5
  0
LINE
  5
12A
100
AcDbEntity
  8
0
  6
CONTINUOUS
 62
             2
100
AcDbLine
 10
-70.0
 20
13.0
 11
-70.0
 21
20.5
  0
LINE
  5
12B
100
AcDbEntity
  8
0
 62
             2
100
AcDbLine
 10
-113.0
 20
19.5
 11
-110.5
 21
20.16987298107781
  0
LINE
  5
12C
100
AcDbEntity
  8
0
 62
             2
100
AcDbLine
 10
-113.0
 20
19.5
 11
-110.5
 21
18.8301270189222
  0
LINE
  5
12D
100
AcDbEntity
  8
0
 62
             2
100
AcDbLine
 10
-70.0
 20
19.5
 11
-72.5
 21
18.8301270189222
  0
LINE
  5
12E
100
AcDbEntity
  8
0
 62
             2
100
AcDbLine
 10
-70.0
 20
19.5
 11
-72.5
 21
20.16987298107781
  0
MTEXT
  5
12F
100
AcDbEntity
  8
0
 62
             2
100
AcDbMText
 10
-93.70993649053891
 20
20.5
 30
0.0
 40
2.5
 41
0.0
 71
             7
 72
             1
  1
43
  7
CONVERTER_2
 11
0.99999999999706
 21
0.00000242406841
 31
0.0
  0
ENDBLK
  5
130
100
AcDbEntity
  8
0
100
AcDbBlockEnd
  0
BLOCK
  5
134
100
AcDbEntity
  8
0
100
AcDbBlockBegin
  2
*D3
 70
             1
 10
0.0
 20
0.0
 30
0.0
  3
*D3
  1

  0
LINE
  5
135
100
AcDbEntity
  8
0
  6
CONTINUOUS
 62
             2
100
AcDbLine
 10
-118.0
 20
-42.0
 11
-93.0
 21
-42.0
  0
LINE
  5
136
100
AcDbEntity
  8
0
  6
CONTINUOUS
 62
             2
100
AcDbLine
 10
-118.0
 20
-33.5
 11
-118.0
 21
-43.0
  0
LINE
  5
137
100
AcDbEntity
  8
0
  6
CONTINUOUS
 62
             2
100
AcDbLine
 10
-93.0
 20
-33.5
 11
-93.0
 21
-43.0
  0
LINE
  5
138
100
AcDbEntity
  8
0
 62
             2
100
AcDbLine
 10
-118.0
 20
-42.0
 11
-115.5
 21
-41.33012701892219
  0
LINE
  5
139
100
AcDbEntity
  8
0
 62
             2
100
AcDbLine
 10
-118.0
 20
-42.0
 11
-115.5
 21
-42.66987298107781
  0
LINE
  5
13A
100
AcDbEntity
  8
0
 62
             2
100
AcDbLine
 10
-93.0
 20
-42.0
 11
-95.5
 21
-42.66987298107781
  0
LINE
  5
13B
100
AcDbEntity
  8
0
 62
             2
100
AcDbLine
 10
-93.0
 20
-42.0
 11
-95.5
 21
-41.33012701892219
  0
MTEXT
  5
13C
100
AcDbEntity
  8
0
 62
             2
100
AcDbMText
 10
-107.70993649053891
 20
-41.0
 30
0.0
 40
2.5
 41
0.0
 71
             7
 72
             1
  1
25
  7
CONVERTER_2
 11
0.99999999999706
 21
0.00000242406841
 31
0.0
  0
ENDBLK
  5
13D
100
AcDbEntity
  8
0
100
AcDbBlockEnd
  0
BLOCK
  5
141
100
AcDbEntity
  8
0
100
AcDbBlockBegin
  2
*D4
 70
             1
 10
0.0
 20
0.0
 30
0.0
  3
*D4
  1

  0
LINE
  5
142
100
AcDbEntity
  8
0
  6
CONTINUOUS
 62
             2
100
AcDbLine
 10
-93.0
 20
-42.0
 11
-70.0
 21
-42.0
  0
LINE
  5
143
100
AcDbEntity
  8
0
  6
CONTINUOUS
 62
             2
100
AcDbLine
 10
-93.0
 20
-33.5
 11
-93.0
 21
-43.0
  0
LINE
  5
144
100
AcDbEntity
  8
0
  6
CONTINUOUS
 62
             2
100
AcDbLine
 10
-70.0
 20
-13.0
 11
-70.0
 21
-43.0
  0
LINE
  5
145
100
AcDbEntity
  8
0
 62
             2
100
AcDbLine
 10
-93.0
 20
-42.0
 11
-90.5
 21
-41.33012701892219
  0
LINE
  5
146
100
AcDbEntity
  8
0
 62
             2
100
AcDbLine
 10
-93.0
 20
-42.0
 11
-90.5
 21
-42.66987298107781
  0
LINE
  5
147
100
AcDbEntity
  8
0
 62
             2
100
AcDbLine
 10
-70.0
 20
-42.0
 11
-72.5
 21
-42.66987298107781
  0
LINE
  5
148
100
AcDbEntity
  8
0
 62
             2
100
AcDbLine
 10
-70.0
 20
-42.0
 11
-72.5
 21
-41.33012701892219
  0
MTEXT
  5
149
100
AcDbEntity
  8
0
 62
             2
100
AcDbMText
 10
-83.70993649053891
 20
-41.0
 30
0.0
 40
2.5
 41
0.0
 71
             7
 72
             1
  1
23
  7
CONVERTER_2
 11
0.99999999999706
 21
0.00000242406841
 31
0.0
  0
ENDBLK
  5
14A
100
AcDbEntity
  8
0
100
AcDbBlockEnd
  0
BLOCK
  5
14E
100
AcDbEntity
  8
0
100
AcDbBlockBegin
  2
*D5
 70
             1
 10
0.0
 20
0.0
 30
0.0
  3
*D5
  1

  0
LINE
  5
14F
100
AcDbEntity
  8
0
  6
CONTINUOUS
 62
             2
100
AcDbLine
 10
-122.0
 20
26.5
 11
-70.0
 21
26.5
  0
LINE
  5
150
100
AcDbEntity
  8
0
  6
CONTINUOUS
 62
             2
100
AcDbLine
 10
-122.0
 20
13.0
 11
-122.0
 21
27.5
  0
LINE
  5
151
100
AcDbEntity
  8
0
  6
CONTINUOUS
 62
             2
100
AcDbLine
 10
-70.0
 20
13.0
 11
-70.0
 21
27.5
  0
LINE
  5
152
100
AcDbEntity
  8
0
 62
             2
100
AcDbLine
 10
-122.0
 20
26.5
 11
-119.5
 21
27.16987298107781
  0
LINE
  5
153
100
AcDbEntity
  8
0
 62
             2
100
AcDbLine
 10
-122.0
 20
26.5
 11
-119.5
 21
25.8301270189222
  0
LINE
  5
154
100
AcDbEntity
  8
0
 62
             2
100
AcDbLine
 10
-70.0
 20
26.5
 11
-72.5
 21
25.8301270189222
  0
LINE
  5
155
100
AcDbEntity
  8
0
 62
             2
100
AcDbLine
 10
-70.0
 20
26.5
 11
-72.5
 21
27.16987298107781
  0
MTEXT
  5
156
100
AcDbEntity
  8
0
 62
             2
100
AcDbMText
 10
-98.20993649053891
 20
27.5
 30
0.0
 40
2.5
 41
0.0
 71
             7
 72
             1
  1
52
  7
CONVERTER_2
 11
0.99999999999706
 21
0.00000242406841
 31
0.0
  0
ENDBLK
  5
157
100
AcDbEntity
  8
0
100
AcDbBlockEnd
  0
BLOCK
  5
15B
100
AcDbEntity
  8
0
100
AcDbBlockBegin
  2
*D6
 70
             1
 10
0.0
 20
0.0
 30
0.0
  3
*D6
  1

  0
LINE
  5
15C
100
AcDbEntity
  8
0
  6
CONTINUOUS
 62
             2
100
AcDbLine
 10
-51.49988830175789
 20
-33.0
 11
-51.49988830175789
 21
0.0
  0
LINE
  5
15D
100
AcDbEntity
  8
0
  6
CONTINUOUS
 62
             2
100
AcDbLine
 10
-29.5
 20
-33.0
 11
-52.49988830175789
 21
-33.0
  0
LINE
  5
15E
100
AcDbEntity
  8
0
  6
CONTINUOUS
 62
             2
100
AcDbLine
 10
-39.99988830175789
 20
0.0
 11
-52.49988830175789
 21
0.0
  0
LINE
  5
15F
100
AcDbEntity
  8
0
 62
             2
100
AcDbLine
 10
-51.49988830175789
 20
-33.0
 11
-52.1697612828357
 21
-30.5
  0
LINE
  5
160
100
AcDbEntity
  8
0
 62
             2
100
AcDbLine
 10
-51.49988830175789
 20
-33.0
 11
-50.83001532068008
 21
-30.5
  0
LINE
  5
161
100
AcDbEntity
  8
0
 62
             2
100
AcDbLine
 10
-51.49988830175789
 20
0.0
 11
-50.83001532068009
 21
-2.5
  0
LINE
  5
162
100
AcDbEntity
  8
0
 62
             2
100
AcDbLine
 10
-51.49988830175789
 20
0.0
 11
-52.1697612828357
 21
-2.5
  0
MTEXT
  5
163
100
AcDbEntity
  8
0
 62
             2
100
AcDbMText
 10
-52.49988830175789
 20
-18.70993649053891
 30
0.0
 40
2.5
 41
0.0
 71
             7
 72
             1
  1
33
  7
CONVERTER_2
 11
0.0
 21
1.0
 31
0.0
  0
ENDBLK
  5
164
100
AcDbEntity
  8
0
100
AcDbBlockEnd
  0
BLOCK
  5
168
100
AcDbEntity
  8
0
100
AcDbBlockBegin
  2
*D7
 70
             1
 10
0.0
 20
0.0
 30
0.0
  3
*D7
  1

  0
LINE
  5
169
100
AcDbEntity
  8
0
  6
CONTINUOUS
 62
             2
100
AcDbLine
 10
-44.49988830175789
 20
-12.5
 11
-44.49988830175789
 21
12.5
  0
LINE
  5
16A
100
AcDbEntity
  8
0
  6
CONTINUOUS
 62
             2
100
AcDbLine
 10
-35.5
 20
-12.5
 11
-45.49988830175789
 21
-12.5
  0
LINE
  5
16B
100
AcDbEntity
  8
0
  6
CONTINUOUS
 62
             2
100
AcDbLine
 10
-35.5
 20
12.5
 11
-45.49988830175789
 21
12.5
  0
LINE
  5
16C
100
AcDbEntity
  8
0
 62
             2
100
AcDbLine
 10
-44.49988830175789
 20
-12.5
 11
-45.1697612828357
 21
-10.0
  0
LINE
  5
16D
100
AcDbEntity
  8
0
 62
             2
100
AcDbLine
 10
-44.49988830175789
 20
-12.5
 11
-43.83001532068008
 21
-10.0
  0
LINE
  5
16E
100
AcDbEntity
  8
0
 62
             2
100
AcDbLine
 10
-44.49988830175789
 20
12.5
 11
-43.83001532068009
 21
10.0
  0
LINE
  5
16F
100
AcDbEntity
  8
0
 62
             2
100
AcDbLine
 10
-44.49988830175789
 20
12.5
 11
-45.1697612828357
 21
10.0
  0
MTEXT
  5
170
100
AcDbEntity
  8
0
 62
             2
100
AcDbMText
 10
-45.49988830175789
 20
3.52353381363147
 30
0.0
 40
2.5
 41
0.0
 71
             7
 72
             1
  1
25
  7
CONVERTER_2
 11
0.0
 21
1.0
 31
0.0
  0
ENDBLK
  5
171
100
AcDbEntity
  8
0
100
AcDbBlockEnd
  0
BLOCK
  5
175
100
AcDbEntity
  8
0
100
AcDbBlockBegin
  2
*D8
 70
             1
 10
0.0
 20
0.0
 30
0.0
  3
*D8
  1

  0
LINE
  5
176
100
AcDbEntity
  8
0
  6
CONTINUOUS
 62
             2
100
AcDbLine
 10
-35.0
 20
26.5
 11
19.0
 21
26.5
  0
LINE
  5
177
100
AcDbEntity
  8
0
  6
CONTINUOUS
 62
             2
100
AcDbLine
 10
-35.0
 20
13.0
 11
-35.0
 21
27.5
  0
LINE
  5
178
100
AcDbEntity
  8
0
  6
CONTINUOUS
 62
             2
100
AcDbLine
 10
19.0
 20
-30.5
 11
19.0
 21
27.5
  0
LINE
  5
179
100
AcDbEntity
  8
0
 62
             2
100
AcDbLine
 10
-35.0
 20
26.5
 11
-32.5
 21
27.16987298107781
  0
LINE
  5
17A
100
AcDbEntity
  8
0
 62
             2
100
AcDbLine
 10
-35.0
 20
26.5
 11
-32.5
 21
25.8301270189222
  0
LINE
  5
17B
100
AcDbEntity
  8
0
 62
             2
100
AcDbLine
 10
19.0
 20
26.5
 11
16.5
 21
25.8301270189222
  0
LINE
  5
17C
100
AcDbEntity
  8
0
 62
             2
100
AcDbLine
 10
19.0
 20
26.5
 11
16.5
 21
27.16987298107781
  0
MTEXT
  5
17D
100
AcDbEntity
  8
0
 62
             2
100
AcDbMText
 10
-10.20993649053891
 20
27.5
 30
0.0
 40
2.5
 41
0.0
 71
             7
 72
             1
  1
54
  7
CONVERTER_2
 11
0.99999999999706
 21
0.00000242406841
 31
0.0
  0
ENDBLK
  5
17E
100
AcDbEntity
  8
0
100
AcDbBlockEnd
  0
BLOCK
  5
182
100
AcDbEntity
  8
0
100
AcDbBlockBegin
  2
*D9
 70
             1
 10
0.0
 20
0.0
 30
0.0
  3
*D9
  1

  0
LINE
  5
183
100
AcDbEntity
  8
0
  6
CONTINUOUS
 62
             2
100
AcDbLine
 10
-44.49988830175789
 20
40.0
 11
-44.49988830175789
 21
75.5
  0
LINE
  5
184
100
AcDbEntity
  8
0
  6
CONTINUOUS
 62
             2
100
AcDbLine
 10
-31.5
 20
40.0
 11
-45.49988830175789
 21
40.0
  0
LINE
  5
185
100
AcDbEntity
  8
0
  6
CONTINUOUS
 62
             2
100
AcDbLine
 10
-39.99988830175789
 20
75.5
 11
-45.49988830175789
 21
75.5
  0
LINE
  5
186
100
AcDbEntity
  8
0
 62
             2
100
AcDbLine
 10
-44.49988830175789
 20
40.0
 11
-45.1697612828357
 21
42.5
  0
LINE
  5
187
100
AcDbEntity
  8
0
 62
             2
100
AcDbLine
 10
-44.49988830175789
 20
40.0
 11
-43.83001532068008
 21
42.5
  0
LINE
  5
188
100
AcDbEntity
  8
0
 62
             2
100
AcDbLine
 10
-44.49988830175789
 20
75.5
 11
-43.83001532068009
 21
73.0
  0
LINE
  5
189
100
AcDbEntity
  8
0
 62
             2
100
AcDbLine
 10
-44.49988830175789
 20
75.5
 11
-45.1697612828357
 21
73.0
  0
MTEXT
  5
18A
100
AcDbEntity
  8
0
 62
             2
100
AcDbMText
 10
-45.49988830175789
 20
54.0088135094611
 30
0.0
 40
2.5
 41
0.0
 71
             7
 72
             1
  1
35.5
  7
CONVERTER_2
 11
0.0
 21
1.0
 31
0.0
  0
ENDBLK
  5
18B
100
AcDbEntity
  8
0
100
AcDbBlockEnd
  0
BLOCK
  5
18F
100
AcDbEntity
  8
0
100
AcDbBlockBegin
  2
*D10
 70
             1
 10
0.0
 20
0.0
 30
0.0
  3
*D10
  1

  0
LINE
  5
190
100
AcDbEntity
  8
0
  6
CONTINUOUS
 62
             2
100
AcDbLine
 10
-35.0
 20
98.99927107213691
 11
-4.99999999999848
 21
98.99927107213691
  0
LINE
  5
191
100
AcDbEntity
  8
0
  6
CONTINUOUS
 62
             2
100
AcDbLine
 10
-35.0
 20
92.50011169824393
 11
-35.0
 21
99.99927107213691
  0
LINE
  5
192
100
AcDbEntity
  8
0
  6
CONTINUOUS
 62
             2
100
AcDbLine
 10
-4.99999999999848
 20
78.0
 11
-4.99999999999848
 21
99.99927107213691
  0
LINE
  5
193
100
AcDbEntity
  8
0
 62
             2
100
AcDbLine
 10
-35.0
 20
98.99927107213691
 11
-32.5
 21
99.66914405321471
  0
LINE
  5
194
100
AcDbEntity
  8
0
 62
             2
100
AcDbLine
 10
-35.0
 20
98.99927107213691
 11
-32.5
 21
98.32939809105911
  0
LINE
  5
195
100
AcDbEntity
  8
0
 62
             2
100
AcDbLine
 10
-4.99999999999848
 20
98.99927107213691
 11
-7.49999999999848
 21
98.32939809105911
  0
LINE
  5
196
100
AcDbEntity
  8
0
 62
             2
100
AcDbLine
 10
-4.99999999999848
 20
98.99927107213691
 11
-7.49999999999848
 21
99.66914405321471
  0
MTEXT
  5
197
100
AcDbEntity
  8
0
 62
             2
100
AcDbMText
 10
-22.20993649053814
 20
99.99927107213691
 30
0.0
 40
2.5
 41
0.0
 71
             7
 72
             1
  1
30
  7
CONVERTER_2
 11
0.99999999999706
 21
0.00000242406841
 31
0.0
  0
ENDBLK
  5
198
100
AcDbEntity
  8
0
100
AcDbBlockEnd
  0
BLOCK
  5
19C
100
AcDbEntity
  8
0
100
AcDbBlockBegin
  2
*D11
 70
             1
 10
0.0
 20
0.0
 30
0.0
  3
*D11
  1

  0
LINE
  5
19D
100
AcDbEntity
  8
0
  6
CONTINUOUS
 62
             2
100
AcDbLine
 10
-4.99999999999848
 20
98.9980271506217
 11
10.0
 21
98.9980271506217
  0
LINE
  5
19E
100
AcDbEntity
  8
0
  6
CONTINUOUS
 62
             2
100
AcDbLine
 10
-4.99999999999848
 20
78.00000000000004
 11
-4.99999999999848
 21
99.9980271506217
  0
LINE
  5
19F
100
AcDbEntity
  8
0
  6
CONTINUOUS
 62
             2
100
AcDbLine
 10
10.0
 20
80.19999999999713
 11
10.0
 21
99.9980271506217
  0
LINE
  5
1A0
100
AcDbEntity
  8
0
 62
             2
100
AcDbLine
 10
-4.99999999999848
 20
98.9980271506217
 11
-2.49999999999848
 21
99.6679001316995
  0
LINE
  5
1A1
100
AcDbEntity
  8
0
 62
             2
100
AcDbLine
 10
-4.99999999999848
 20
98.9980271506217
 11
-2.49999999999848
 21
98.32815416954389
  0
LINE
  5
1A2
100
AcDbEntity
  8
0
 62
             2
100
AcDbLine
 10
10.0
 20
98.9980271506217
 11
7.5
 21
98.32815416954389
  0
LINE
  5
1A3
100
AcDbEntity
  8
0
 62
             2
100
AcDbLine
 10
10.0
 20
98.9980271506217
 11
7.5
 21
99.6679001316995
  0
MTEXT
  5
1A4
100
AcDbEntity
  8
0
 62
             2
100
AcDbMText
 10
0.66506350946186
 20
99.9980271506217
 30
0.0
 40
2.5
 41
0.0
 71
             7
 72
             1
  1
15
  7
CONVERTER_2
 11
0.99999999999706
 21
0.00000242406841
 31
0.0
  0
ENDBLK
  5
1A5
100
AcDbEntity
  8
0
100
AcDbBlockEnd
  0
BLOCK
  5
1A9
100
AcDbEntity
  8
0
100
AcDbBlockBegin
  2
*D12
 70
             1
 10
0.0
 20
0.0
 30
0.0
  3
*D12
  1

  0
LINE
  5
1AA
100
AcDbEntity
  8
0
  6
CONTINUOUS
 62
             2
100
AcDbLine
 10
28.0
 20
-38.0
 11
28.0
 21
-33.0
  0
LINE
  5
1AB
100
AcDbEntity
  8
0
  6
CONTINUOUS
 62
             2
100
AcDbLine
 10
28.0
 20
-33.0
 11
28.0
 21
-31.0
  0
LINE
  5
1AC
100
AcDbEntity
  8
0
  6
CONTINUOUS
 62
             2
100
AcDbLine
 10
28.0
 20
-31.0
 11
28.0
 21
-24.1483157833056
  0
LINE
  5
1AD
100
AcDbEntity
  8
0
  6
CONTINUOUS
 62
             2
100
AcDbLine
 10
19.50011169824211
 20
-33.0
 11
29.0
 21
-33.0
  0
LINE
  5
1AE
100
AcDbEntity
  8
0
  6
CONTINUOUS
 62
             2
100
AcDbLine
 10
19.5
 20
-31.0
 11
29.0
 21
-31.0
  0
LINE
  5
1AF
100
AcDbEntity
  8
0
 62
             2
100
AcDbLine
 10
28.0
 20
-33.0
 11
28.66987298107781
 21
-35.5
  0
LINE
  5
1B0
100
AcDbEntity
  8
0
 62
             2
100
AcDbLine
 10
28.0
 20
-33.0
 11
27.3301270189222
 21
-35.5
  0
LINE
  5
1B1
100
AcDbEntity
  8
0
 62
             2
100
AcDbLine
 10
28.0
 20
-31.0
 11
27.3301270189222
 21
-28.5
  0
LINE
  5
1B2
100
AcDbEntity
  8
0
 62
             2
100
AcDbLine
 10
28.0
 20
-31.0
 11
28.66987298107781
 21
-28.5
  0
MTEXT
  5
1B3
100
AcDbEntity
  8
0
 62
             2
100
AcDbMText
 10
27.0
 20
-26.3181887643834
 30
0.0
 40
2.5
 41
0.0
 71
             7
 72
             1
  1
2
  7
CONVERTER_2
 11
0.0
 21
1.0
 31
0.0
  0
ENDBLK
  5
1B4
100
AcDbEntity
  8
0
100
AcDbBlockEnd
  0
BLOCK
  5
1B8
100
AcDbEntity
  8
0
100
AcDbBlockBegin
  2
*D13
 70
             1
 10
0.0
 20
0.0
 30
0.0
  3
*D13
  1

  0
LINE
  5
1B9
100
AcDbEntity
  8
0
  6
CONTINUOUS
 62
             2
100
AcDbLine
 10
21.0
 20
35.0
 11
21.0
 21
40.0
  0
LINE
  5
1BA
100
AcDbEntity
  8
0
  6
CONTINUOUS
 62
             2
100
AcDbLine
 10
21.0
 20
40.0
 11
21.0
 21
42.0
  0
LINE
  5
1BB
100
AcDbEntity
  8
0
  6
CONTINUOUS
 62
             2
100
AcDbLine
 10
21.0
 20
42.0
 11
21.0
 21
48.0007584823681
  0
LINE
  5
1BC
100
AcDbEntity
  8
0
  6
CONTINUOUS
 62
             2
100
AcDbLine
 10
12.5
 20
40.0
 11
22.0
 21
40.0
  0
LINE
  5
1BD
100
AcDbEntity
  8
0
  6
CONTINUOUS
 62
             2
100
AcDbLine
 10
12.5
 20
42.0
 11
22.0
 21
42.0
  0
LINE
  5
1BE
100
AcDbEntity
  8
0
 62
             2
100
AcDbLine
 10
21.0
 20
40.0
 11
21.66987298107781
 21
37.5
  0
LINE
  5
1BF
100
AcDbEntity
  8
0
 62
             2
100
AcDbLine
 10
21.0
 20
40.0
 11
20.3301270189222
 21
37.5
  0
LINE
  5
1C0
100
AcDbEntity
  8
0
 62
             2
100
AcDbLine
 10
21.0
 20
42.0
 11
20.3301270189222
 21
44.5
  0
LINE
  5
1C1
100
AcDbEntity
  8
0
 62
             2
100
AcDbLine
 10
21.0
 20
42.0
 11
21.66987298107781
 21
44.5
  0
MTEXT
  5
1C2
100
AcDbEntity
  8
0
 62
             2
100
AcDbMText
 10
20.0
 20
45.8308855012903
 30
0.0
 40
2.5
 41
0.0
 71
             7
 72
             1
  1
2
  7
CONVERTER_2
 11
0.0
 21
1.0
 31
0.0
  0
ENDBLK
  5
1C3
100
AcDbEntity
  8
0
100
AcDbBlockEnd
  0
BLOCK
  5
1C7
100
AcDbEntity
  8
0
100
AcDbBlockBegin
  2
*D14
 70
             1
 10
0.0
 20
0.0
 30
0.0
  3
*D14
  1

  0
LINE
  5
1C8
100
AcDbEntity
  8
0
  6
CONTINUOUS
 62
             2
100
AcDbLine
 10
-5.3953201365777
 20
-5.90681984013726
 11
17.27564015991864
 21
18.91344562778942
  0
LINE
  5
1C9
100
AcDbEntity
  8
0
 62
             2
100
AcDbLine
 10
5.39532013657769
 20
5.90681984013727
 11
4.20388497077245
 21
3.60916624212457
  0
LINE
  5
1CA
100
AcDbEntity
  8
0
 62
             2
100
AcDbLine
 10
5.39532013657769
 20
5.90681984013727
 11
3.21468021702188
 21
4.51271103806418
  0
LINE
  5
1CB
100
AcDbEntity
  8
0
 62
             2
100
AcDbLine
 10
-5.3953201365777
 20
-5.90681984013726
 11
-4.20388497077245
 21
-3.60916624212456
  0
LINE
  5
1CC
100
AcDbEntity
  8
0
 62
             2
100
AcDbLine
 10
-5.3953201365777
 20
-5.90681984013726
 11
-3.21468021702188
 21
-4.51271103806417
  0
MTEXT
  5
1CD
100
AcDbEntity
  8
0
 62
             2
100
AcDbMText
 10
11.29716866071897
 20
13.85095565986453
 30
0.0
 40
2.5
 41
0.0
 71
             7
 72
             1
  1
\C2;{\Fgdt;n}\C2;16
  7
CONVERTER_2
 11
0.67441501707221
 21
0.73835248001716
 31
0.0
  0
ENDBLK
  5
1CE
100
AcDbEntity
  8
0
100
AcDbBlockEnd
  0
BLOCK
  5
1D1
100
AcDbEntity
  8
0
100
AcDbBlockBegin
  2
*D15
 70
             1
 10
0.0
 20
0.0
 30
0.0
  3
*D15
  1

  0
LINE
  5
1D2
100
AcDbEntity
  8
0
  6
CONTINUOUS
 62
             2
100
AcDbLine
 10
25.58845726811908
 20
66.49999999999854
 11
26.45448267190347
 21
65.99999999999847
  0
LINE
  5
1D3
100
AcDbEntity
  8
0
  6
CONTINUOUS
 62
             2
100
AcDbLine
 10
25.5884572681198
 20
84.50000000000021
 11
26.45448267190423
 21
85.00000000000023
  0
LINE
  5
1D4
100
AcDbEntity
  8
0
  6
CONTINUOUS
 62
             2
100
AcDbLine
 10
10.4330127018922
 20
75.24999999999996
 11
25.58845726811908
 21
66.49999999999854
  0
LINE
  5
1D5
100
AcDbEntity
  8
0
  6
CONTINUOUS
 62
             2
100
AcDbLine
 10
10.43301270189222
 20
75.75
 11
25.5884572681198
 21
84.50000000000021
  0
ARC
  5
1D6
100
AcDbEntity
  8
0
  6
CONTINUOUS
 62
             2
100
AcDbCircle
 10
10.0
 20
75.5
 40
18.00000000000002
100
AcDbArc
 50
-30.00000000000535
 51
30.00000000000074
  0
LINE
  5
1D7
100
AcDbEntity
  8
0
 62
             2
100
AcDbLine
 10
25.58845726811908
 20
66.49999999999854
 11
26.08324405272834
 21
69.04045583479554
  0
LINE
  5
1D8
100
AcDbEntity
  8
0
 62
             2
100
AcDbLine
 10
25.58845726811908
 20
66.49999999999854
 11
27.28718311044601
 21
68.45270589782051
  0
LINE
  5
1D9
100
AcDbEntity
  8
0
 62
             2
100
AcDbLine
 10
25.5884572681198
 20
84.50000000000021
 11
27.28718311044658
 21
82.54729410217811
  0
LINE
  5
1DA
100
AcDbEntity
  8
0
 62
             2
100
AcDbLine
 10
25.5884572681198
 20
84.50000000000021
 11
26.08324405272886
 21
81.95954416520318
  0
MTEXT
  5
1DB
100
AcDbEntity
  8
0
 62
             2
100
AcDbMText
 10
26.99999999999989
 20
72.4150635094604
 30
0.0
 40
2.5
 41
0.0
 71
             7
 72
             1
  1
60{\Fgdt;~}
  7
CONVERTER_2
 11
0.0
 21
1.0
 31
0.0
  0
ENDBLK
  5
1DC
100
AcDbEntity
  8
0
100
AcDbBlockEnd
  0
BLOCK
  5
1E0
100
AcDbEntity
  8
0
100
AcDbBlockBegin
  2
*D16
 70
             1
 10
0.0
 20
0.0
 30
0.0
  3
*D16
  1

  0
LINE
  5
1E1
100
AcDbEntity
  8
0
  6
CONTINUOUS
 62
             2
100
AcDbLine
 10
-126.8564064605509
 20
8.00000000000019
 11
-127.72243186433533
 21
8.50000000000021
  0
LINE
  5
1E2
100
AcDbEntity
  8
0
  6
CONTINUOUS
 62
             2
100
AcDbLine
 10
-126.85640646055091
 20
-8.00000000000018
 11
-127.72243186433535
 21
-8.50000000000019
  0
LINE
  5
1E3
100
AcDbEntity
  8
0
  6
CONTINUOUS
 62
             2
100
AcDbLine
 10
-113.43301270189221
 20
0.25000000000001
 11
-126.8564064605509
 21
8.00000000000019
  0
LINE
  5
1E4
100
AcDbEntity
  8
0
  6
CONTINUOUS
 62
             2
100
AcDbLine
 10
-113.43301270189221
 20
-0.25000000000001
 11
-126.85640646055091
 21
-8.00000000000018
  0
ARC
  5
1E5
100
AcDbEntity
  8
0
  6
CONTINUOUS
 62
             2
100
AcDbCircle
 10
-113.0
 20
0.0
 40
16.0
100
AcDbArc
 50
149.9999999999992
 51
-149.99999999999926
  0
LINE
  5
1E6
100
AcDbEntity
  8
0
 62
             2
100
AcDbLine
 10
-126.8564064605509
 20
8.00000000000019
 11
-127.32912231261862
 21
5.45534490864067
  0
LINE
  5
1E7
100
AcDbEntity
  8
0
 62
             2
100
AcDbLine
 10
-126.8564064605509
 20
8.00000000000019
 11
-128.53811794289291
 21
6.03262197304729
  0
LINE
  5
1E8
100
AcDbEntity
  8
0
 62
             2
100
AcDbLine
 10
-126.85640646055091
 20
-8.00000000000018
 11
-128.53811794289294
 21
-6.03262197304728
  0
LINE
  5
1E9
100
AcDbEntity
  8
0
 62
             2
100
AcDbLine
 10
-126.85640646055091
 20
-8.00000000000018
 11
-127.32912231261864
 21
-5.45534490864066
  0
MTEXT
  5
1EA
100
AcDbEntity
  8
0
 62
             2
100
AcDbMText
 10
-130.0
 20
-3.0849364905389
 30
0.0
 40
2.5
 41
0.0
 71
             7
 72
             1
  1
60{\Fgdt;~}
  7
CONVERTER_2
 11
0.0
 21
1.0
 31
0.0
  0
ENDBLK
  5
1EB
100
AcDbEntity
  8
0
100
AcDbBlockEnd
  0
ENDSEC
  0
SECTION
  2
ENTITIES
  0
DIMENSION
  5
1ED
100
AcDbEntity
  8
1
100
AcDbDimension
  2
*D16
 10
-129.0
 20
0.00000000000001
 11
-131.25
 21
0.0
 31
0.0
 70
             5
  1
<>
  3
ME10_DIM_14
100
AcDb3PointAngularDimension
 13
-114.38564064605509
 23
0.80000000000002
 14
-114.38564064605509
 24
-0.80000000000002
 15
-113.0
 25
0.0
  0
DIMENSION
  5
1DE
100
AcDbEntity
  8
1
100
AcDbDimension
  2
*D15
 10
28.00000000000002
 20
75.49999999999928
 11
25.75000000000002
 21
75.49999999999935
 31
0.0
 70
             5
  1
<>
  3
ME10_DIM_13
100
AcDb3PointAngularDimension
 13
11.55884572681191
 23
74.59999999999985
 14
11.55884572681198
 24
76.40000000000002
 15
10.0
 25
75.5
  0
DIMENSION
  5
1C5
100
AcDbEntity
  8
1
100
AcDbDimension
  2
*D13
 10
21.0
 20
40.0
 11
18.75
 21
46.9158219918292
 31
0.0
 53
90.0
  1
<>
  3
ME10_DIM_12
100
AcDbAlignedDimension
 13
12.0
 23
42.0
 14
12.0
 24
40.0
 50
90.0
100
AcDbRotatedDimension
  0
DIMENSION
  5
1B6
100
AcDbEntity
  8
1
100
AcDbDimension
  2
*D12
 10
28.0
 20
-33.0
 11
25.75
 21
-25.2332522738445
 31
0.0
 53
90.0
  1
<>
  3
ME10_DIM_11
100
AcDbAlignedDimension
 13
19.0
 23
-31.0
 14
19.00011169824211
 24
-33.0
 50
90.0
100
AcDbRotatedDimension
  0
DIMENSION
  5
1A7
100
AcDbEntity
  8
1
100
AcDbDimension
  2
*D11
 10
-4.99999999999848
 20
98.9980271506217
 11
2.50000000000076
 21
101.2480271506217
 31
0.0
 53
0.00013888888889
  1
<>
  3
ME10_DIM_10
100
AcDbAlignedDimension
 13
10.0
 23
79.69999999999709
 14
-4.99999999999847
 24
77.5
100
AcDbRotatedDimension
  0
DIMENSION
  5
19A
100
AcDbEntity
  8
1
100
AcDbDimension
  2
*D10
 10
-35.0
 20
98.99927107213691
 11
-19.99999999999924
 21
101.24927107213691
 31
0.0
 53
0.00013888888889
  1
<>
  3
ME10_DIM_9
100
AcDbAlignedDimension
 13
-4.99999999999847
 23
77.5
 14
-35.0
 24
92.00011169824393
100
AcDbRotatedDimension
  0
DIMENSION
  5
18D
100
AcDbEntity
  8
1
100
AcDbDimension
  2
*D9
 10
-44.49988830175789
 20
40.0
 11
-46.74988830175789
 21
57.75
 31
0.0
 53
90.0
  1
<>
  3
ME10_DIM_8
100
AcDbAlignedDimension
 13
-39.49988830175789
 23
75.5
 14
-31.0
 24
40.0
 50
90.0
100
AcDbRotatedDimension
  0
DIMENSION
  5
180
100
AcDbEntity
  8
1
100
AcDbDimension
  2
*D8
 10
-35.0
 20
26.5
 11
-8.0
 21
28.75
 31
0.0
 53
0.00013888888889
  1
<>
  3
ME10_DIM_7
100
AcDbAlignedDimension
 13
19.0
 23
-31.0
 14
-35.0
 24
12.5
100
AcDbRotatedDimension
  0
DIMENSION
  5
173
100
AcDbEntity
  8
1
100
AcDbDimension
  2
*D7
 10
-44.49988830175789
 20
-12.5
 11
-46.74988830175789
 21
5.73347030417037
 31
0.0
 53
90.0
  1
<>
  3
ME10_DIM_6
100
AcDbAlignedDimension
 13
-35.0
 23
12.5
 14
-35.0
 24
-12.5
 50
90.0
100
AcDbRotatedDimension
  0
DIMENSION
  5
166
100
AcDbEntity
  8
1
100
AcDbDimension
  2
*D6
 10
-51.49988830175789
 20
-33.0
 11
-53.74988830175789
 21
-16.5
 31
0.0
 53
90.0
  1
<>
  3
ME10_DIM_5
100
AcDbAlignedDimension
 13
-39.49988830175789
 23
0.0
 14
-29.0
 24
-33.0
 50
90.0
100
AcDbRotatedDimension
  0
DIMENSION
  5
159
100
AcDbEntity
  8
1
100
AcDbDimension
  2
*D5
 10
-122.0
 20
26.5
 11
-96.0
 21
28.75
 31
0.0
 53
0.00013888888889
  1
<>
  3
ME10_DIM_4
100
AcDbAlignedDimension
 13
-70.0
 23
12.5
 14
-122.0
 24
12.5
100
AcDbRotatedDimension
  0
DIMENSION
  5
14C
100
AcDbEntity
  8
1
100
AcDbDimension
  2
*D4
 10
-93.0
 20
-42.0
 11
-81.5
 21
-39.75
 31
0.0
 53
0.00013888888889
  1
<>
  3
ME10_DIM_3
100
AcDbAlignedDimension
 13
-70.0
 23
-12.5
 14
-93.0
 24
-33.0
100
AcDbRotatedDimension
  0
DIMENSION
  5
13F
100
AcDbEntity
  8
1
100
AcDbDimension
  2
*D3
 10
-118.0
 20
-42.0
 11
-105.5
 21
-39.75
 31
0.0
 53
0.00013888888889
  1
<>
  3
ME10_DIM_2
100
AcDbAlignedDimension
 13
-93.0
 23
-33.0
 14
-118.0
 24
-33.0
100
AcDbRotatedDimension
  0
DIMENSION
  5
132
100
AcDbEntity
  8
1
100
AcDbDimension
  2
*D2
 10
-113.0
 20
19.5
 11
-91.5
 21
21.75
 31
0.0
 53
0.00013888888889
  1
<>
  3
ME10_DIM_1
100
AcDbAlignedDimension
 13
-70.0
 23
12.5
 14
-113.0
 24
5.79999999999947
100
AcDbRotatedDimension
  0
DIMENSION
  5
125
100
AcDbEntity
  8
1
100
AcDbDimension
  2
*D0
 10
-35.0
 20
19.5
 11
-17.5
 21
21.75
 31
0.0
 53
0.00013888888889
  1
<>
  3
ME10_DIM_0
100
AcDbAlignedDimension
 13
0.0
 23
14.5
 14
-35.0
 24
12.5
100
AcDbRotatedDimension
  0
MTEXT
  5
111
100
AcDbEntity
  8
1
 62
             2
100
AcDbMText
 10
26.54607143268843
 20
108.24667442953699
 30
0.0
 40
2.5
 41
0.0
 71
             6
 72
             1
  1
M4ƒlƒW%%dpŽÌ‚%%c•t‚£ŒŠ
  7
CONVERTER_1
  0
LEADER
  5
10F
100
AcDbEntity
  8
1
  6
CONTINUOUS
 62
             2
100
AcDbLeader
  3
Standard
 71
             0
 73
             3
 74
             0
 75
             0
 40
0.0
 76
             2
 10
-1.23171747760952
 20
84.32178001775526
 30
0.0
 10
27.60722897275537
 20
105.9966151613111
 30
0.0
 77
             2
  0
LEADER
  5
10C
100
AcDbEntity
  8
1
  6
CONTINUOUS
 62
             2
100
AcDbLeader
  3
Standard
 71
             0
 73
             3
 74
             0
 75
             0
 40
0.0
 76
             3
 10
11.09999999999855
 20
77.40525588832324
 30
0.0
 10
27.60722897275537
 20
105.9966151613111
 30
0.0
 10
0.0
 20
105.9981570008091
 30
0.0
 77
             2
  0
LWPOLYLINE
  5
109
100
AcDbEntity
  8
0
  6
CONTINUOUS
 62
             7
100
AcDbPolyline
 90
       12
 70
             1
 10
19.0
 20
63.0
 10
19.0
 20
88.0
 10
19.0
 20
88.0
 10
-33.0
 20
88.0
 10
-33.0
 20
88.0
 10
-33.0
 20
63.0
 10
-33.0
 20
63.0
 10
19.0
 20
63.0
 10
19.0
 20
63.0
 10
19.0
 20
63.0
 10
19.0
 20
63.0
 10
19.0
 20
63.0
  0
LWPOLYLINE
  5
107
100
AcDbEntity
  8
0
  6
CONTINUOUS
 62
             7
100
AcDbPolyline
 90
        9
 70
             0
 10
-31.0
 20
42.0
 10
12.0
 20
42.0
 10
12.0
 20
42.0
 10
12.0
 20
40.0
 10
12.0
 20
40.0
 10
-31.0
 20
40.0
 10
-31.0
 20
40.0
 10
-31.0
 20
40.0
 10
-31.0
 20
40.0
  0
LWPOLYLINE
  5
105
100
AcDbEntity
  8
0
  6
CONTINUOUS
 62
             7
100
AcDbPolyline
 90
        6
 70
             0
 10
-35.0
 20
92.00011169824393
 10
-33.0
 20
92.0
 10
-33.0
 20
92.0
 10
-33.0
 20
44.0
 10
-33.0
 20
44.0
 10
-33.0
 20
44.0
  0
LWPOLYLINE
  5
103
100
AcDbEntity
  8
0
  6
CONTINUOUS
 62
             7
100
AcDbPolyline
 90
        6
 70
             0
 10
-34.99988830175425
 20
64.25
 10
-34.99988830175425
 20
71.75
 10
-34.99988830175425
 20
71.75
 10
-35.49988830175425
 20
71.75
 10
-35.49988830175425
 20
71.75
 10
-35.49988830175425
 20
71.75
  0
LWPOLYLINE
  5
101
100
AcDbEntity
  8
0
  6
CONTINUOUS
 62
             7
100
AcDbPolyline
 90
        6
 70
             0
 10
-27.5
 20
64.60000000000036
 10
-27.5
 20
71.39999999999964
 10
-27.5
 20
71.39999999999964
 10
-27.09999999999855
 20
71.39999999999964
 10
-27.09999999999855
 20
71.39999999999964
 10
-27.09999999999855
 20
71.39999999999964
  0
LWPOLYLINE
  5
FF
100
AcDbEntity
  8
0
  6
CONTINUOUS
 62
             7
100
AcDbPolyline
 90
        6
 70
             0
 10
-34.99988830175425
 20
79.25
 10
-34.99988830175425
 20
86.75
 10
-34.99988830175425
 20
86.75
 10
-35.49988830175425
 20
86.75
 10
-35.49988830175425
 20
86.75
 10
-35.49988830175425
 20
86.75
  0
LWPOLYLINE
  5
FD
100
AcDbEntity
  8
0
  6
CONTINUOUS
 62
             7
100
AcDbPolyline
 90
        6
 70
             0
 10
-27.5
 20
79.60000000000036
 10
-27.5
 20
86.39999999999964
 10
-27.5
 20
86.39999999999964
 10
-27.09999999999855
 20
86.39999999999964
 10
-27.09999999999855
 20
86.39999999999964
 10
-27.09999999999855
 20
86.39999999999964
  0
LWPOLYLINE
  5
FB
100
AcDbEntity
  8
0
  6
CONTINUOUS
 62
             7
100
AcDbPolyline
 90
        3
 70
             0
 10
-99.44337567297407
 20
0.0
 10
-98.72168783648885
 20
1.25
 10
-98.72168783648885
 20
1.25
  0
LWPOLYLINE
  5
F9
100
AcDbEntity
  8
0
  6
CONTINUOUS
 62
             7
100
AcDbPolyline
 90
        3
 70
             0
 10
-96.55662432702593
 20
0.0
 10
-97.27831216351478
 20
-1.25
 10
-97.27831216351478
 20
-1.25
  0
LWPOLYLINE
  5
F7
100
AcDbEntity
  8
0
  6
CONTINUOUS
 62
             7
100
AcDbPolyline
 90
        3
 70
             0
 10
-97.27831216351478
 20
1.25
 10
-96.55664932702712
 20
0.00004330127013
 10
-96.55664932702712
 20
0.00004330127013
  0
LWPOLYLINE
  5
F5
100
AcDbEntity
  8
0
  6
CONTINUOUS
 62
             7
100
AcDbPolyline
 90
        3
 70
             0
 10
-98.72168783648885
 20
-1.25
 10
-99.44337567297407
 20
0.0
 10
-99.44337567297407
 20
0.0
  0
LWPOLYLINE
  5
F3
100
AcDbEntity
  8
0
  6
CONTINUOUS
 62
             7
100
AcDbPolyline
 90
        3
 70
             0
 10
-98.72163783649012
 20
1.25
 10
-97.27831216351478
 20
1.25
 10
-97.27831216351478
 20
1.25
  0
LWPOLYLINE
  5
F1
100
AcDbEntity
  8
0
  6
CONTINUOUS
 62
             7
100
AcDbPolyline
 90
        3
 70
             0
 10
-114.4433756729741
 20
0.0
 10
-113.7216878364889
 20
1.25
 10
-113.7216878364889
 20
1.25
  0
LWPOLYLINE
  5
EF
100
AcDbEntity
  8
0
  6
CONTINUOUS
 62
             7
100
AcDbPolyline
 90
        3
 70
             0
 10
-111.5566243270259
 20
0.0
 10
-112.2783121635148
 20
-1.25
 10
-112.2783121635148
 20
-1.25
  0
LWPOLYLINE
  5
ED
100
AcDbEntity
  8
0
  6
CONTINUOUS
 62
             7
100
AcDbPolyline
 90
        3
 70
             0
 10
-112.2783121635148
 20
1.25
 10
-111.5566493270271
 20
0.00004330127013
 10
-111.5566493270271
 20
0.00004330127013
  0
LWPOLYLINE
  5
EB
100
AcDbEntity
  8
0
  6
CONTINUOUS
 62
             7
100
AcDbPolyline
 90
        3
 70
             1
 10
-111.5566243270259
 20
0.0
 10
-111.5566243270259
 20
0.0
 10
-111.5566243270259
 20
0.0
  0
LWPOLYLINE
  5
E9
100
AcDbEntity
  8
0
  6
CONTINUOUS
 62
             7
100
AcDbPolyline
 90
        3
 70
             0
 10
-113.7216878364889
 20
-1.25
 10
-114.4433756729741
 20
0.0
 10
-114.4433756729741
 20
0.0
  0
LWPOLYLINE
  5
E7
100
AcDbEntity
  8
0
  6
CONTINUOUS
 62
             7
100
AcDbPolyline
 90
        3
 70
             0
 10
-113.7216378364901
 20
1.25
 10
-112.2783121635148
 20
1.25
 10
-112.2783121635148
 20
1.25
  0
LWPOLYLINE
  5
E5
100
AcDbEntity
  8
0
  6
CONTINUOUS
 62
             7
100
AcDbPolyline
 90
       12
 70
             1
 10
-122.0
 20
12.5
 10
-122.0
 20
-12.5
 10
-122.0
 20
-12.5
 10
-70.0
 20
-12.5
 10
-70.0
 20
-12.5
 10
-70.0
 20
12.5
 10
-70.0
 20
12.5
 10
-122.0
 20
12.5
 10
-122.0
 20
12.5
 10
-122.0
 20
12.5
 10
-122.0
 20
12.5
 10
-122.0
 20
12.5
  0
LWPOLYLINE
  5
E3
100
AcDbEntity
  8
0
  6
DOTTED
 62
             7
100
AcDbPolyline
 90
        6
 70
             0
 10
-27.5
 20
3.39999999999964
 10
-27.5
 20
-3.39999999999964
 10
-27.5
 20
-3.39999999999964
 10
-27.09999999999855
 20
-3.39999999999964
 10
-27.09999999999855
 20
-3.39999999999964
 10
-27.09999999999855
 20
-3.39999999999964
  0
LWPOLYLINE
  5
E1
100
AcDbEntity
  8
0
  6
CONTINUOUS
 62
             7
100
AcDbPolyline
 90
        6
 70
             0
 10
-34.99988830175789
 20
3.75
 10
-34.99988830175789
 20
-3.75
 10
-34.99988830175789
 20
-3.75
 10
-35.49988830175789
 20
-3.75
 10
-35.49988830175789
 20
-3.75
 10
-35.49988830175789
 20
-3.75
  0
LWPOLYLINE
  5
DF
100
AcDbEntity
  8
0
  6
CONTINUOUS
 62
             7
100
AcDbPolyline
 90
       18
 70
             1
 10
-35.0
 20
-12.5
 10
9.0
 20
-12.5
 10
9.0
 20
-12.5
 10
12.0
 20
-9.5
 10
12.0
 20
-9.5
 10
12.0
 20
9.5
 10
12.0
 20
9.5
 10
9.0
 20
12.5
 10
9.0
 20
12.5
 10
-35.0
 20
12.5
 10
-35.0
 20
12.5
 10
-35.0
 20
-12.5
 10
-35.0
 20
-12.5
 10
-35.0
 20
-12.5
 10
-35.0
 20
-12.5
 10
-35.0
 20
-12.5
 10
-35.0
 20
-12.5
 10
-35.0
 20
-12.5
  0
LWPOLYLINE
  5
DD
100
AcDbEntity
  8
0
  6
CONTINUOUS
 62
             7
100
AcDbPolyline
 90
        6
 70
             0
 10
19.00011169824211
 20
-33.0
 10
19.0
 20
-31.0
 10
19.0
 20
-31.0
 10
-29.0
 20
-31.0
 10
-29.0
 20
-31.0
 10
-29.0
 20
-31.0
  0
XLINE
  5
DB
100
AcDbEntity
  8
1
  6
DOTTED
 62
             1
100
AcDbXline
 10
-66.0
 20
-43.0
 30
0.0
 11
1.0
 21
0.0
 31
0.0
  0
XLINE
  5
DA
100
AcDbEntity
  8
1
  6
DOTTED
 62
             1
100
AcDbXline
 10
-67.0
 20
110.0
 30
0.0
 11
1.0
 21
0.0
 31
0.0
  0
XLINE
  5
D9
100
AcDbEntity
  8
1
  6
DOTTED
 62
             1
100
AcDbXline
 10
-133.0
 20
-26.0
 30
0.0
 11
0.0
 21
1.0
 31
0.0
  0
XLINE
  5
D8
100
AcDbEntity
  8
1
  6
DOTTED
 62
             1
100
AcDbXline
 10
29.0
 20
-13.0
 30
0.0
 11
0.0
 21
1.0
 31
0.0
  0
CIRCLE
  5
D7
100
AcDbEntity
  8
0
  6
CONTINUOUS
 62
             7
100
AcDbCircle
 10
10.0
 20
75.5
 40
2.19999999999709
  0
CIRCLE
  5
D6
100
AcDbEntity
  8
0
  6
CONTINUOUS
 62
             7
100
AcDbCircle
 10
-98.0
 20
0.0
 40
3.75
  0
CIRCLE
  5
D5
100
AcDbEntity
  8
0
  6
CONTINUOUS
 62
             7
100
AcDbCircle
 10
-113.0
 20
0.0
 40
3.75
  0
CIRCLE
  5
D4
100
AcDbEntity
  8
0
  6
CONTINUOUS
 62
             7
100
AcDbCircle
 10
0.0
 20
0.0
 40
8.0
  0
ARC
  5
D3
100
AcDbEntity
  8
1
  6
DOT_CENTER
 62
             7
100
AcDbCircle
 10
10.0
 20
75.5
 40
14.99999999999847
100
AcDbArc
 50
133.90430750538428
 51
-133.90430750537215
  0
ARC
  5
D2
100
AcDbEntity
  8
1
  6
DOT_CENTER
 62
             7
100
AcDbCircle
 10
-113.0
 20
0.0
 40
14.99999999999999
100
AcDbArc
 50
-46.09569249461496
 51
46.09569249462712
  0
ARC
  5
D1
100
AcDbEntity
  8
0
  6
CONTINUOUS
 62
             7
100
AcDbCircle
 10
-31.0
 20
44.0
 40
4.0
100
AcDbArc
 50
180.0
 51
-90.0
  0
ARC
  5
D0
100
AcDbEntity
  8
0
  6
CONTINUOUS
 62
             7
100
AcDbCircle
 10
-31.0
 20
44.0
 40
2.0
100
AcDbArc
 50
180.0
 51
-90.0
  0
ARC
  5
CF
100
AcDbEntity
  8
0
  6
CONTINUOUS
 62
             7
100
AcDbCircle
 10
-35.49988830175425
 20
66.25
 40
2.0
100
AcDbArc
 50
180.0
 51
-90.0
  0
ARC
  5
CE
100
AcDbEntity
  8
0
  6
CONTINUOUS
 62
             7
100
AcDbCircle
 10
-35.49988830175425
 20
69.75
 40
2.0
100
AcDbArc
 50
90.0
 51
180.0
  0
ARC
  5
CD
100
AcDbEntity
  8
0
  6
CONTINUOUS
 62
             7
100
AcDbCircle
 10
-27.09999999999855
 20
65.60000000000036
 40
1.0
100
AcDbArc
 50
-90.0
 51
0.0
  0
ARC
  5
CC
100
AcDbEntity
  8
0
  6
CONTINUOUS
 62
             7
100
AcDbCircle
 10
-27.09999999999855
 20
70.39999999999964
 40
1.0
100
AcDbArc
 50
0.0
 51
90.0
  0
ARC
  5
CB
100
AcDbEntity
  8
0
  6
CONTINUOUS
 62
             7
100
AcDbCircle
 10
-35.49988830175425
 20
81.25
 40
2.0
100
AcDbArc
 50
180.0
 51
-90.0
  0
ARC
  5
CA
100
AcDbEntity
  8
0
  6
CONTINUOUS
 62
             7
100
AcDbCircle
 10
-35.49988830175425
 20
84.75
 40
2.0
100
AcDbArc
 50
90.0
 51
180.0
  0
ARC
  5
C9
100
AcDbEntity
  8
0
  6
CONTINUOUS
 62
             7
100
AcDbCircle
 10
-27.09999999999855
 20
80.60000000000036
 40
1.0
100
AcDbArc
 50
-90.0
 51
0.0
  0
ARC
  5
C8
100
AcDbEntity
  8
0
  6
CONTINUOUS
 62
             7
100
AcDbCircle
 10
-27.09999999999855
 20
85.39999999999964
 40
1.0
100
AcDbArc
 50
0.0
 51
90.0
  0
ARC
  5
C7
100
AcDbEntity
  8
0
  6
CONTINUOUS
 62
             7
100
AcDbCircle
 10
-2.99038105676664
 20
68.0
 40
2.19999999999792
100
AcDbArc
 50
-149.99999999995779
 51
29.99999999999483
  0
ARC
  5
C6
100
AcDbEntity
  8
0
  6
CONTINUOUS
 62
             7
100
AcDbCircle
 10
-2.99038105676664
 20
83.0
 40
2.20000000000107
100
AcDbArc
 50
-29.99999999999483
 51
149.99999999995779
  0
ARC
  5
C5
100
AcDbEntity
  8
0
  6
CONTINUOUS
 62
             7
100
AcDbCircle
 10
10.0
 20
75.5
 40
12.79999999999898
100
AcDbArc
 50
149.99999999999923
 51
-149.99999999999923
  0
ARC
  5
C4
100
AcDbEntity
  8
0
  6
CONTINUOUS
 62
             7
100
AcDbCircle
 10
10.0
 20
75.5
 40
17.19999999999797
100
AcDbArc
 50
149.99999999999469
 51
-149.99999999999469
  0
ARC
  5
C3
100
AcDbEntity
  8
0
  6
CONTINUOUS
 62
             7
100
AcDbCircle
 10
-100.00961894323341
 20
7.5
 40
2.19999999999796
100
AcDbArc
 50
30.00000000004165
 51
42.98588608020479
  0
ARC
  5
C2
100
AcDbEntity
  8
0
  6
CONTINUOUS
 62
             7
100
AcDbCircle
 10
-100.00961894323341
 20
7.5
 40
2.20000000000204
100
AcDbArc
 50
137.01411391985906
 51
-150.00000000000517
  0
ARC
  5
C1
100
AcDbEntity
  8
0
  6
CONTINUOUS
 62
             7
100
AcDbCircle
 10
-100.00961894323341
 20
7.5
 40
2.19999999999941
100
AcDbArc
 50
42.98588608020479
 51
137.01411391985906
  0
ARC
  5
C0
100
AcDbEntity
  8
0
  6
CONTINUOUS
 62
             7
100
AcDbCircle
 10
-113.0
 20
0.0
 40
17.19999999999797
100
AcDbArc
 50
-30.0000000000053
 51
-10.84890956779927
  0
ARC
  5
BF
100
AcDbEntity
  8
0
  6
CONTINUOUS
 62
             7
100
AcDbCircle
 10
-113.0
 20
0.0
 40
17.19999999999742
100
AcDbArc
 50
10.84890956779927
 51
30.0000000000053
  0
ARC
  5
BE
100
AcDbEntity
  8
0
  6
CONTINUOUS
 62
             7
100
AcDbCircle
 10
-113.0
 20
0.0
 40
12.79999999999894
100
AcDbArc
 50
-30.00000000000086
 51
-12.5825714235753
  0
ARC
  5
BD
100
AcDbEntity
  8
0
  6
CONTINUOUS
 62
             7
100
AcDbCircle
 10
-113.0
 20
0.0
 40
12.79999999999945
100
AcDbArc
 50
12.5825714235753
 51
30.00000000000086
  0
ARC
  5
BC
100
AcDbEntity
  8
0
  6
CONTINUOUS
 62
             7
100
AcDbCircle
 10
-100.00961894323341
 20
-7.5
 40
2.20000000000107
100
AcDbArc
 50
150.00000000000517
 51
-30.00000000004165
  0
ARC
  5
BB
100
AcDbEntity
  8
0
  6
DOTTED
 62
             7
100
AcDbCircle
 10
-27.09999999999855
 20
-2.39999999999964
 40
1.0
100
AcDbArc
 50
-90.0
 51
0.0
  0
ARC
  5
BA
100
AcDbEntity
  8
0
  6
DOTTED
 62
             7
100
AcDbCircle
 10
-27.09999999999855
 20
2.39999999999964
 40
1.0
100
AcDbArc
 50
0.0
 51
90.0
  0
ARC
  5
B9
100
AcDbEntity
  8
0
  6
CONTINUOUS
 62
             7
100
AcDbCircle
 10
-35.49988830175789
 20
-1.75
 40
2.0
100
AcDbArc
 50
180.0
 51
-90.0
  0
ARC
  5
B8
100
AcDbEntity
  8
0
  6
CONTINUOUS
 62
             7
100
AcDbCircle
 10
-35.49988830175789
 20
1.75
 40
2.0
100
AcDbArc
 50
90.0
 51
180.0
  0
ARC
  5
B7
100
AcDbEntity
  8
0
  6
CONTINUOUS
 62
             7
100
AcDbCircle
 10
-29.0
 20
-29.0
 40
2.0
100
AcDbArc
 50
180.0
 51
-90.0
  0
ARC
  5
B6
100
AcDbEntity
  8
0
  6
CONTINUOUS
 62
             7
100
AcDbCircle
 10
-29.0
 20
-29.0
 40
4.0
100
AcDbArc
 50
180.0
 51
-90.0
  0
LINE
  5
B5
100
AcDbEntity
  8
1
  6
CONTINUOUS
 62
             7
100
AcDbLine
 10
-4.99999999999847
 20
77.5
 11
-4.99999999999847
 21
78.0
  0
LINE
  5
B4
100
AcDbEntity
  8
1
  6
DOT_CENTER
 62
             7
100
AcDbLine
 10
0.0
 20
38.0
 11
0.0
 21
44.0
  0
LINE
  5
B3
100
AcDbEntity
  8
1
  6
DOT_CENTER
 62
             7
100
AcDbLine
 10
10.0
 20
-35.0
 11
10.0
 21
-29.0
  0
LINE
  5
B2
100
AcDbEntity
  8
1
  6
DOT_CENTER
 62
             7
100
AcDbLine
 10
-4.99999999999847
 20
-35.0
 11
-4.99999999999847
 21
-29.0
  0
LINE
  5
B1
100
AcDbEntity
  8
1
  6
DOT_CENTER
 62
             7
100
AcDbLine
 10
10.0
 20
71.30000000000291
 11
10.0
 21
79.69999999999709
  0
LINE
  5
B0
100
AcDbEntity
  8
1
  6
DOT_CENTER
 62
             7
100
AcDbLine
 10
-39.49988830175789
 20
75.5
 11
21.0
 21
75.5
  0
LINE
  5
AF
100
AcDbEntity
  8
1
  6
DOT_CENTER
 62
             7
100
AcDbLine
 10
-6.62768775266207
 20
65.89999999999922
 11
10.0
 21
75.5
  0
LINE
  5
AE
100
AcDbEntity
  8
1
  6
DOT_CENTER
 62
             7
100
AcDbLine
 10
10.0
 20
75.5
 11
-6.62768775265857
 21
85.10000000000053
  0
LINE
  5
AD
100
AcDbEntity
  8
1
  6
DOT_CENTER
 62
             7
100
AcDbLine
 10
-113.0
 20
0.0
 11
-96.37231224734067
 21
-9.59999999999922
  0
LINE
  5
AC
100
AcDbEntity
  8
1
  6
DOT_CENTER
 62
             7
100
AcDbLine
 10
-113.0
 20
0.0
 11
-96.37231224733793
 21
9.60000000000078
  0
LINE
  5
AB
100
AcDbEntity
  8
1
  6
DOT_CENTER
 62
             7
100
AcDbLine
 10
-113.0
 20
-5.79999999999947
 11
-113.0
 21
5.79999999999947
  0
LINE
  5
AA
100
AcDbEntity
  8
1
  6
DOT_CENTER
 62
             7
100
AcDbLine
 10
-124.0
 20
0.0
 11
-68.0
 21
0.0
  0
LINE
  5
A9
100
AcDbEntity
  8
1
  6
DOT_CENTER
 62
             7
100
AcDbLine
 10
0.0
 20
-14.5
 11
0.0
 21
14.5
  0
LINE
  5
A8
100
AcDbEntity
  8
1
  6
DOT_CENTER
 62
             7
100
AcDbLine
 10
-39.49988830175789
 20
0.0
 11
14.0
 21
0.0
  0
LINE
  5
A7
100
AcDbEntity
  8
0
  6
CONTINUOUS
 62
             7
100
AcDbLine
 10
-31.0
 20
88.0
 11
-31.0
 21
63.0
  0
LINE
  5
A6
100
AcDbEntity
  8
0
  6
CONTINUOUS
 62
             7
100
AcDbLine
 10
-35.0
 20
44.0
 11
-35.0
 21
92.00011169824393
  0
LINE
  5
A5
100
AcDbEntity
  8
0
  6
CONTINUOUS
 62
             7
100
AcDbLine
 10
9.0
 20
40.00011169824393
 11
9.0
 21
42.00011169824393
  0
LINE
  5
A4
100
AcDbEntity
  8
0
  6
CONTINUOUS
 62
             7
100
AcDbLine
 10
-35.49988830175425
 20
64.25
 11
-34.99988830175425
 21
64.25
  0
LINE
  5
A3
100
AcDbEntity
  8
0
  6
CONTINUOUS
 62
             7
100
AcDbLine
 10
-37.49988830175425
 20
69.75
 11
-37.49988830175425
 21
66.25
  0
LINE
  5
A2
100
AcDbEntity
  8
0
  6
CONTINUOUS
 62
             7
100
AcDbLine
 10
-27.5
 20
71.92598183048904
 11
-27.5
 21
64.07401816950915
  0
LINE
  5
A1
100
AcDbEntity
  8
0
  6
CONTINUOUS
 62
             7
100
AcDbLine
 10
-31.0
 20
71.92598183048904
 11
-27.5
 21
71.92598183048904
  0
LINE
  5
A0
100
AcDbEntity
  8
0
  6
CONTINUOUS
 62
             7
100
AcDbLine
 10
-31.0
 20
69.96299091524452
 11
-27.5
 21
69.96299091524452
  0
LINE
  5
9F
100
AcDbEntity
  8
0
  6
CONTINUOUS
 62
             7
100
AcDbLine
 10
-31.0
 20
66.03700908475548
 11
-27.5
 21
66.03700908475548
  0
LINE
  5
9E
100
AcDbEntity
  8
0
  6
CONTINUOUS
 62
             7
100
AcDbLine
 10
-31.0
 20
64.07401816950915
 11
-27.5
 21
64.07401816950915
  0
LINE
  5
9D
100
AcDbEntity
  8
0
  6
CONTINUOUS
 62
             7
100
AcDbLine
 10
-27.09999999999855
 20
64.60000000000036
 11
-27.5
 21
64.60000000000036
  0
LINE
  5
9C
100
AcDbEntity
  8
0
  6
CONTINUOUS
 62
             7
100
AcDbLine
 10
-26.09999999999855
 20
70.39999999999964
 11
-26.09999999999855
 21
65.60000000000036
  0
LINE
  5
9B
100
AcDbEntity
  8
0
  6
CONTINUOUS
 62
             7
100
AcDbLine
 10
-25.5
 20
70.0
 11
-25.5
 21
66.0
  0
LINE
  5
9A
100
AcDbEntity
  8
0
  6
CONTINUOUS
 62
             7
100
AcDbLine
 10
-24.99988830175425
 20
66.5
 11
-25.5
 21
66.0
  0
LINE
  5
99
100
AcDbEntity
  8
0
  6
CONTINUOUS
 62
             7
100
AcDbLine
 10
-24.99988830175425
 20
69.5
 11
-25.49988830175425
 21
70.0
  0
LINE
  5
98
100
AcDbEntity
  8
0
  6
CONTINUOUS
 62
             7
100
AcDbLine
 10
-24.99988830175425
 20
69.5
 11
-24.99988830175425
 21
66.5
  0
LINE
  5
97
100
AcDbEntity
  8
0
  6
CONTINUOUS
 62
             7
100
AcDbLine
 10
-26.09988830175644
 20
69.5
 11
-24.99988830175425
 21
69.5
  0
LINE
  5
96
100
AcDbEntity
  8
0
  6
CONTINUOUS
 62
             7
100
AcDbLine
 10
-26.09988830175644
 20
66.5
 11
-24.99988830175425
 21
66.5
  0
LINE
  5
95
100
AcDbEntity
  8
0
  6
CONTINUOUS
 62
             7
100
AcDbLine
 10
-35.49988830175425
 20
79.25
 11
-34.99988830175425
 21
79.25
  0
LINE
  5
94
100
AcDbEntity
  8
0
  6
CONTINUOUS
 62
             7
100
AcDbLine
 10
-37.49988830175425
 20
84.75
 11
-37.49988830175425
 21
81.25
  0
LINE
  5
93
100
AcDbEntity
  8
0
  6
CONTINUOUS
 62
             7
100
AcDbLine
 10
-27.5
 20
86.92598183048904
 11
-27.5
 21
79.07401816950915
  0
LINE
  5
92
100
AcDbEntity
  8
0
  6
CONTINUOUS
 62
             7
100
AcDbLine
 10
-31.0
 20
86.92598183048904
 11
-27.5
 21
86.92598183048904
  0
LINE
  5
91
100
AcDbEntity
  8
0
  6
CONTINUOUS
 62
             7
100
AcDbLine
 10
-31.0
 20
84.96299091524452
 11
-27.5
 21
84.96299091524452
  0
LINE
  5
90
100
AcDbEntity
  8
0
  6
CONTINUOUS
 62
             7
100
AcDbLine
 10
-31.0
 20
81.03700908475548
 11
-27.5
 21
81.03700908475548
  0
LINE
  5
8F
100
AcDbEntity
  8
0
  6
CONTINUOUS
 62
             7
100
AcDbLine
 10
-31.0
 20
79.07401816950915
 11
-27.5
 21
79.07401816950915
  0
LINE
  5
8E
100
AcDbEntity
  8
0
  6
CONTINUOUS
 62
             7
100
AcDbLine
 10
-27.09999999999855
 20
79.60000000000036
 11
-27.5
 21
79.60000000000036
  0
LINE
  5
8D
100
AcDbEntity
  8
0
  6
CONTINUOUS
 62
             7
100
AcDbLine
 10
-26.09999999999855
 20
85.39999999999964
 11
-26.09999999999855
 21
80.60000000000036
  0
LINE
  5
8C
100
AcDbEntity
  8
0
  6
CONTINUOUS
 62
             7
100
AcDbLine
 10
-25.5
 20
85.0
 11
-25.5
 21
81.0
  0
LINE
  5
8B
100
AcDbEntity
  8
0
  6
CONTINUOUS
 62
             7
100
AcDbLine
 10
-24.99988830175425
 20
81.5
 11
-25.5
 21
81.0
  0
LINE
  5
8A
100
AcDbEntity
  8
0
  6
CONTINUOUS
 62
             7
100
AcDbLine
 10
-24.99988830175425
 20
84.5
 11
-25.49988830175425
 21
85.0
  0
LINE
  5
89
100
AcDbEntity
  8
0
  6
CONTINUOUS
 62
             7
100
AcDbLine
 10
-24.99988830175425
 20
84.5
 11
-24.99988830175425
 21
81.5
  0
LINE
  5
88
100
AcDbEntity
  8
0
  6
CONTINUOUS
 62
             7
100
AcDbLine
 10
-26.09988830175644
 20
84.5
 11
-24.99988830175425
 21
84.5
  0
LINE
  5
87
100
AcDbEntity
  8
0
  6
CONTINUOUS
 62
             7
100
AcDbLine
 10
-26.09988830175644
 20
81.5
 11
-24.99988830175425
 21
81.5
  0
LINE
  5
86
100
AcDbEntity
  8
0
  6
CONTINUOUS
 62
             7
100
AcDbLine
 10
-26.09999999999855
 20
66.0
 11
-25.5
 21
66.0
  0
LINE
  5
85
100
AcDbEntity
  8
0
  6
CONTINUOUS
 62
             7
100
AcDbLine
 10
-26.09999999999855
 20
70.0
 11
-25.49988830175425
 21
70.0
  0
LINE
  5
84
100
AcDbEntity
  8
0
  6
CONTINUOUS
 62
             7
100
AcDbLine
 10
-26.09999999999855
 20
81.0
 11
-25.5
 21
81.0
  0
LINE
  5
83
100
AcDbEntity
  8
0
  6
CONTINUOUS
 62
             7
100
AcDbLine
 10
-26.09999999999855
 20
85.0
 11
-25.49988830175425
 21
85.0
  0
LINE
  5
71
100
AcDbEntity
  8
1
  6
DOTTED
 62
             7
100
AcDbLine
 10
-93.0
 20
6.0
 11
-93.0
 21
-12.5
  0
LINE
  5
70
100
AcDbEntity
  8
1
  6
DOTTED
 62
             7
100
AcDbLine
 10
-96.0
 20
9.0
 11
-93.0
 21
6.0
  0
LINE
  5
6F
100
AcDbEntity
  8
1
  6
DOTTED
 62
             7
100
AcDbLine
 10
-98.40027124929111
 20
9.0
 11
-96.0
 21
9.0
  0
LINE
  5
6E
100
AcDbEntity
  8
1
  6
DOTTED
 62
             7
100
AcDbLine
 10
-115.0
 20
9.0
 11
-101.6189666371793
 21
9.0
  0
LINE
  5
6D
100
AcDbEntity
  8
1
  6
DOTTED
 62
             7
100
AcDbLine
 10
-118.0
 20
6.0
 11
-115.0
 21
9.0
  0
LINE
  5
6C
100
AcDbEntity
  8
1
  6
DOTTED
 62
             7
100
AcDbLine
 10
-118.0
 20
-12.5
 11
-118.0
 21
6.0
  0
LINE
  5
6B
100
AcDbEntity
  8
1
  6
DOTTED
 62
             7
100
AcDbLine
 10
-72.0
 20
-12.5
 11
-72.0
 21
12.5
  0
LINE
  5
6A
100
AcDbEntity
  8
1
  6
DOTTED
 62
             7
100
AcDbLine
 10
-118.0
 20
-31.0
 11
-93.0
 21
-31.0
  0
LINE
  5
5A
100
AcDbEntity
  8
0
  6
CONTINUOUS
 62
             7
100
AcDbLine
 10
-98.72168783648885
 20
-1.25
 11
-97.27831216351478
 21
-1.25
  0
LINE
  5
59
100
AcDbEntity
  8
0
  6
CONTINUOUS
 62
             7
100
AcDbLine
 10
-113.7216878364889
 20
-1.25
 11
-112.2783121635148
 21
-1.25
  0
LINE
  5
58
100
AcDbEntity
  8
0
  6
CONTINUOUS
 62
             7
100
AcDbLine
 10
-93.0
 20
-33.0
 11
-93.0
 21
-12.5
  0
LINE
  5
57
100
AcDbEntity
  8
0
  6
CONTINUOUS
 62
             7
100
AcDbLine
 10
-118.0
 20
-12.5
 11
-118.0
 21
-33.0
  0
LINE
  5
56
100
AcDbEntity
  8
0
  6
CONTINUOUS
 62
             7
100
AcDbLine
 10
-101.6189666371793
 20
9.0
 11
-98.40027124929111
 21
9.0
  0
LINE
  5
55
100
AcDbEntity
  8
0
  6
CONTINUOUS
 62
             7
100
AcDbLine
 10
-118.0
 20
-33.0
 11
-93.0
 21
-33.0
  0
LINE
  5
54
100
AcDbEntity
  8
0
  6
DOTTED
 62
             7
100
AcDbLine
 10
-24.99988830175789
 20
1.5
 11
-25.5
 21
2.0
  0
LINE
  5
53
100
AcDbEntity
  8
0
  6
DOTTED
 62
             7
100
AcDbLine
 10
-26.09999999999855
 20
2.0
 11
-25.5
 21
2.0
  0
LINE
  5
52
100
AcDbEntity
  8
1
  6
DOTTED
 62
             7
100
AcDbLine
 10
-31.0
 20
-12.5
 11
-30.99988830175789
 21
9.0
  0
LINE
  5
51
100
AcDbEntity
  8
1
  6
CONTINUOUS
 62
             7
100
AcDbLine
 10
-31.0
 20
-29.0
 11
-31.0
 21
-12.5
  0
LINE
  5
50
100
AcDbEntity
  8
1
  6
CONTINUOUS
 62
             7
100
AcDbLine
 10
-33.0
 20
-29.0
 11
-33.0
 21
-12.5
  0
LINE
  5
43
100
AcDbEntity
  8
0
  6
DOTTED
 62
             7
100
AcDbLine
 10
-26.09999999999855
 20
-2.0
 11
-25.5
 21
-2.0
  0
LINE
  5
42
100
AcDbEntity
  8
0
  6
DOTTED
 62
             7
100
AcDbLine
 10
-24.99988830175789
 20
-1.5
 11
-24.99988830175789
 21
1.5
  0
LINE
  5
41
100
AcDbEntity
  8
0
  6
DOTTED
 62
             7
100
AcDbLine
 10
-24.99988830175789
 20
-1.5
 11
-25.49988830175789
 21
-2.0
  0
LINE
  5
40
100
AcDbEntity
  8
0
  6
DOTTED
 62
             7
100
AcDbLine
 10
-26.09999999999855
 20
-2.39999999999964
 11
-26.09999999999855
 21
2.39999999999964
  0
LINE
  5
3F
100
AcDbEntity
  8
0
  6
DOTTED
 62
             7
100
AcDbLine
 10
-27.09999999999855
 20
3.39999999999964
 11
-27.5
 21
3.39999999999964
  0
LINE
  5
3E
100
AcDbEntity
  8
0
  6
DOTTED
 62
             7
100
AcDbLine
 10
-31.0
 20
3.92598183048904
 11
-27.5
 21
3.92598183048904
  0
LINE
  5
3D
100
AcDbEntity
  8
0
  6
DOTTED
 62
             7
100
AcDbLine
 10
-31.0
 20
1.96299091524452
 11
-27.5
 21
1.96299091524452
  0
LINE
  5
3C
100
AcDbEntity
  8
0
  6
DOTTED
 62
             7
100
AcDbLine
 10
-31.0
 20
-1.96299091524452
 11
-27.5
 21
-1.96299091524452
  0
LINE
  5
3B
100
AcDbEntity
  8
0
  6
DOTTED
 62
             7
100
AcDbLine
 10
-31.0
 20
-3.92598183048904
 11
-27.5
 21
-3.92598183048904
  0
LINE
  5
3A
100
AcDbEntity
  8
0
  6
DOTTED
 62
             7
100
AcDbLine
 10
-27.5
 20
-3.92598183048904
 11
-27.5
 21
3.92598183048904
  0
LINE
  5
39
100
AcDbEntity
  8
0
  6
CONTINUOUS
 62
             7
100
AcDbLine
 10
-37.49988830175789
 20
-1.75
 11
-37.49988830175789
 21
1.75
  0
LINE
  5
38
100
AcDbEntity
  8
0
  6
CONTINUOUS
 62
             7
100
AcDbLine
 10
-35.49988830175789
 20
3.75
 11
-34.99988830175789
 21
3.75
  0
LINE
  5
37
100
AcDbEntity
  8
0
  6
DOTTED
 62
             7
100
AcDbLine
 10
-33.0
 20
12.5
 11
-33.0
 21
-12.5
  0
LINE
  5
36
100
AcDbEntity
  8
0
  6
DOTTED
 62
             7
100
AcDbLine
 10
-32.99988830175789
 20
9.0
 11
-30.99988830175789
 21
9.0
  0
LINE
  5
35
100
AcDbEntity
  8
0
  6
CONTINUOUS
 62
             7
100
AcDbLine
 10
-29.0
 20
-33.0
 11
19.00011169824211
 21
-33.0
  0
POINT
  5
34
100
AcDbEntity
  8
0
 62
             7
100
AcDbPoint
 10
19.0
 20
88.0
  0
POINT
  5
33
100
AcDbEntity
  8
0
 62
             7
100
AcDbPoint
 10
10.0
 20
88.0
  0
POINT
  5
32
100
AcDbEntity
  8
0
 62
             7
100
AcDbPoint
 10
19.0
 20
88.0
  0
POINT
  5
31
100
AcDbEntity
  8
0
 62
             7
100
AcDbPoint
 10
-5.0
 20
88.0
  0
POINT
  5
30
100
AcDbEntity
  8
0
 62
             7
100
AcDbPoint
 10
-70.0
 20
-12.5
  0
POINT
  5
2F
100
AcDbEntity
  8
0
 62
             7
100
AcDbPoint
 10
-118.0
 20
-33.0
  0
POINT
  5
2E
100
AcDbEntity
  8
0
 62
             7
100
AcDbPoint
 10
-93.0
 20
-33.0
  0
POINT
  5
2D
100
AcDbEntity
  8
0
 62
             7
100
AcDbPoint
 10
-118.0
 20
-33.0
  0
POINT
  5
2C
100
AcDbEntity
  8
0
 62
             7
100
AcDbPoint
 10
-115.0
 20
9.0
  0
POINT
  5
2B
100
AcDbEntity
  8
0
 62
             7
100
AcDbPoint
 10
-118.0
 20
0.0
  0
POINT
  5
2A
100
AcDbEntity
  8
0
 62
             7
100
AcDbPoint
 10
-28.99988830175789
 20
-31.0
  0
POINT
  5
29
100
AcDbEntity
  8
0
 62
             7
100
AcDbPoint
 10
-31.0
 20
-29.0
  0
POINT
  5
28
100
AcDbEntity
  8
0
 62
             7
100
AcDbPoint
 10
19.00011169824211
 20
-33.0
  0
LINE
  5
10A
100
AcDbEntity
  8
1
 62
             2
100
AcDbLine
 10
11.09999999999855
 20
77.40525588832324
 11
11.76987298107636
 21
79.90525588832324
  0
LINE
  5
10B
100
AcDbEntity
  8
1
 62
             2
100
AcDbLine
 10
11.09999999999855
 20
77.40525588832324
 11
12.93012701892075
 21
79.23538290724542
  0
LINE
  5
10D
100
AcDbEntity
  8
1
 62
             2
100
AcDbLine
 10
-1.23171747760952
 20
84.32178001775526
 11
0.36429808015108
 21
86.35929422633497
  0
LINE
  5
10E
100
AcDbEntity
  8
1
 62
             2
100
AcDbLine
 10
-1.23171747760952
 20
84.32178001775526
 11
1.16922964453621
 21
85.28831130407673
  0
INSERT
  5
1CF
100
AcDbEntity
  8
0
100
AcDbBlockReference
  2
*D14
 10
0.0
 20
0.0
  0
ENDSEC
  0
SECTION
  2
OBJECTS
  0
DICTIONARY
  5
19
100
AcDbDictionary
  3
ACAD_GROUP
350
1A
  3
ACAD_MLINESTYLE
350
1B
  0
DICTIONARY
  5
1A
102
{ACAD_REACTORS
330
19
102
}
100
AcDbDictionary
  0
DICTIONARY
  5
1B
102
{ACAD_REACTORS
330
19
102
}
100
AcDbDictionary
  3
STANDARD
350
1C
  0
MLINESTYLE
  5
1C
102
{ACAD_REACTORS
330
1B
102
}
100
AcDbMlineStyle
  2
STANDARD
 70
             0
  3

 62
             0
 51
90.0
 52
90.0
 71
             2
 49
0.5
 62
           256
  6
BYLAYER
 49
-0.5
 62
           256
  6
BYLAYER
  0
ENDSEC
  0
EOF
